#TITLE:140BPM Streamathon Tester;
#SUBTITLE:;
#ARTIST:WFS vs oGame;
#TITLETRANSLIT:;
#SUBTITLETRANSLIT:;
#ARTISTTRANSLIT:;
#CREDIT:;
#BANNER:140.PNG;
#BACKGROUND:;
#LYRICSPATH:;
#CDTITLE:;
#MUSIC:140BPM Streamathon Tester.mp3;
#OFFSET:-0.586;
#SAMPLESTART:56.660;
#SAMPLELENGTH:29.999;
#SELECTABLE:YES;
#BPMS:0.000=140.000;
#STOPS:;
#BGCHANGES:;
// cache tags:
#FIRSTBEAT:116.000;
#LASTBEAT:3996.500;
#SONGFILENAME:Songs/Owenviau1 Simfiles 4/140BPM Streamathon Tester [Wildfireskunk]E/sm.sm;
#HASMUSIC:1;
#HASBANNER:1;
#MUSICLENGTH:1825.000;
// end cache tags

//---------------dance-single - Wildfireskunk----------------
#NOTES:
     dance-single:
     Wildfireskunk:
     Challenge:
     14:
     1.000,0.903,0.001,0.001,1.000,15505.000,1.000,2.000,0.000,0.000:
0000
0000
0000
0000
,
0000
0000
0000
0000
,
0000
0000
0000
0000
,
0000
0000
0000
0000
,
0000
0000
0000
0000
,
0000
0000
0000
0000
,
0000
0000
0000
0000
,
0000
0000
0000
0000
,
0000
0000
0000
0000
,
0000
0000
0000
0000
,
0000
0000
0000
0000
,
0000
0000
0000
0000
,
0000
0000
0000
0000
,
0000
0000
0000
0000
,
0000
0000
0000
0000
,
0000
0000
0000
0000
,
0000
0000
0000
0000
,
0000
0000
0000
0000
,
0000
0000
0000
0000
,
0000
0000
0000
0000
,
0000
0000
0000
0000
,
0000
0000
0000
0000
,
0000
0000
0000
0000
,
0000
0000
0000
0000
,
0000
0000
0000
0000
,
0000
0000
0000
0000
,
0000
0000
0000
0000
,
0000
0000
0000
0000
,
0000
0000
0000
0000
,
1000
0001
1000
0001
1000
0001
1000
0001
,
1000
0100
0010
0100
0010
0100
0010
0100
,
1000
0001
1000
0001
1000
0001
1000
0001
0010
0100
0010
0100
0010
0100
0010
0100
,
1000
0100
1000
0100
0010
0001
0010
0001
0100
0010
0100
0010
1000
0001
1000
0001
,
1000
0100
1000
0001
1000
0100
0010
0001
1000
0010
0100
0001
0010
0001
0010
0100
,
1000
0001
0100
0010
0100
0001
0100
0010
1000
0100
1000
0010
0100
0001
0100
0010
,
1000
0100
0010
0001
0100
0010
1000
0100
1000
0010
0100
0010
1000
0100
0010
0001
,
0010
0100
1000
0001
0010
0100
1000
0100
0010
0001
1000
0001
1000
0100
0010
0100
,
1000
0010
0100
0010
0100
0010
1000
0001
0100
0010
1000
0100
0010
0001
0010
0001
,
1000
0010
0100
0001
1000
0001
0010
0100
0010
0100
0010
0001
0100
0010
0100
0001
,
1000
0100
0010
0001
0010
0100
1000
0010
0100
0010
0100
0001
0010
0100
0010
0100
,
1000
0100
0010
0001
0010
0100
1000
0100
1000
0100
0010
0001
0010
0100
1000
0001
,
1000
0100
1000
0100
1000
0001
1000
0001
1000
0010
1000
0010
1000
0001
1000
0001
,
0010
0001
0010
0001
0100
0001
0100
0001
1000
0001
1000
0001
0100
0001
1000
0001
,
0010
0100
1000
0001
0100
0010
1000
0100
1000
0010
0100
0010
0100
0001
0100
0010
,
1000
0100
0010
0100
0010
0001
0100
0010
1000
0100
0010
0001
0010
0100
1000
0001
,
1000
0001
0100
0010
1000
0100
0010
0001
0010
0001
0010
0001
1000
0100
0010
0001
,
0010
0100
1000
0001
0010
0100
1000
0100
0010
0001
1000
0100
1000
0100
1000
0100
,
0010
0001
1000
0100
0010
0001
1000
0100
0010
0001
1000
0100
0010
0001
0010
0001
,
0010
0001
0010
0100
1000
0001
0010
0100
1000
0001
0010
0100
1000
0001
0010
0100
,
1000
0001
1000
0001
1000
0001
1000
0001
0100
0001
1000
0010
1000
0001
0100
0001
,
1000
0010
1000
0001
0100
0001
1000
0010
1000
0001
0100
0001
1000
0010
1000
0001
,
1000
0100
1000
0001
0010
0001
1000
0100
1000
0001
0010
0001
1000
0100
1000
0001
,
0010
0001
1000
0100
1000
0001
0010
0001
0010
0100
1000
0001
0010
0100
1000
0001
,
1000
0100
0010
0001
1000
0100
0010
0001
1000
0100
0010
0001
0010
0100
1000
0100
,
1000
0001
0100
0010
1000
0100
1000
0010
0100
0001
0100
0010
1000
0100
0010
0100
,
1000
0100
0010
0001
0010
0100
0010
0001
0100
0010
0100
0001
0010
0100
1000
0100
,
0010
0100
1000
0001
0100
0001
1000
0100
1000
0001
0010
0100
1000
0100
0010
0001
,
0100
0010
1000
0010
0100
0010
0100
0010
0100
0001
1000
0010
0100
0010
1000
0001
,
0010
0100
1000
0010
0100
0001
0100
0010
1000
0001
0100
0010
1000
0001
1000
0100
,
0010
0001
0010
0100
1000
0100
1000
0001
0010
0001
0010
0100
0010
0100
0010
0001
,
1000
0100
1000
0001
0100
0010
0100
0010
1000
0010
0100
0010
1000
0010
0100
0001
,
0100
0010
1000
0001
0010
0100
1000
0001
0100
0010
1000
0001
1000
0100
0010
0001
,
1000
0010
0100
0001
1000
0100
0010
0001
1000
0001
1000
0001
0100
0010
0100
0010
,
1000
0100
0010
0001
0010
0100
1000
0100
0010
0001
0010
0100
1000
0100
1000
0100
,
0010
0001
0010
0001
0010
0100
1000
0100
0010
0001
0100
0010
1000
0010
0100
0001
,
0100
0010
1000
0010
0100
0001
0010
0100
1000
0010
0100
0001
0010
0100
1000
0010
,
0100
0001
1000
0100
0010
0001
0100
0010
1000
0100
0010
0001
0100
0010
1000
0001
,
0010
0001
0010
0001
0010
0001
0010
0001
0010
0001
0010
0100
1000
0100
1000
0001
,
1000
0100
1000
0001
0100
0001
1000
0001
0100
0001
1000
0001
0010
0001
1000
0010
,
1000
0001
0010
0100
1000
0100
1000
0001
0100
0001
1000
0010
1000
0001
0010
0001
,
0100
0001
1000
0100
1000
0010
1000
0001
0100
0010
1000
0100
1000
0001
0010
0100
,
1000
0001
0010
0001
0100
0010
1000
0001
0100
0001
1000
0001
1000
0100
1000
0001
,
1000
0001
0010
0100
1000
0001
1000
0100
0010
0001
1000
0001
1000
0100
0010
0001
,
0010
0001
0100
0010
0100
0010
1000
0010
0100
0001
0100
0010
1000
0010
1000
0001
,
0100
0001
0100
0010
0100
0001
0010
0100
0010
0001
0100
0010
0100
0010
0100
0001
,
0010
0100
1000
0001
1000
0001
0100
0001
0100
0001
1000
0001
1000
0001
0010
0001
,
0010
0001
1000
0100
0010
0100
1000
0100
0010
0100
1000
0010
0100
0010
1000
0010
,
0100
0010
1000
0100
0010
0001
0100
0010
1000
0001
0100
0001
1000
0001
1000
0010
,
1000
0001
0100
0010
0100
0001
0100
0010
0100
0001
0010
0100
0010
0001
0010
0100
,
0010
0001
1000
0100
0010
0100
0010
0100
0010
0001
0010
0001
0010
0100
0010
0100
,
1000
0100
1000
0001
0100
0010
1000
0100
1000
0010
0100
0001
0010
0100
1000
0100
,
0010
0001
1000
0100
0010
0001
1000
0100
0010
0001
1000
0001
0010
0100
1000
0001
,
0010
0100
1000
0001
0010
0100
1000
0001
0010
0100
1000
0001
1000
0001
0100
0010
,
1000
0001
1000
0010
0100
0001
1000
0010
0100
0001
1000
0010
0100
0001
1000
0001
,
1000
0001
0100
0010
1000
0001
0100
0010
1000
0001
0100
0010
1000
0001
0010
0001
,
1000
0100
1000
0001
0010
0001
1000
0100
1000
0001
0100
0001
1000
0100
1000
0001
,
1000
0100
1000
0010
1000
0001
1000
0001
0100
0001
1000
0001
0100
0001
0010
0001
,
0100
0001
0010
0100
0010
0100
0010
0100
1000
0001
0100
0010
0100
0010
0100
0010
,
1000
0100
0010
0100
1000
0001
0100
0010
0100
0001
0010
0100
0010
0001
0100
0010
,
1000
0100
0010
0100
1000
0010
0100
0010
1000
0100
1000
0001
0010
0100
0010
0001
,
0100
0010
1000
0001
1000
0010
0100
0001
0010
0100
0010
0100
1000
0010
0100
0010
,
0100
0001
0010
0100
0010
0001
0100
0010
1000
0100
0010
0001
0010
0100
1000
0100
,
1000
0001
0010
0100
1000
0100
1000
0100
0010
0001
0010
0001
1000
0100
0010
0001
,
0010
0001
1000
0100
0010
0001
0100
0010
1000
0001
0100
0010
1000
0100
1000
0001
,
0100
0010
1000
0100
1000
0001
0010
0001
1000
0100
0010
0001
0100
0010
0100
0010
,
0100
0001
0010
0100
0010
0001
0010
0100
0010
0001
0010
0100
0010
0100
0010
0100
,
0010
0001
0010
0100
0010
0001
0010
0100
1000
0100
0010
0100
1000
0100
0010
0001
,
0010
0100
0010
0001
0010
0100
1000
0100
0010
0100
1000
0100
0010
0100
1000
0100
,
0010
0100
0010
0100
1000
0100
0010
0001
1000
0001
1000
0100
0010
0001
0010
0001
,
1000
0100
1000
0001
0010
0001
0100
0010
0100
0001
1000
0001
0010
0100
0010
0001
,
0100
0001
1000
0010
1000
0010
1000
0010
1000
0010
1000
0001
1000
0010
1000
0100
,
0010
0001
1000
0001
1000
0001
0010
0001
1000
0100
0010
0001
0100
0010
1000
0001
,
1000
0010
0100
0010
1000
0001
0010
0100
0010
0001
1000
0100
0010
0100
1000
0001
,
0100
0010
0100
0001
0100
0001
0010
0100
1000
0100
1000
0100
0010
0100
0010
0100
,
0010
0001
0010
0001
0010
0100
1000
0100
1000
0001
0010
0100
1000
0100
0010
0001
,
0100
0001
0010
0100
1000
0100
0010
0001
1000
0001
0010
0100
1000
0100
0010
0001
,
0010
0100
1000
0100
0010
0001
0100
0010
1000
0010
0100
0001
0100
0010
1000
0001
,
1000
0010
0100
0010
0100
0010
1000
0001
0100
0010
1000
0100
0010
0001
0010
0001
,
1000
0010
0100
0001
1000
0001
0010
0100
0010
0100
0010
0001
0100
0010
0100
0001
,
1000
0100
0010
0001
0010
0100
1000
0010
0100
0010
0100
0001
0010
0100
0010
0100
,
1000
0100
0010
0001
0010
0100
1000
0100
1000
0100
0010
0001
0010
0100
1000
0001
,
1000
0100
1000
0100
1000
0100
1000
0001
0010
0001
1000
0100
1000
0001
0100
0001
,
1000
0100
1000
0001
1000
0100
1000
0010
1000
0001
1000
0001
0100
0001
1000
0001
,
0100
0001
0010
0001
1000
0100
1000
0001
1000
0100
1000
0001
1000
0001
0010
0100
,
1000
0001
1000
0001
0100
0001
1000
0001
0100
0001
1000
0001
0010
0100
1000
0001
,
0010
0100
0010
0100
1000
0100
0010
0001
0010
0001
0010
0100
1000
0010
0100
0001
,
0100
0001
0100
0001
0100
0010
1000
0100
1000
0010
0100
0010
0100
0001
0100
0010
,
1000
0100
0010
0001
1000
0001
0100
0010
1000
0010
0100
0001
1000
0100
1000
0001
,
0010
0001
1000
0100
1000
0001
0100
0001
1000
0100
1000
0001
1000
0100
1000
0010
,
1000
0001
1000
0001
0100
0001
1000
0001
0100
0001
0010
0001
1000
0010
0100
0010
,
0100
0001
0100
0010
1000
0100
0010
0100
0010
0001
0100
0010
1000
0100
0010
0001
,
1000
0100
0010
0001
1000
0100
0010
0001
1000
0100
0010
0001
1000
0100
0010
0001
,
0010
0100
1000
0001
1000
0001
0100
0010
1000
0100
0010
0001
0010
0001
0010
0001
,
0010
0100
1000
0100
1000
0001
0100
0010
1000
0100
1000
0010
0100
0001
0100
0010
,
1000
0100
0010
0100
1000
0100
0010
0001
0010
0100
0010
0001
0100
0010
0100
0001
,
0010
0100
1000
0100
0010
0100
1000
0001
0100
0001
1000
0100
1000
0001
0010
0100
,
1000
0100
0010
0001
0100
0010
1000
0010
0100
0010
0100
0010
0100
0001
1000
0010
,
0100
0010
1000
0001
0010
0100
1000
0010
0100
0001
0100
0010
1000
0001
0100
0010
,
1000
0001
1000
0100
0010
0001
0010
0100
1000
0100
1000
0001
0010
0001
0010
0100
,
0010
0100
0010
0001
1000
0100
1000
0001
0100
0010
0100
0010
1000
0010
0100
0010
,
1000
0010
0100
0001
0100
0010
1000
0001
0010
0100
1000
0001
0100
0010
1000
0001
,
1000
0100
1000
0001
0010
0001
1000
0100
1000
0001
0010
0001
1000
0001
0100
0001
,
1000
0010
1000
0001
0100
0001
1000
0010
1000
0001
0100
0001
1000
0100
0010
0001
,
1000
0100
0010
0001
1000
0010
0100
0001
1000
0100
0010
0001
1000
0001
1000
0001
,
0100
0010
0100
0010
1000
0100
0010
0001
0010
0100
1000
0100
0010
0001
0010
0100
,
1000
0100
1000
0100
0010
0001
0010
0001
0010
0100
1000
0100
0010
0001
0100
0010
,
1000
0010
0100
0001
0100
0010
1000
0010
0100
0001
0010
0100
1000
0010
0100
0001
,
0010
0100
1000
0010
0100
0001
1000
0100
0010
0001
0100
0010
1000
0100
0010
0001
,
0100
0010
1000
0001
0010
0001
0010
0001
0010
0001
0010
0001
0010
0001
0010
0100
,
1000
0100
1000
0001
1000
0100
1000
0001
0100
0001
1000
0001
0100
0001
1000
0001
,
0010
0001
1000
0010
1000
0001
0010
0100
1000
0100
1000
0001
0100
0001
1000
0010
,
1000
0001
0010
0001
0100
0001
1000
0100
1000
0010
1000
0001
0100
0010
1000
0100
,
1000
0001
0010
0100
1000
0001
0010
0001
0100
0010
1000
0001
0100
0001
1000
0001
,
1000
0100
1000
0001
1000
0001
0010
0100
1000
0001
1000
0100
0010
0001
1000
0001
,
1000
0100
0010
0001
0010
0001
0100
0010
0100
0010
1000
0010
0100
0001
0100
0010
,
1000
0010
1000
0001
0100
0001
0100
0010
0100
0001
0010
0100
0010
0001
0100
0010
,
0100
0010
0100
0001
0010
0100
1000
0001
1000
0001
0100
0001
0100
0001
1000
0001
,
1000
0001
0010
0001
0010
0001
1000
0100
0010
0100
1000
0100
0010
0100
1000
0010
,
0100
0010
1000
0010
0100
0010
1000
0100
0010
0001
0100
0010
1000
0001
0100
0001
,
1000
0001
1000
0010
1000
0001
0100
0010
0100
0001
0100
0010
0100
0001
0010
0100
,
0010
0001
0010
0100
0010
0001
1000
0100
0010
0100
0010
0100
0010
0001
0010
0001
,
0010
0100
0010
0100
1000
0100
1000
0001
0100
0010
1000
0100
1000
0010
0100
0001
,
0010
0100
1000
0100
0010
0001
1000
0100
0010
0001
1000
0100
0010
0001
1000
0001
,
0010
0100
1000
0001
0010
0100
1000
0001
0010
0100
1000
0001
0010
0100
1000
0001
,
1000
0001
0100
0010
1000
0001
1000
0010
0100
0001
1000
0010
0100
0001
1000
0010
,
0100
0001
1000
0001
1000
0001
0100
0010
1000
0001
0100
0010
1000
0001
0100
0010
,
1000
0001
0010
0001
1000
0100
1000
0001
0010
0001
1000
0100
1000
0001
0100
0001
,
1000
0100
1000
0001
1000
0100
1000
0010
1000
0001
1000
0001
0100
0001
1000
0001
,
0100
0001
0010
0001
0100
0001
0010
0100
0010
0100
0010
0100
1000
0001
0100
0010
,
0100
0010
0100
0010
1000
0100
0010
0100
1000
0001
0100
0010
0100
0001
0010
0100
,
0010
0001
0100
0010
1000
0100
0010
0100
1000
0010
0100
0010
1000
0100
1000
0001
,
0010
0100
0010
0001
0100
0010
1000
0001
1000
0010
0100
0001
1000
0010
0100
0001
,
1000
0010
0100
0001
1000
0010
0100
0001
1000
0010
0100
0001
1000
0010
0100
0001
,
1000
0010
0100
0001
1000
0010
0100
0001
1000
0100
0010
0001
1000
0100
0010
0001
,
1000
0100
0010
0001
1000
0100
0010
0001
1000
0001
0010
0100
1000
0100
0010
0001
,
0010
0100
0010
0100
1000
0010
0100
0010
0100
0001
0010
0100
0010
0001
0100
0010
,
1000
0100
0010
0001
0010
0100
1000
0100
1000
0001
0010
0100
1000
0100
1000
0100
,
0010
0001
0010
0001
1000
0100
0010
0001
0010
0001
1000
0100
0010
0001
0100
0010
,
1000
0001
1000
0010
1000
0001
0100
0010
0100
0001
0100
0010
0100
0001
0010
0100
,
0010
0001
0010
0100
0010
0001
1000
0100
0010
0100
0010
0100
0010
0001
0010
0001
,
0010
0100
0010
0100
1000
0100
1000
0001
0100
0010
1000
0100
1000
0010
0100
0001
,
0010
0100
1000
0100
0010
0001
1000
0100
0010
0001
1000
0100
0010
0001
1000
0001
,
0010
0100
1000
0001
0010
0100
1000
0001
0010
0100
1000
0001
0010
0100
1000
0001
,
1000
0001
0100
0010
1000
0001
1000
0010
0100
0001
1000
0010
0100
0001
1000
0010
,
0100
0001
1000
0001
1000
0001
0100
0010
1000
0001
0100
0010
1000
0001
0100
0010
,
1000
0100
0010
0001
1000
0001
1000
0001
0010
0001
1000
0001
1000
0001
0100
0001
,
1000
0100
1000
0001
1000
0010
0100
0001
0100
0001
1000
0001
0100
0010
1000
0001
,
0100
0001
1000
0100
0010
0001
0010
0100
1000
0100
0010
0100
1000
0001
0100
0010
,
1000
0010
0100
0010
1000
0100
0010
0100
1000
0001
0100
0010
0100
0001
0010
0100
,
0010
0001
0100
0010
1000
0100
0010
0100
1000
0010
0100
0010
1000
0100
1000
0001
,
0010
0100
1000
0001
1000
0001
1000
0001
1000
0001
1000
0100
1000
0100
1000
0100
,
1000
0100
1000
0100
1000
0100
1000
0001
1000
0001
1000
0001
1000
0001
1000
0010
,
1000
0010
1000
0010
1000
0010
1000
0010
1000
0010
1000
0001
0010
0100
1000
0100
,
0010
0001
0010
0001
0010
0001
0010
0001
0010
0001
0100
0001
0100
0001
0100
0001
,
0100
0001
0010
0100
1000
0001
0010
0100
1000
0100
0010
0001
1000
0001
1000
0001
,
0100
0001
0100
0001
1000
0001
1000
0001
1000
0100
1000
0100
1000
0001
1000
0001
,
1000
0100
1000
0001
0100
0001
1000
0100
1000
0001
0100
0001
1000
0100
0010
0001
,
1000
0100
0010
0001
1000
0100
0010
0001
1000
0100
0010
0001
0010
0100
1000
0001
,
0010
0100
1000
0001
0010
0100
1000
0001
0010
0100
1000
0100
0010
0001
0010
0100
,
1000
0001
0010
0100
1000
0100
0010
0001
1000
0100
0010
0001
1000
0001
1000
0001
,
1000
0100
1000
0100
0010
0001
0010
0100
0010
0100
1000
0100
0010
0001
0010
0001
,
0010
0100
0010
0001
0100
0010
1000
0001
0100
0010
0100
0010
0100
0001
0010
0001
,
0100
0010
1000
0100
0010
0100
1000
0010
0100
0010
1000
0100
0010
0001
1000
0100
,
0010
0001
0010
0100
1000
0001
0010
0100
1000
0100
1000
0001
0010
0001
1000
0100
,
1000
0001
0010
0001
1000
0100
0010
0001
1000
0100
1000
0001
0010
0100
1000
0001
,
0010
0001
0100
0010
1000
0100
0010
0100
1000
0100
0010
0100
1000
0100
0010
0100
,
1000
0100
0010
0100
1000
0100
0010
0001
0010
0100
0010
0001
0010
0100
0010
0001
,
0010
0100
0010
0001
0010
0100
0010
0001
0010
0001
0010
0100
0010
0100
1000
0100
,
1000
0100
0010
0100
1000
0001
1000
0010
1000
0001
1000
0100
1000
0001
0010
0100
,
1000
0001
0100
0001
1000
0001
0010
0001
1000
0001
0100
0010
1000
0100
0010
0001
,
1000
0100
0010
0001
0010
0100
1000
0001
0010
0100
1000
0001
1000
0100
0010
0001
,
1000
0100
1000
0100
1000
0001
1000
0001
0100
0001
0100
0001
0100
0010
0100
0010
,
1000
0010
1000
0010
1000
0100
1000
0100
0010
0100
0010
0100
1000
0001
1000
0001
,
0100
0010
0100
0010
0100
0001
0100
0001
0010
0001
0010
0001
0010
0100
0010
0100
,
0010
0001
0010
0001
1000
0100
1000
0100
1000
0001
1000
0001
0100
0010
0100
0010
,
1000
0100
0010
0001
0100
0010
0100
0001
0010
0100
1000
0010
0100
0010
1000
0001
,
0100
0010
1000
0001
1000
0010
0100
0001
1000
0001
0100
0010
1000
0100
0010
0001
,
1000
0100
1000
0010
0100
0010
1000
0100
0010
0001
0100
0010
0100
0001
0010
0100
,
0010
0001
0100
0010
0100
0010
1000
0100
0010
0100
1000
0100
0010
0100
1000
0001
,
1000
0100
0010
0001
0100
0010
0100
0001
1000
0001
0100
0010
0100
0001
1000
0001
,
0010
0100
0010
0100
1000
0100
0010
0001
0100
0010
0100
0010
0100
0010
0100
0001
,
0010
0100
1000
0100
1000
0100
0010
0100
0010
0001
0010
0001
0010
0100
0010
0001
,
0010
0100
1000
0100
1000
0010
0100
0001
0010
0100
1000
0001
0100
0010
1000
0010
,
1000
0100
0010
0001
1000
0010
0100
0001
1000
0010
0100
0001
1000
0010
0100
0001
,
1000
0010
0100
0001
1000
0010
0100
0001
1000
0010
0100
0001
1000
0010
0100
0001
,
1000
0010
0100
0001
1000
0100
0010
0001
1000
0100
0010
0001
1000
0100
0010
0001
,
1000
0100
0010
0001
1000
0100
0010
0001
1000
0100
0010
0001
1000
0100
0010
0001
,
1000
0100
0010
0001
1000
0001
1000
0010
1000
0001
1000
0001
1000
0100
1000
0001
,
1000
0001
0100
0001
1000
0001
1000
0001
0010
0001
1000
0001
1000
0001
0100
0010
,
1000
0100
0010
0100
1000
0001
0010
0100
0010
0001
0100
0010
0100
0001
1000
0010
,
0100
0010
1000
0001
0100
0001
0010
0001
1000
0100
1000
0010
1000
0001
0010
0100
,
1000
0001
1000
0001
1000
0100
0010
0001
1000
0001
1000
0001
0100
0010
1000
0001
,
1000
0001
1000
0010
0100
0001
1000
0001
1000
0001
0010
0100
1000
0001
1000
0100
,
0010
0001
1000
0001
0010
0100
1000
0001
1000
0100
0010
0001
1000
0100
1000
0001
,
1000
0001
0100
0001
1000
0001
1000
0010
1000
0001
1000
0001
0100
0001
1000
0001
,
0010
0100
0010
0001
1000
0100
0010
0001
1000
0100
0010
0100
1000
0001
0010
0100
,
1000
0001
0010
0100
1000
0001
0010
0001
0100
0010
1000
0001
0100
0001
1000
0001
,
1000
0100
1000
0001
1000
0001
0010
0100
1000
0001
1000
0100
0010
0001
1000
0001
,
1000
0100
0010
0001
0010
0001
0100
0010
0100
0010
1000
0010
0100
0001
0100
0010
,
1000
0010
1000
0001
0100
0001
0100
0010
0100
0001
0010
0100
0010
0001
0100
0010
,
0100
0010
0100
0001
0010
0100
1000
0001
1000
0001
0100
0001
0100
0001
1000
0001
,
1000
0001
0010
0001
0010
0001
1000
0100
0010
0100
1000
0100
0010
0100
1000
0010
,
0100
0010
1000
0010
0100
0010
1000
0100
0010
0001
0100
0010
1000
0001
0100
0001
,
1000
0001
1000
0010
1000
0001
0100
0010
0100
0001
0100
0010
0100
0001
0010
0100
,
0010
0001
0010
0100
0010
0001
1000
0100
0010
0100
0010
0100
0010
0001
0010
0001
,
0010
0100
0010
0100
1000
0100
1000
0001
0100
0010
1000
0100
1000
0010
0100
0001
,
0010
0100
1000
0100
0010
0001
1000
0100
0010
0001
1000
0100
0010
0001
1000
0001
,
0010
0100
1000
0001
0010
0100
1000
0001
0010
0100
1000
0001
0010
0100
1000
0001
,
1000
0001
0100
0010
1000
0001
1000
0010
0100
0001
1000
0010
0100
0001
1000
0010
,
0100
0001
1000
0001
1000
0001
0100
0010
1000
0001
0100
0010
1000
0001
0100
0010
,
1000
0001
0010
0001
1000
0100
1000
0001
0010
0001
1000
0100
1000
0001
0100
0001
,
1000
0100
1000
0001
1000
0100
1000
0010
1000
0001
1000
0001
0100
0001
1000
0001
,
0100
0001
0010
0001
0100
0001
0010
0100
0010
0100
0010
0100
1000
0001
0100
0010
,
0100
0010
0100
0010
1000
0100
0010
0100
1000
0001
0100
0010
0100
0001
0010
0100
,
0010
0001
0100
0010
1000
0100
0010
0100
1000
0010
0100
0010
1000
0100
1000
0001
,
0010
0100
0010
0001
0100
0010
1000
0001
1000
0010
0100
0001
1000
0010
0100
0001
,
1000
0010
0100
0001
1000
0010
0100
0001
1000
0010
0100
0001
1000
0010
0100
0001
,
1000
0010
0100
0001
1000
0010
0100
0001
1000
0100
0010
0001
1000
0100
0010
0001
,
1000
0100
0010
0001
1000
0100
0010
0001
1000
0001
0010
0100
1000
0100
0010
0001
,
0010
0100
0010
0100
1000
0010
0100
0010
0100
0001
0010
0100
0010
0001
0100
0010
,
1000
0100
0010
0001
0010
0100
1000
0100
1000
0001
0010
0100
1000
0100
1000
0100
,
0010
0001
0010
0001
1000
0100
0010
0001
0010
0001
1000
0100
0010
0001
0100
0010
,
1000
0001
1000
0010
1000
0001
0100
0010
0100
0001
0100
0010
0100
0001
0010
0100
,
0010
0001
0010
0100
0010
0001
1000
0100
0010
0100
0010
0100
0010
0001
0010
0001
,
0010
0100
0010
0100
1000
0100
1000
0001
0100
0010
1000
0100
1000
0010
0100
0001
,
0010
0100
1000
0100
0010
0001
1000
0100
0010
0001
1000
0100
0010
0001
1000
0001
,
0010
0100
1000
0001
0010
0100
1000
0001
0010
0100
1000
0001
0010
0100
1000
0001
,
1000
0001
0100
0010
1000
0001
1000
0010
0100
0001
1000
0010
0100
0001
1000
0010
,
0100
0001
1000
0001
1000
0001
0100
0010
1000
0001
0100
0010
1000
0001
0100
0010
,
1000
0100
0010
0001
1000
0001
1000
0001
0010
0001
1000
0001
1000
0001
0100
0001
,
1000
0100
1000
0001
1000
0010
0100
0001
0100
0001
1000
0001
0100
0010
1000
0001
,
0100
0001
1000
0100
0010
0001
0010
0100
1000
0100
0010
0100
1000
0001
0100
0010
,
1000
0010
0100
0010
1000
0100
0010
0100
1000
0001
0100
0010
0100
0001
0010
0100
,
0010
0001
0100
0010
1000
0100
0010
0100
1000
0010
0100
0010
1000
0100
1000
0001
,
1000
0100
1000
0001
1000
0100
0010
0001
1000
0010
0100
0001
0010
0001
0010
0100
,
1000
0001
0100
0010
0100
0001
0100
0010
1000
0100
1000
0010
0100
0001
0100
0010
,
1000
0100
0010
0001
0100
0010
1000
0100
1000
0010
0100
0010
1000
0100
0010
0001
,
0010
0100
1000
0001
0010
0100
1000
0100
0010
0001
1000
0001
1000
0100
0010
0100
,
1000
0010
0100
0010
0100
0010
1000
0001
0100
0010
1000
0100
0010
0001
0010
0001
,
1000
0010
0100
0001
1000
0001
0010
0100
0010
0100
0010
0001
0100
0010
0100
0001
,
1000
0100
0010
0001
0010
0100
1000
0010
0100
0010
0100
0001
0010
0100
0010
0100
,
1000
0100
0010
0001
0010
0100
1000
0100
1000
0100
0010
0001
0010
0100
1000
0001
,
1000
0100
1000
0100
1000
0001
1000
0001
1000
0010
1000
0010
1000
0001
1000
0001
,
0010
0001
0010
0001
0100
0001
0100
0001
1000
0001
1000
0001
0100
0001
1000
0001
,
0010
0100
1000
0001
0100
0010
1000
0100
1000
0010
0100
0010
0100
0001
0100
0010
,
1000
0100
0010
0100
0010
0001
0100
0010
1000
0100
0010
0001
0010
0100
1000
0001
,
1000
0001
0100
0010
1000
0100
0010
0001
0010
0001
0010
0001
1000
0100
0010
0001
,
0010
0100
1000
0001
0010
0100
1000
0100
0010
0001
1000
0100
1000
0100
1000
0100
,
0010
0001
1000
0100
0010
0001
1000
0100
0010
0001
1000
0100
0010
0001
0010
0001
,
0010
0001
0010
0100
1000
0001
0010
0100
1000
0001
0010
0100
1000
0001
0010
0100
,
1000
0001
1000
0001
1000
0001
1000
0001
0100
0001
1000
0010
1000
0001
0100
0001
,
1000
0001
0010
0001
0010
0001
1000
0100
0010
0100
1000
0100
0010
0100
1000
0010
,
0100
0010
1000
0010
0100
0010
1000
0100
0010
0001
0100
0010
1000
0001
0100
0001
,
1000
0001
1000
0010
1000
0001
0100
0010
0100
0001
0100
0010
0100
0001
0010
0100
,
0010
0001
0010
0100
0010
0001
1000
0100
0010
0100
0010
0100
0010
0001
0010
0001
,
0010
0100
0010
0100
1000
0100
1000
0001
0100
0010
1000
0100
1000
0010
0100
0001
,
0010
0100
1000
0100
0010
0001
1000
0100
0010
0001
1000
0100
0010
0001
1000
0001
,
0010
0100
1000
0001
0010
0100
1000
0001
0010
0100
1000
0001
0010
0100
1000
0001
,
1000
0001
0100
0010
1000
0001
1000
0010
0100
0001
1000
0010
0100
0001
1000
0010
,
0100
0001
1000
0001
1000
0001
0100
0010
1000
0001
0100
0010
1000
0001
0100
0010
,
1000
0001
1000
0010
1000
0001
0100
0010
0100
0001
0100
0010
0100
0001
0010
0100
,
0010
0001
0010
0100
0010
0001
1000
0100
0010
0100
0010
0100
0010
0001
0010
0001
,
0010
0100
0010
0100
1000
0100
1000
0001
0100
0010
1000
0100
1000
0010
0100
0001
,
0010
0100
1000
0100
0010
0001
1000
0100
0010
0001
1000
0100
0010
0001
1000
0001
,
0010
0100
1000
0001
0010
0100
1000
0001
0010
0100
1000
0001
0010
0100
1000
0001
,
1000
0001
0100
0010
1000
0001
1000
0010
0100
0001
1000
0010
0100
0001
1000
0010
,
0100
0001
1000
0001
1000
0001
0100
0010
1000
0001
0100
0010
1000
0001
0100
0010
,
1000
0001
0010
0001
1000
0100
1000
0001
0010
0001
1000
0100
1000
0001
0100
0001
,
1000
0100
1000
0001
1000
0100
1000
0010
1000
0001
1000
0001
0100
0001
1000
0001
,
0100
0001
0010
0001
0100
0001
0010
0100
0010
0100
0010
0100
1000
0001
0100
0010
,
0100
0010
0100
0010
1000
0100
0010
0100
1000
0001
0100
0010
0100
0001
0010
0100
,
0010
0001
0100
0010
1000
0100
0010
0100
1000
0010
0100
0010
1000
0100
1000
0001
,
0010
0100
0010
0001
0100
0010
1000
0001
1000
0010
0100
0001
1000
0010
0100
0001
,
1000
0010
0100
0001
1000
0010
0100
0001
1000
0010
0100
0001
1000
0010
0100
0001
,
1000
0010
0100
0001
1000
0010
0100
0001
1000
0100
0010
0001
1000
0100
0010
0001
,
1000
0100
0010
0001
1000
0100
0010
0001
1000
0001
0010
0100
1000
0100
0010
0001
,
0010
0100
0010
0100
1000
0010
0100
0010
0100
0001
0010
0100
0010
0001
0100
0010
,
1000
0100
0010
0001
0010
0100
1000
0100
1000
0001
0010
0100
1000
0100
1000
0100
,
0010
0001
0010
0001
1000
0100
0010
0001
0010
0001
1000
0100
0010
0001
0100
0010
,
1000
0001
1000
0010
1000
0001
0100
0010
0100
0001
0100
0010
0100
0001
0010
0100
,
0010
0001
0010
0100
0010
0001
1000
0100
0010
0100
0010
0100
0010
0001
0010
0001
,
0010
0100
0010
0100
1000
0100
1000
0001
0100
0010
1000
0100
1000
0010
0100
0001
,
0010
0100
1000
0100
0010
0001
1000
0100
0010
0001
1000
0100
0010
0001
1000
0001
,
0010
0100
1000
0001
0010
0100
1000
0001
0010
0100
1000
0001
0010
0100
1000
0001
,
1000
0001
0100
0010
1000
0001
1000
0010
0100
0001
1000
0010
0100
0001
1000
0010
,
0100
0001
1000
0001
1000
0001
0100
0010
1000
0001
0100
0010
1000
0001
0100
0010
,
1000
0100
0010
0001
1000
0001
1000
0001
0010
0001
1000
0001
1000
0001
0100
0001
,
1000
0100
1000
0001
1000
0010
0100
0001
0100
0001
1000
0001
0100
0010
1000
0001
,
0100
0001
1000
0100
0010
0001
0010
0100
1000
0100
0010
0100
1000
0001
0100
0010
,
1000
0010
0100
0010
1000
0100
0010
0100
1000
0001
0100
0010
0100
0001
0010
0100
,
0010
0001
0100
0010
1000
0100
0010
0100
1000
0010
0100
0010
1000
0100
1000
0001
,
0010
0100
1000
0001
1000
0001
1000
0001
1000
0001
1000
0100
1000
0100
1000
0100
,
1000
0100
1000
0100
1000
0100
1000
0001
1000
0001
1000
0001
1000
0001
1000
0010
,
1000
0010
1000
0010
1000
0010
1000
0010
1000
0010
1000
0001
0010
0100
1000
0100
,
0010
0001
0010
0001
0010
0001
0010
0001
0010
0001
0100
0001
0100
0001
0100
0001
,
0100
0001
0010
0100
1000
0001
0010
0100
1000
0100
0010
0001
1000
0001
1000
0001
,
0100
0001
0100
0001
1000
0001
1000
0001
1000
0100
1000
0100
1000
0001
1000
0001
,
1000
0100
1000
0001
0100
0001
1000
0100
1000
0001
0100
0001
1000
0100
0010
0001
,
1000
0100
0010
0001
1000
0100
0010
0001
1000
0100
0010
0001
0010
0100
1000
0001
,
0010
0100
1000
0001
0010
0100
1000
0001
0010
0100
1000
0100
0010
0001
0010
0100
,
1000
0001
0010
0100
1000
0100
0010
0001
1000
0100
0010
0001
1000
0001
1000
0001
,
1000
0100
1000
0100
0010
0001
0010
0100
0010
0100
1000
0100
0010
0001
0010
0001
,
0010
0100
0010
0001
0100
0010
1000
0001
0100
0010
0100
0010
0100
0001
0010
0001
,
0100
0010
1000
0100
0010
0100
1000
0010
0100
0010
1000
0100
0010
0001
1000
0100
,
0010
0001
0010
0100
1000
0001
0010
0100
1000
0100
1000
0001
0010
0001
1000
0100
,
1000
0001
0010
0001
1000
0100
0010
0001
1000
0100
1000
0001
0010
0100
1000
0001
,
0010
0001
0100
0010
1000
0100
0010
0100
1000
0100
0010
0100
1000
0100
0010
0100
,
1000
0100
0010
0100
1000
0100
0010
0001
0010
0100
0010
0001
0010
0100
0010
0001
,
0010
0100
0010
0001
0010
0100
0010
0001
0010
0001
0010
0100
0010
0100
1000
0100
,
1000
0100
0010
0100
1000
0001
1000
0010
1000
0001
1000
0100
1000
0001
0010
0100
,
1000
0001
0100
0001
1000
0001
0010
0001
1000
0001
0100
0010
1000
0100
0010
0001
,
1000
0100
0010
0001
0010
0100
1000
0001
0010
0100
1000
0001
1000
0100
0010
0001
,
1000
0100
1000
0100
1000
0001
1000
0001
0100
0001
0100
0001
0100
0010
0100
0010
,
1000
0010
1000
0010
1000
0100
1000
0100
0010
0100
0010
0100
1000
0001
1000
0001
,
0100
0010
0100
0010
0100
0001
0100
0001
0010
0001
0010
0001
0010
0100
0010
0100
,
0010
0001
0010
0001
1000
0100
1000
0100
1000
0001
1000
0001
0100
0010
0100
0010
,
1000
0100
0010
0001
0100
0010
0100
0001
0010
0100
1000
0010
0100
0010
1000
0001
,
0100
0010
1000
0001
1000
0010
0100
0001
1000
0001
0100
0010
1000
0100
0010
0001
,
1000
0100
1000
0010
0100
0010
1000
0100
0010
0001
0100
0010
0100
0001
0010
0100
,
0010
0001
0100
0010
0100
0010
1000
0100
0010
0100
1000
0100
0010
0100
1000
0001
,
1000
0001
1000
0001
1000
0001
1000
0001
1000
0001
1000
0001
1000
0001
1000
0001
,
1000
0100
0010
0100
0010
0100
0010
0100
0010
0100
0010
0100
0010
0100
0010
0100
,
0010
0001
1000
0001
1000
0001
1000
0001
1000
0001
1000
0001
1000
0001
1000
0001
,
0010
0100
1000
0100
1000
0010
0100
0001
0010
0100
1000
0001
0100
0010
1000
0010
,
1000
0100
0010
0001
1000
0010
0100
0001
1000
0010
0100
0001
1000
0010
0100
0001
,
1000
0010
0100
0001
1000
0010
0100
0001
1000
0010
0100
0001
1000
0010
0100
0001
,
1000
0010
0100
0001
1000
0100
0010
0001
1000
0100
0010
0001
1000
0100
0010
0001
,
1000
0100
0010
0001
1000
0100
0010
0001
1000
0100
0010
0001
1000
0100
0010
0001
,
1000
0100
0010
0001
1000
0001
1000
0010
1000
0001
1000
0001
1000
0100
1000
0001
,
1000
0001
0100
0001
1000
0001
1000
0001
0010
0001
1000
0001
1000
0001
0100
0010
,
1000
0100
0010
0100
1000
0001
0010
0100
0010
0001
0100
0010
0100
0001
1000
0010
,
0100
0010
1000
0001
0100
0001
0010
0001
1000
0100
1000
0010
1000
0001
0010
0100
,
1000
0001
1000
0001
1000
0100
0010
0001
1000
0001
1000
0001
0100
0010
1000
0001
,
1000
0001
1000
0010
0100
0001
1000
0001
1000
0001
0010
0100
1000
0001
1000
0100
,
0010
0001
1000
0001
0010
0100
1000
0001
1000
0100
0010
0001
1000
0100
1000
0001
,
1000
0001
0100
0001
1000
0001
1000
0010
1000
0001
1000
0001
0100
0001
1000
0001
,
0010
0100
0010
0001
1000
0100
0010
0001
1000
0100
0010
0100
1000
0001
0010
0100
,
1000
0001
0010
0100
1000
0001
0010
0001
0100
0010
1000
0001
0100
0001
1000
0001
,
1000
0100
1000
0001
1000
0001
0010
0100
1000
0001
1000
0100
0010
0001
1000
0001
,
1000
0010
0100
0001
0010
0100
1000
0100
0010
0001
1000
0100
0010
0001
1000
0100
,
0010
0001
0010
0100
1000
0001
0010
0100
1000
0001
0010
0100
1000
0100
0010
0001
,
1000
0001
1000
0001
0010
0100
0010
0100
0010
0001
1000
0001
1000
0001
0100
0010
,
0100
0010
0100
0001
0010
0100
1000
0001
0010
0100
1000
0001
0010
0100
1000
0001
,
0010
0100
1000
0100
0010
0001
1000
0100
0010
0001
1000
0100
0010
0001
1000
0100
,
0010
0001
1000
0100
0010
0001
1000
0100
0010
0001
1000
0100
0010
0001
1000
0100
,
0010
0001
0010
0100
1000
0100
1000
0001
0010
0001
0010
0001
1000
0001
1000
0001
,
0100
0001
0100
0010
0100
0010
0100
0010
1000
0010
1000
0010
0100
0010
0100
0001
,
0100
0001
0100
0010
0100
0010
0100
0010
1000
0010
1000
0001
1000
0001
1000
0100
,
1000
0100
1000
0100
0010
0100
0010
0001
1000
0001
0010
0100
1000
0001
1000
0010
,
0100
0001
1000
0001
0010
0100
1000
0001
1000
0100
0010
0001
1000
0001
0100
0010
,
1000
0001
0100
0010
0100
0001
0100
0010
0100
0001
0100
0010
1000
0100
0010
0100
,
1000
0001
1000
0001
1000
0001
1000
0001
1000
0001
1000
0001
1000
0001
1000
0001
,
0010
0100
0010
0001
1000
0100
0010
0100
1000
0001
0010
0100
0010
0001
0010
0100
,
0010
0001
1000
0100
0010
0100
1000
0100
0010
0100
1000
0100
0010
0001
0010
0100
,
0010
0001
0010
0100
0010
0001
0010
0100
0010
0001
0010
0100
0010
0001
1000
0100
,
0010
0100
1000
0100
0010
0100
1000
0100
0010
0100
1000
0100
0010
0100
1000
0001
,
0010
0001
1000
0100
1000
0001
0010
0001
1000
0100
1000
0001
1000
0100
1000
0001
,
1000
0100
1000
0001
1000
0100
1000
0001
1000
0100
1000
0001
0100
0001
1000
0001
,
0100
0001
1000
0001
0100
0001
1000
0001
0100
0001
1000
0100
0010
0001
1000
0001
,
0010
0100
1000
0001
0010
0100
1000
0001
0010
0100
1000
0001
0010
0100
1000
0001
,
1000
0100
0010
0001
0010
0100
1000
0001
1000
0001
1000
0001
1000
0100
1000
0100
,
1000
0100
1000
0100
1000
0100
1000
0001
0010
0001
0010
0001
0010
0001
0010
0001
,
1000
0001
0100
0010
0100
0001
0100
0010
1000
0100
1000
0010
0100
0001
0100
0010
,
1000
0100
0010
0001
0100
0010
1000
0100
1000
0010
0100
0010
1000
0100
0010
0001
,
0010
0100
1000
0001
0010
0100
1000
0100
0010
0001
1000
0001
1000
0100
0010
0100
,
1000
0010
0100
0010
0100
0010
1000
0001
0100
0010
1000
0100
0010
0001
0010
0001
,
1000
0010
0100
0001
1000
0001
0010
0100
0010
0100
0010
0001
0100
0010
0100
0001
,
1000
0100
0010
0001
0010
0100
1000
0010
0100
0010
0100
0001
0010
0100
0010
0100
,
1000
0100
0010
0001
0010
0100
1000
0100
1000
0100
0010
0001
0010
0100
1000
0001
,
1000
0100
1000
0100
1000
0001
1000
0001
1000
0010
1000
0010
1000
0001
1000
0001
,
0010
0001
0010
0001
0100
0001
0100
0001
1000
0001
1000
0001
0100
0001
1000
0001
,
0010
0100
1000
0001
0100
0010
1000
0100
1000
0010
0100
0010
0100
0001
0100
0010
,
1000
0100
0010
0100
0010
0001
0100
0010
1000
0100
0010
0001
0010
0100
1000
0001
,
1000
0001
0100
0010
1000
0100
0010
0001
0010
0001
0010
0001
1000
0100
0010
0001
,
0010
0100
1000
0001
0010
0100
1000
0100
0010
0001
1000
0100
1000
0100
1000
0100
,
1000
0100
0010
0100
1000
0001
0010
0100
0010
0001
0100
0010
0100
0001
1000
0010
,
0100
0010
1000
0001
0100
0001
0010
0001
1000
0100
1000
0010
1000
0001
0010
0100
,
1000
0001
1000
0001
1000
0100
0010
0001
1000
0001
1000
0001
0100
0010
1000
0001
,
1000
0001
1000
0010
0100
0001
1000
0001
1000
0001
0010
0100
1000
0001
1000
0100
,
0010
0001
1000
0001
0010
0100
1000
0001
1000
0100
0010
0001
1000
0100
1000
0001
,
1000
0001
0100
0001
1000
0001
1000
0010
1000
0001
1000
0001
0100
0001
1000
0001
,
0010
0100
0010
0001
1000
0100
0010
0001
1000
0100
0010
0100
1000
0001
0010
0100
,
1000
0001
0010
0100
1000
0001
0010
0001
0100
0010
1000
0001
0100
0001
1000
0001
,
1000
0100
1000
0001
1000
0001
0010
0100
1000
0001
1000
0100
0010
0001
1000
0001
,
1000
0010
0100
0001
0010
0100
1000
0100
0010
0001
1000
0100
0010
0001
1000
0100
,
0010
0001
0010
0100
1000
0001
0010
0100
1000
0001
0010
0100
1000
0100
0010
0001
,
1000
0001
1000
0001
0010
0100
0010
0100
0010
0001
1000
0001
1000
0001
0100
0010
,
0100
0010
0100
0001
0010
0100
1000
0001
0010
0100
1000
0001
0010
0100
1000
0001
,
0010
0100
1000
0100
0010
0001
1000
0100
0010
0001
1000
0100
0010
0001
1000
0100
,
0010
0001
1000
0100
0010
0001
1000
0100
0010
0001
1000
0100
0010
0001
1000
0100
,
0010
0001
0010
0100
1000
0100
1000
0001
0010
0001
0010
0001
1000
0001
1000
0001
,
0100
0001
0100
0010
0100
0010
0100
0010
1000
0010
1000
0010
0100
0010
0100
0001
,
0100
0001
0100
0010
0100
0010
0100
0010
1000
0010
1000
0001
1000
0001
1000
0100
,
1000
0100
1000
0100
0010
0100
0010
0001
1000
0001
0010
0100
1000
0001
1000
0010
,
0100
0001
1000
0001
0010
0100
1000
0001
1000
0100
0010
0001
1000
0001
0100
0010
,
1000
0001
0100
0010
0100
0001
0100
0010
0100
0001
0100
0010
1000
0100
0010
0100
,
1000
0001
1000
0001
1000
0001
1000
0001
1000
0001
1000
0001
1000
0001
1000
0001
,
0010
0100
0010
0001
1000
0100
0010
0100
1000
0001
0010
0100
0010
0001
0010
0100
,
0010
0001
1000
0100
0010
0100
1000
0100
0010
0100
1000
0100
0010
0001
0010
0100
,
0010
0001
0010
0100
0010
0001
0010
0100
0010
0001
0010
0100
0010
0001
1000
0100
,
0010
0100
1000
0100
0010
0100
1000
0100
0010
0100
1000
0100
0010
0100
1000
0001
,
0010
0001
1000
0100
1000
0001
0010
0001
1000
0100
1000
0001
1000
0100
1000
0001
,
1000
0100
1000
0001
1000
0100
1000
0001
1000
0100
1000
0001
0100
0001
1000
0001
,
0100
0001
1000
0001
0100
0001
1000
0001
0100
0001
1000
0100
0010
0001
1000
0001
,
0010
0100
1000
0001
0010
0100
1000
0001
0010
0100
1000
0001
0010
0100
1000
0001
,
1000
0001
1000
0010
1000
0001
0100
0010
0100
0001
0100
0010
0100
0001
0010
0100
,
0010
0001
0010
0100
0010
0001
1000
0100
0010
0100
0010
0100
0010
0001
0010
0001
,
0010
0100
0010
0100
1000
0100
1000
0001
0100
0010
1000
0100
1000
0010
0100
0001
,
0010
0100
1000
0100
0010
0001
1000
0100
0010
0001
1000
0100
0010
0001
1000
0001
,
0010
0100
1000
0001
0010
0100
1000
0001
0010
0100
1000
0001
0010
0100
1000
0001
,
1000
0001
0100
0010
1000
0001
1000
0010
0100
0001
1000
0010
0100
0001
1000
0010
,
0100
0001
1000
0001
1000
0001
0100
0010
1000
0001
0100
0010
1000
0001
0100
0010
,
1000
0100
0010
0001
1000
0001
1000
0001
0010
0001
1000
0001
1000
0001
0100
0001
,
1000
0100
1000
0001
1000
0010
0100
0001
0100
0001
1000
0001
0100
0010
1000
0001
,
0100
0001
1000
0100
0010
0001
0010
0100
1000
0100
0010
0100
1000
0001
0100
0010
,
1000
0010
0100
0010
1000
0100
0010
0100
1000
0001
0100
0010
0100
0001
0010
0100
,
0010
0001
0100
0010
1000
0100
0010
0100
1000
0010
0100
0010
1000
0100
1000
0001
,
1000
0100
1000
0001
1000
0100
0010
0001
1000
0010
0100
0001
0010
0001
0010
0100
,
1000
0001
0100
0010
0100
0001
0100
0010
1000
0100
1000
0010
0100
0001
0100
0010
,
1000
0100
0010
0001
0100
0010
1000
0100
1000
0010
0100
0010
1000
0100
0010
0001
,
0010
0100
1000
0001
0010
0100
1000
0100
0010
0001
1000
0001
1000
0100
0010
0100
,
1000
0010
0100
0010
0100
0010
1000
0001
0100
0010
1000
0100
0010
0001
0010
0001
,
1000
0010
0100
0001
1000
0001
0010
0100
0010
0100
0010
0001
0100
0010
0100
0001
,
1000
0100
0010
0001
0010
0100
1000
0010
0100
0010
0100
0001
0010
0100
0010
0100
,
1000
0100
0010
0001
0010
0100
1000
0100
1000
0100
0010
0001
0010
0100
1000
0001
,
1000
0001
0100
0010
1000
0001
0100
0001
0100
0010
1000
0100
0010
0001
0100
0010
,
0100
0001
0010
0100
1000
0010
0100
0010
1000
0100
0010
0100
1000
0001
0010
0100
,
0010
0001
1000
0100
0010
0001
1000
0100
0010
0100
1000
0001
0010
0100
1000
0001
,
1000
0100
0010
0100
0010
0100
1000
0010
0100
0010
0100
0010
0100
0001
0010
0100
,
1000
0010
0100
0001
1000
0100
0010
0001
0100
0010
1000
0100
0010
0001
0100
0010
,
1000
0100
0010
0001
1000
0100
0010
0001
1000
0100
0010
0001
1000
0100
0010
0001
,
0010
0100
1000
0001
0010
0100
1000
0001
0010
0100
1000
0001
0010
0100
1000
0001
,
1000
0100
1000
0001
1000
0001
1000
0001
1000
0100
1000
0001
1000
0001
1000
0001
,
1000
0010
1000
0001
1000
0001
1000
0001
1000
0010
1000
0001
1000
0001
1000
0001
,
0100
0001
1000
0001
1000
0001
1000
0001
0010
0001
1000
0001
1000
0001
1000
0001
,
0100
0001
1000
0001
1000
0001
1000
0001
0010
0001
1000
0001
1000
0001
1000
0001
,
1000
0100
0010
0001
0010
0100
1000
0001
0010
0100
1000
0100
0010
0001
1000
0001
,
0010
0100
1000
0001
0010
0100
1000
0001
1000
0100
0010
0001
1000
0100
0010
0001
,
1000
0001
1000
0001
1000
0001
1000
0001
0100
0010
0100
0010
0100
0010
0100
0010
,
1000
0001
1000
0001
1000
0001
1000
0001
0010
0100
0010
0100
0010
0100
0010
0100
,
1000
0100
0010
0100
1000
0001
0010
0100
0010
0001
1000
0100
0010
0100
0010
0100
,
0010
0100
1000
0001
1000
0001
0100
0001
1000
0010
1000
0100
0010
0001
0010
0001
,
1000
0100
1000
0001
0010
0001
0100
0010
1000
0010
1000
0001
0100
0001
0100
0001
,
1000
0100
1000
0100
1000
0001
0100
0001
0100
0001
1000
0010
1000
0010
1000
0010
,
1000
0010
0100
0001
0100
0001
0100
0001
0100
0001
1000
0100
0010
0001
0100
0010
,
1000
0001
0010
0100
1000
0010
0100
0001
0100
0010
1000
0100
0010
0001
1000
0001
,
0100
0010
1000
0001
0100
0010
1000
0001
0100
0010
1000
0001
0100
0010
1000
0001
,
1000
0001
0010
0100
1000
0001
1000
0100
0010
0001
1000
0001
1000
0100
0010
0001
,
0010
0001
0100
0010
0100
0010
1000
0010
0100
0001
0100
0010
1000
0010
1000
0001
,
0100
0001
0100
0010
0100
0001
0010
0100
0010
0001
0100
0010
0100
0010
0100
0001
,
0010
0100
1000
0001
1000
0001
0100
0001
0100
0001
1000
0001
1000
0001
0010
0001
,
0010
0001
1000
0100
0010
0100
1000
0100
0010
0100
1000
0010
0100
0010
1000
0010
,
0100
0010
1000
0100
0010
0001
0100
0010
1000
0001
0100
0001
1000
0001
1000
0010
,
1000
0001
0100
0010
0100
0001
0100
0010
0100
0001
0010
0100
0010
0001
0010
0100
,
0010
0001
1000
0100
0010
0100
0010
0100
0010
0001
0010
0001
0010
0100
0010
0100
,
1000
0100
1000
0001
0100
0010
1000
0100
1000
0010
0100
0001
0010
0100
1000
0100
,
0010
0001
1000
0100
0010
0001
1000
0100
0010
0001
1000
0001
0010
0100
1000
0001
,
0010
0100
1000
0001
0010
0100
1000
0001
0010
0100
1000
0001
1000
0001
0100
0010
,
1000
0001
1000
0010
0100
0001
1000
0010
0100
0001
1000
0010
0100
0001
1000
0001
,
1000
0001
0100
0010
1000
0001
0100
0010
1000
0001
0100
0010
1000
0001
0010
0001
,
1000
0001
1000
0001
1000
0001
1000
0001
1000
0001
1000
0001
1000
0001
1000
0001
,
1000
0001
1000
0001
1000
0001
1000
0001
1000
0001
1000
0001
1000
0001
1000
0001
,
1000
0001
1000
0001
1000
0001
1000
0001
1000
0001
1000
0001
1000
0001
1000
0001
,
1000
0001
1000
0001
1000
0001
1000
0001
1000
0001
1000
0001
1000
0001
1000
0001
,
1000
0001
1000
0001
1000
0001
1000
0001
1000
0001
1000
0001
1000
0001
1000
0001
,
1000
0001
1000
0001
1000
0001
1000
0001
1000
0001
1000
0001
1000
0001
1000
0001
,
1000
0001
1000
0001
1000
0001
1000
0001
1000
0001
1000
0001
1000
0001
1000
0001
,
1000
0001
1000
0001
1000
0001
1000
0001
1000
0001
1000
0001
1000
0001
1000
0001
,
1000
0001
1000
0001
1000
0001
1000
0001
1000
0001
1000
0001
1000
0001
1000
0001
,
1000
0001
1000
0001
1000
0001
1000
0001
1000
0001
1000
0001
1000
0001
1000
0001
,
1000
0001
1000
0001
1000
0001
1000
0001
1000
0001
1000
0001
1000
0001
1000
0001
,
1000
0100
1000
0001
1000
0100
1000
0001
1000
0010
1000
0001
1000
0010
1000
0001
,
0010
0100
1000
0001
0010
0100
1000
0001
0010
0100
1000
0001
0010
0100
1000
0100
,
0010
0001
1000
0100
0010
0001
1000
0100
0010
0001
1000
0100
0010
0001
1000
0001
,
0010
0100
1000
0001
0010
0100
1000
0001
0010
0100
1000
0001
0010
0100
1000
0001
,
0100
0010
1000
0001
0100
0010
1000
0001
0100
0010
1000
0001
0100
0010
1000
0100
,
1000
0001
0010
0001
0100
0010
1000
0100
0010
0001
0010
0100
1000
0001
1000
0100
,
0010
0001
1000
0001
0010
0100
1000
0001
0010
0100
1000
0001
0010
0100
1000
0001
,
0010
0100
1000
0001
1000
0001
0100
0001
1000
0001
0100
0001
1000
0001
0010
0001
,
1000
0001
0010
0001
1000
0001
1000
0100
1000
0100
1000
0100
1000
0100
0010
0001
,
0010
0001
0010
0001
0010
0001
0010
0001
0010
0001
0010
0001
0010
0001
1000
0001
,
0010
0100
0010
0001
1000
0001
0100
0010
0100
0001
1000
0100
0010
0100
1000
0001
,
1000
0010
0100
0010
1000
0100
0010
0001
1000
0100
1000
0100
0010
0001
0010
0001
,
0010
0100
1000
0001
0010
0100
1000
0100
1000
0100
1000
0100
1000
0100
0010
0001
,
0010
0001
0010
0001
0010
0001
0010
0100
0010
0001
0100
0010
1000
0100
0010
0100
,
1000
0100
0010
0100
1000
0100
0010
0100
1000
0001
1000
0001
1000
0001
1000
0001
,
0010
0100
1000
0100
0010
0100
0010
0100
0010
0100
0010
0001
1000
0100
0010
0001
,
0010
0001
1000
0001
0100
0001
0100
0001
0100
0010
0100
0001
0010
0100
1000
0100
,
0010
0001
0100
0010
0100
0010
1000
0100
1000
0010
0100
0001
0010
0001
0100
0010
,
0100
0001
0010
0001
0010
0001
0010
0001
0100
0010
1000
0100
1000
0100
0010
0100
,
0010
0001
0010
0100
1000
0100
0010
0001
0010
0100
1000
0001
0010
0100
0010
0001
,
0100
0010
0100
0010
0100
0010
0100
0001
0010
0100
1000
0100
1000
0001
0100
0001
,
1000
0010
1000
0010
1000
0010
1000
0010
1000
0001
0100
0001
1000
0010
1000
0001
,
0010
0001
0010
0001
0010
0001
1000
0100
1000
0001
0010
0001
0100
0010
1000
0100
,
0010
0001
0010
0100
1000
0100
1000
0001
1000
0100
1000
0001
1000
0100
1000
0001
,
0010
0100
1000
0001
0010
0100
1000
0001
0010
0100
1000
0001
0010
0100
1000
0001
,
1000
0001
0100
0001
1000
0001
0100
0001
0010
0001
0100
0001
1000
0001
0010
0001
,
1000
0100
0010
0001
1000
0100
0010
0001
1000
0100
0010
0001
1000
0100
0010
0001
,
1000
0100
1000
0100
1000
0100
1000
0100
1000
0001
1000
0001
1000
0001
1000
0001
,
1000
0001
0100
0001
0100
0001
0100
0001
0100
0001
0010
0001
0010
0001
0010
0001
,
1000
0100
1000
0010
0100
0001
0010
0100
1000
0010
0100
0010
0100
0010
0100
0010
,
0100
0001
0010
0100
0010
0100
0010
0100
0010
0100
0010
0100
1000
0010
0100
0010
,
0100
0010
0100
0010
0100
0001
0010
0100
1000
0001
0100
0010
1000
0001
0100
0010
,
1000
0100
0010
0001
1000
0100
0010
0001
1000
0010
0100
0001
1000
0010
0100
0001
,
1000
0100
1000
0001
0010
0001
0100
0001
0100
0010
1000
0010
0100
0001
0100
0010
,
1000
0100
0010
0001
0100
0010
1000
0010
0100
0001
0010
0100
1000
0001
1000
0001
,
1000
0010
0100
0001
0010
0001
0100
0010
1000
0100
1000
0100
0010
0001
0100
0010
,
0100
0001
1000
0100
0010
0001
1000
0100
0010
0001
0010
0100
1000
0001
0010
0100
,
1000
0001
1000
0001
1000
0001
1000
0001
1000
0100
1000
0100
1000
0100
1000
0100
,
1000
0010
1000
0010
1000
0010
1000
0010
1000
0001
1000
0001
1000
0001
1000
0001
,
1000
0001
0010
0001
1000
0100
1000
0001
0010
0001
1000
0001
0100
0010
0100
0001
,
0100
0001
1000
0100
1000
0001
1000
0010
0100
0010
1000
0100
0010
0100
1000
0001
,
0010
0100
1000
0001
0010
0100
0010
0001
1000
0100
0010
0001
0010
0100
0010
0001
,
0010
0100
0010
0001
0010
0100
0010
0001
0010
0100
0010
0001
0010
0100
1000
0100
,
0010
0100
1000
0100
0010
0100
1000
0100
0010
0100
1000
0100
0010
0100
1000
0010
,
1000
0001
0010
0100
1000
0100
0010
0100
1000
0001
0100
0010
1000
0010
0100
0010
,
0100
0001
0010
0100
1000
0100
1000
0001
0100
0001
0010
0001
1000
0010
0100
0001
,
1000
0001
0010
0001
1000
0001
0100
0010
1000
0100
0010
0001
1000
0100
0010
0001
,
0010
0100
1000
0001
0010
0100
1000
0001
1000
0100
0010
0001
1000
0100
1000
0100
,
1000
0001
1000
0001
0100
0001
0100
0001
0100
0010
0100
0010
1000
0010
1000
0010
,
1000
0100
1000
0100
0010
0100
0010
0100
1000
0001
1000
0001
0100
0010
0100
0010
,
0100
0001
0100
0001
0010
0001
0010
0001
0010
0100
0010
0100
0010
0001
0010
0001
,
1000
0100
1000
0100
1000
0001
1000
0001
0100
0010
0100
0010
1000
0100
0010
0001
,
1000
0001
0010
0001
1000
0001
0100
0010
1000
0100
0010
0001
1000
0100
0010
0001
,
0010
0100
1000
0001
0010
0100
1000
0001
1000
0100
0010
0001
1000
0100
1000
0100
,
1000
0001
1000
0001
0100
0001
0100
0001
0100
0010
0100
0010
1000
0010
1000
0010
,
1000
0100
1000
0100
0010
0100
0010
0100
1000
0001
1000
0001
0100
0010
0100
0010
,
0100
0001
0100
0001
0010
0001
0010
0001
0010
0100
0010
0100
0010
0001
0010
0001
,
1000
0100
1000
0100
1000
0001
1000
0001
0100
0010
0100
0010
1000
0100
0010
0001
,
1000
0001
1000
0001
1000
0100
1000
0001
1000
0100
0010
0001
1000
0010
0100
0001
,
0010
0001
0010
0100
1000
0001
0100
0010
0100
0001
0100
0010
1000
0100
1000
0010
,
0100
0001
0100
0010
1000
0100
0010
0001
0100
0010
1000
0100
1000
0010
0100
0010
,
1000
0100
0010
0001
0010
0100
1000
0001
0010
0100
1000
0100
0010
0001
1000
0001
,
1000
0100
0010
0100
1000
0010
0100
0010
0100
0010
1000
0001
0100
0010
1000
0100
,
0010
0001
0010
0001
1000
0010
0100
0001
1000
0001
0010
0100
0010
0100
0010
0001
,
0100
0010
0100
0001
1000
0100
0010
0001
0010
0100
1000
0010
0100
0010
0100
0001
,
0010
0100
0010
0100
1000
0100
0010
0001
0010
0100
1000
0100
1000
0100
0010
0001
,
1000
0001
0010
0001
0010
0100
1000
0001
0010
0100
1000
0001
1000
0100
0010
0001
,
1000
0100
0010
0001
1000
0100
0010
0001
0010
0100
1000
0100
1000
0001
0100
0010
,
1000
0100
1000
0010
0100
0001
0100
0010
1000
0100
0010
0100
1000
0100
0010
0001
,
0010
0100
0010
0001
0100
0010
0100
0001
0010
0100
1000
0100
0010
0100
1000
0001
,
0100
0001
1000
0100
1000
0001
0010
0100
1000
0100
0010
0001
0100
0010
1000
0010
,
0100
0010
0100
0010
0100
0001
1000
0010
0100
0010
1000
0001
0010
0100
1000
0010
,
0100
0001
0100
0010
1000
0001
0100
0010
1000
0001
1000
0100
0010
0001
0010
0100
,
1000
0100
1000
0001
0010
0001
0010
0100
0010
0100
0010
0001
1000
0100
1000
0001
,
0100
0010
0100
0010
1000
0010
0100
0010
1000
0010
0100
0001
0100
0010
1000
0001
,
0010
0100
1000
0001
0100
0010
1000
0001
1000
0100
0010
0001
1000
0010
0100
0001
,
1000
0100
0010
0001
1000
0001
1000
0001
0100
0010
0100
0010
1000
0100
0010
0001
,
0010
0100
1000
0100
0010
0001
0010
0100
1000
0100
1000
0100
0010
0001
0010
0001
,
0100
0010
0100
0010
1000
0001
0100
0010
1000
0001
1000
0001
1000
0100
1000
0001
,
1000
0100
0010
0001
1000
0010
0100
0001
0010
0001
0010
0100
1000
0001
0100
0010
,
0100
0001
0100
0010
1000
0100
1000
0010
0100
0001
0100
0010
1000
0100
0010
0001
,
0100
0010
1000
0100
1000
0010
0100
0010
1000
0100
0010
0001
0010
0100
1000
0001
,
0010
0100
1000
0100
0010
0001
1000
0001
1000
0100
0010
0100
1000
0010
0100
0010
,
0100
0010
1000
0001
0100
0010
1000
0100
0010
0001
0010
0001
1000
0010
0100
0001
,
1000
0001
0010
0100
0010
0100
0010
0001
0100
0010
0100
0001
1000
0100
0010
0001
,
0010
0100
1000
0010
0100
0010
0100
0001
0010
0100
0010
0100
1000
0100
0010
0001
,
0010
0100
1000
0100
1000
0100
0010
0001
0010
0100
1000
0001
1000
0100
1000
0100
,
1000
0001
1000
0001
1000
0010
1000
0010
1000
0001
1000
0001
0010
0001
0010
0001
,
0100
0001
0100
0001
1000
0001
1000
0001
0100
0001
1000
0001
0010
0100
1000
0001
,
0100
0010
1000
0100
1000
0010
0100
0010
0100
0001
0100
0010
1000
0100
0010
0100
,
0010
0001
0100
0010
1000
0100
0010
0001
0010
0100
1000
0001
1000
0001
0100
0010
,
1000
0100
0010
0001
0010
0001
0010
0001
1000
0100
0010
0001
0010
0100
1000
0001
,
0010
0100
1000
0100
0010
0001
1000
0100
1000
0100
1000
0100
0010
0001
1000
0100
,
0010
0001
1000
0100
0010
0001
1000
0100
0010
0001
0010
0001
0010
0001
0010
0100
,
1000
0001
0010
0100
1000
0001
0010
0100
1000
0001
0010
0100
1000
0001
1000
0001
,
1000
0001
1000
0001
0100
0001
1000
0010
1000
0001
0100
0001
1000
0010
1000
0001
,
0100
0001
1000
0010
1000
0001
0100
0001
1000
0010
1000
0001
1000
0100
1000
0001
,
0010
0001
1000
0100
1000
0001
0010
0001
1000
0100
1000
0001
0010
0001
1000
0100
,
1000
0001
0010
0001
0010
0100
1000
0001
0010
0100
1000
0001
1000
0100
0010
0001
,
1000
0100
0010
0001
1000
0100
0010
0001
0010
0100
1000
0100
1000
0001
0100
0010
,
1000
0100
1000
0010
0100
0001
0100
0010
1000
0100
0010
0100
1000
0100
0010
0001
,
0010
0100
0010
0001
0100
0010
0100
0001
0010
0100
1000
0100
0010
0100
1000
0001
,
0100
0001
1000
0100
1000
0001
0010
0100
1000
0100
0010
0001
0100
0010
1000
0010
,
0100
0010
0100
0010
0100
0001
1000
0010
0100
0010
1000
0001
0010
0100
1000
0010
,
0100
0001
0100
0010
1000
0001
0100
0010
1000
0001
1000
0100
0010
0001
0010
0100
,
1000
0100
1000
0001
0010
0001
0010
0100
0010
0100
0010
0001
1000
0100
1000
0001
,
0100
0010
0100
0010
1000
0010
0100
0010
1000
0010
0100
0001
0100
0010
1000
0001
,
0010
0100
1000
0001
0100
0010
1000
0001
1000
0100
0010
0001
1000
0010
0100
0001
,
1000
0100
0010
0001
1000
0001
1000
0001
0100
0010
0100
0010
1000
0100
0010
0001
,
0010
0100
1000
0100
0010
0001
0010
0100
1000
0100
1000
0100
0010
0001
0010
0001
,
0010
0100
1000
0100
0010
0001
0100
0010
1000
0010
0100
0001
0100
0010
1000
0010
,
0100
0001
0010
0100
1000
0010
0100
0001
0010
0100
1000
0010
0100
0001
1000
0100
,
0010
0001
0100
0010
1000
0100
0010
0001
0100
0010
1000
0001
0010
0001
0010
0001
,
0010
0001
0010
0001
0010
0001
0010
0100
1000
0100
1000
0001
1000
0100
1000
0001
,
0100
0001
1000
0001
0100
0001
1000
0001
0010
0001
1000
0010
1000
0001
0010
0100
,
1000
0100
1000
0001
0100
0001
1000
0010
1000
0001
0010
0001
0100
0001
1000
0100
,
1000
0010
1000
0001
0100
0010
1000
0100
1000
0001
0010
0100
1000
0001
0010
0001
,
0100
0010
1000
0001
0100
0001
1000
0001
1000
0100
1000
0001
1000
0001
0010
0100
,
1000
0001
1000
0100
0010
0001
1000
0001
1000
0100
0010
0001
0010
0001
0100
0010
,
0100
0010
1000
0010
0100
0001
0100
0010
1000
0010
1000
0001
0100
0001
0100
0010
,
0100
0001
0010
0100
0010
0001
0100
0010
0100
0010
0100
0001
0010
0100
1000
0001
,
1000
0001
0100
0001
0100
0001
1000
0001
1000
0001
0010
0001
0010
0001
1000
0100
,
0010
0100
1000
0100
0010
0100
1000
0010
0100
0010
1000
0010
0100
0010
1000
0100
,
0010
0001
0100
0010
1000
0001
0100
0001
1000
0001
1000
0010
1000
0001
0100
0010
,
0100
0001
0100
0010
0100
0001
0010
0100
0010
0001
0010
0100
0010
0001
1000
0100
,
0010
0100
0010
0100
0010
0001
0010
0001
0010
0100
0010
0100
1000
0100
1000
0001
,
0100
0010
1000
0100
1000
0010
0100
0001
0010
0100
1000
0100
0010
0001
1000
0100
,
0010
0001
1000
0100
0010
0001
1000
0001
0010
0100
1000
0001
0010
0100
1000
0001
,
0010
0100
1000
0001
0010
0100
1000
0001
1000
0001
0100
0010
1000
0001
1000
0010
,
0100
0001
1000
0010
0100
0001
1000
0010
0100
0001
1000
0001
1000
0001
0100
0010
,
1000
0001
0100
0010
1000
0001
0100
0010
1000
0001
0010
0001
1000
0100
1000
0001
,
0010
0001
1000
0100
1000
0001
0100
0001
1000
0100
1000
0001
1000
0100
1000
0010
,
1000
0001
1000
0001
0100
0001
1000
0001
0100
0001
0010
0001
0100
0001
0010
0100
,
0010
0100
0010
0100
1000
0001
0100
0010
0100
0010
0100
0010
1000
0100
0010
0100
,
1000
0001
0100
0010
0100
0001
0010
0100
0010
0001
0100
0010
1000
0100
0010
0100
,
1000
0010
0100
0010
1000
0100
1000
0001
0010
0100
0010
0001
0100
0010
1000
0001
,
1000
0010
0100
0001
0010
0100
0010
0100
1000
0010
0100
0010
0100
0001
0010
0100
,
0010
0001
0100
0010
1000
0100
0010
0001
0010
0100
1000
0100
1000
0001
0010
0100
,
1000
0100
1000
0100
0010
0001
0010
0001
1000
0100
0010
0001
0010
0001
1000
0100
,
0010
0001
0100
0010
1000
0001
0100
0010
1000
0100
1000
0001
0100
0010
1000
0100
,
1000
0001
0010
0001
1000
0100
0010
0001
0100
0010
0100
0010
0100
0001
0010
0100
,
0010
0001
0010
0100
0010
0001
0010
0100
0010
0100
0010
0100
0010
0001
0010
0100
,
0010
0001
0010
0100
1000
0100
0010
0100
1000
0100
0010
0001
0010
0100
0010
0001
,
0010
0100
1000
0100
0010
0100
1000
0100
0010
0100
1000
0100
0010
0100
0010
0100
,
1000
0100
0010
0001
1000
0001
1000
0100
0010
0001
0010
0001
1000
0100
1000
0001
,
0010
0001
0100
0010
0100
0001
1000
0001
0010
0100
0010
0001
0100
0001
1000
0010
,
1000
0010
1000
0010
1000
0010
1000
0001
1000
0010
1000
0100
0010
0001
1000
0001
,
1000
0001
0010
0001
1000
0100
0010
0001
0100
0010
1000
0001
1000
0010
0100
0010
,
1000
0001
0010
0100
0010
0001
1000
0100
0010
0100
1000
0001
0100
0010
0100
0001
,
0100
0001
0010
0100
1000
0100
1000
0100
0010
0100
0010
0100
0010
0001
0010
0001
,
0010
0100
1000
0100
1000
0001
0010
0100
1000
0100
0010
0001
0100
0001
0010
0100
,
1000
0100
0010
0001
1000
0001
0010
0100
1000
0100
0010
0001
0010
0100
1000
0100
,
0010
0001
0100
0010
1000
0010
0100
0001
0100
0010
1000
0001
1000
0010
0100
0010
,
0100
0010
1000
0001
0100
0010
1000
0100
0010
0001
0010
0001
1000
0010
0100
0001
,
1000
0001
0010
0100
0010
0100
0010
0001
0100
0010
0100
0001
1000
0100
0010
0001
,
0010
0100
1000
0010
0100
0010
0100
0001
0010
0100
0010
0100
1000
0100
0010
0001
,
0010
0100
1000
0100
1000
0100
0010
0001
0010
0100
1000
0001
1000
0100
1000
0100
,
1000
0100
1000
0001
0010
0001
1000
0100
1000
0001
0100
0001
1000
0100
1000
0001
,
1000
0100
1000
0010
1000
0001
1000
0001
0100
0001
1000
0001
0100
0001
0010
0001
,
1000
0100
1000
0001
1000
0100
1000
0001
1000
0001
0010
0100
1000
0001
1000
0001
,
0100
0001
1000
0001
0100
0001
1000
0001
0010
0100
1000
0001
0010
0100
0010
0100
,
1000
0100
0010
0001
0010
0001
0010
0100
1000
0010
0100
0001
0100
0001
0100
0001
,
0100
0010
1000
0100
1000
0010
0100
0010
0100
0001
0100
0010
1000
0100
0010
0001
,
1000
0001
0100
0010
1000
0010
0100
0001
1000
0100
1000
0001
0010
0001
1000
0100
,
1000
0001
0100
0001
1000
0100
1000
0001
1000
0100
1000
0010
1000
0001
1000
0001
,
0100
0001
1000
0001
0100
0001
0010
0001
1000
0010
0100
0010
0100
0001
0100
0010
,
1000
0100
0010
0100
0010
0001
0100
0010
1000
0100
0010
0001
1000
0100
0010
0001
,
1000
0100
0010
0001
1000
0100
0010
0001
1000
0100
0010
0001
0010
0100
1000
0001
,
1000
0001
0100
0010
1000
0100
0010
0001
0010
0001
0010
0001
0010
0100
1000
0100
,
1000
0001
0100
0010
1000
0100
1000
0010
0100
0001
0100
0010
1000
0100
0010
0100
,
1000
0100
0010
0001
0010
0100
0010
0001
0100
0010
0100
0001
0010
0100
1000
0100
,
0010
0100
1000
0001
0100
0001
1000
0100
1000
0001
0010
0100
1000
0100
0010
0001
,
0100
0010
1000
0010
0100
0010
0100
0010
0100
0001
1000
0010
0100
0010
1000
0001
,
0010
0100
1000
0010
0100
0001
0100
0010
1000
0001
0100
0010
1000
0001
1000
0100
,
0010
0001
0010
0100
1000
0100
1000
0001
0010
0001
0010
0100
0010
0100
0010
0001
,
1000
0100
1000
0001
0100
0010
0100
0010
1000
0010
0100
0010
1000
0010
0100
0001
,
0100
0010
1000
0001
0010
0100
1000
0001
0100
0010
1000
0001
1000
0100
1000
0001
,
0010
0001
1000
0100
1000
0001
0010
0001
1000
0001
0100
0001
1000
0010
1000
0001
,
0100
0001
1000
0010
1000
0001
0100
0001
1000
0100
0010
0001
1000
0100
0010
0001
,
1000
0010
0100
0001
1000
0100
0010
0001
1000
0001
1000
0001
0100
0010
0100
0010
,
1000
0100
0010
0001
0010
0100
1000
0100
0010
0001
0010
0100
1000
0100
1000
0100
,
0010
0001
0010
0001
0010
0100
1000
0100
0010
0001
0100
0010
1000
0010
0100
0001
,
0100
0010
1000
0010
0100
0001
0010
0100
1000
0010
0100
0001
0010
0100
1000
0010
,
0100
0001
1000
0100
0010
0001
0100
0010
1000
0100
0010
0001
0100
0010
1000
0001
,
0010
0001
0010
0001
0010
0001
0010
0001
0010
0001
0010
0100
1000
0100
1000
0001
,
1000
0100
1000
0001
0100
0001
1000
0001
0100
0001
1000
0001
0010
0001
1000
0010
,
1000
0001
0010
0100
1000
0100
1000
0001
0100
0001
1000
0010
1000
0001
0010
0001
,
0100
0001
1000
0100
1000
0010
1000
0001
0100
0010
1000
0100
1000
0001
0010
0100
,
1000
0001
0010
0001
0100
0010
1000
0001
0100
0001
1000
0001
1000
0100
1000
0001
,
1000
0001
0010
0100
1000
0001
1000
0100
0010
0001
1000
0001
1000
0100
0010
0001
,
0010
0001
0100
0010
0100
0010
1000
0010
0100
0001
0100
0010
1000
0010
1000
0001
,
0100
0001
0100
0010
0100
0001
0010
0100
0010
0001
0100
0010
0100
0010
0100
0001
,
0010
0100
1000
0001
1000
0001
0100
0001
0100
0001
1000
0001
1000
0001
0010
0001
,
0010
0001
1000
0100
0010
0100
1000
0100
0010
0100
1000
0010
0100
0010
1000
0010
,
0100
0010
1000
0100
0010
0001
0100
0010
1000
0001
0100
0001
1000
0001
1000
0010
,
1000
0001
0100
0010
0100
0001
0100
0010
0100
0001
0010
0100
0010
0001
0010
0100
,
0010
0001
1000
0100
0010
0100
0010
0100
0010
0001
0010
0001
0010
0100
0010
0100
,
1000
0100
1000
0001
0100
0010
1000
0100
1000
0010
0100
0001
0010
0100
1000
0100
,
0010
0001
1000
0100
0010
0001
1000
0100
0010
0001
1000
0001
0010
0100
1000
0001
,
0010
0100
1000
0001
0010
0100
1000
0001
0010
0100
1000
0001
1000
0001
0100
0010
,
1000
0001
1000
0010
0100
0001
1000
0010
0100
0001
1000
0010
0100
0001
1000
0001
,
1000
0001
0100
0010
1000
0001
0100
0010
1000
0001
0100
0010
1000
0001
0010
0001
,
1000
0100
1000
0001
0010
0001
1000
0100
1000
0001
0100
0001
1000
0100
1000
0001
,
1000
0100
1000
0010
1000
0001
1000
0001
0100
0001
1000
0001
0100
0001
0010
0001
,
0100
0001
0010
0100
0010
0100
0010
0100
1000
0001
0100
0010
0100
0010
0100
0010
,
1000
0100
0010
0100
1000
0001
0100
0010
0100
0001
0010
0100
0010
0001
0100
0010
,
1000
0100
0010
0100
1000
0010
0100
0010
1000
0100
1000
0001
0010
0100
0010
0001
,
0100
0010
1000
0001
1000
0010
0100
0001
1000
0010
0100
0001
1000
0010
0100
0001
,
1000
0010
0100
0001
1000
0010
0100
0001
1000
0010
0100
0001
1000
0010
0100
0001
,
1000
0010
0100
0001
1000
0100
0010
0001
1000
0100
0010
0001
1000
0100
0010
0001
,
1000
0100
0010
0001
1000
0001
0010
0100
1000
0100
0010
0001
0010
0100
0010
0100
,
1000
0010
0100
0010
0100
0001
0010
0100
0010
0001
0100
0010
1000
0100
0010
0001
,
0010
0100
1000
0100
1000
0001
0010
0100
1000
0100
1000
0100
0010
0001
0010
0001
,
1000
0100
0010
0001
0010
0001
1000
0100
0010
0001
0100
0010
1000
0001
1000
0010
,
1000
0001
0100
0010
0100
0001
0100
0010
0100
0001
0010
0100
0010
0001
0010
0100
,
0010
0001
1000
0100
0010
0100
0010
0100
0010
0001
0010
0001
0010
0100
0010
0100
,
1000
0100
1000
0001
0100
0010
1000
0100
1000
0010
0100
0001
0010
0100
1000
0100
,
0010
0001
1000
0100
0010
0001
1000
0100
0010
0001
1000
0001
0010
0100
1000
0001
,
0010
0100
1000
0001
0010
0100
1000
0001
0010
0100
1000
0001
1000
0001
0100
0010
,
1000
0001
1000
0010
0100
0001
1000
0010
0100
0001
1000
0010
0100
0001
1000
0001
,
1000
0001
0100
0010
1000
0001
0100
0010
1000
0001
0100
0010
1000
0100
0010
0001
,
1000
0001
1000
0001
0010
0001
1000
0001
1000
0001
0100
0001
1000
0100
1000
0001
,
1000
0010
0100
0001
0100
0001
1000
0001
0100
0010
1000
0001
0100
0001
1000
0100
,
0010
0001
0010
0100
1000
0100
0010
0100
1000
0001
0100
0010
1000
0010
0100
0010
,
1000
0100
0010
0100
1000
0001
0100
0010
0100
0001
0010
0100
0010
0001
0100
0010
,
1000
0100
0010
0100
1000
0010
0100
0010
1000
0100
1000
0001
0010
0100
1000
0001
,
1000
0001
1000
0001
1000
0001
1000
0100
1000
0100
1000
0100
1000
0100
1000
0100
,
1000
0100
1000
0001
1000
0001
1000
0001
1000
0001
1000
0010
1000
0010
1000
0010
,
1000
0010
1000
0010
1000
0010
1000
0001
0010
0100
1000
0100
0010
0001
0010
0001
,
0010
0001
0010
0001
0010
0001
0100
0001
0100
0001
0100
0001
0100
0001
0010
0100
,
1000
0001
0010
0100
1000
0100
0010
0001
1000
0001
1000
0001
0100
0001
0100
0001
,
1000
0001
1000
0001
1000
0100
1000
0100
1000
0001
1000
0001
1000
0100
1000
0001
,
0100
0001
1000
0100
1000
0001
0100
0001
1000
0100
0010
0001
1000
0100
0010
0001
,
1000
0100
0010
0001
1000
0100
0010
0001
0010
0100
1000
0001
0010
0100
1000
0001
,
0010
0100
1000
0001
0010
0100
1000
0100
0010
0001
0010
0100
1000
0001
0010
0100
,
1000
0100
0010
0001
1000
0100
0010
0001
1000
0001
1000
0001
1000
0100
1000
0100
,
0010
0001
0010
0100
0010
0100
1000
0100
0010
0001
0010
0001
0010
0100
0010
0001
,
0100
0010
1000
0001
0100
0010
0100
0010
0100
0001
0010
0001
0100
0010
1000
0100
,
0010
0100
1000
0010
0100
0010
1000
0100
0010
0001
1000
0100
0010
0001
0010
0100
,
1000
0001
0010
0100
1000
0100
1000
0001
0010
0001
1000
0100
1000
0001
0010
0001
,
1000
0100
0010
0001
1000
0100
1000
0001
0010
0100
1000
0001
0010
0001
0100
0010
,
1000
0100
0010
0100
1000
0100
0010
0100
1000
0100
0010
0100
1000
0100
0010
0100
,
1000
0100
0010
0001
0010
0100
0010
0001
0010
0100
0010
0001
0010
0100
0010
0001
,
0010
0100
0010
0001
0010
0001
0010
0100
0010
0100
1000
0100
1000
0100
0010
0100
,
1000
0001
1000
0010
1000
0001
1000
0100
1000
0001
0010
0100
1000
0001
0100
0001
,
1000
0001
0010
0001
1000
0001
0100
0010
1000
0100
0010
0001
1000
0100
0010
0001
,
0010
0100
1000
0001
0010
0100
1000
0001
1000
0100
0010
0001
1000
0100
1000
0100
,
1000
0001
1000
0001
0100
0001
0100
0001
0100
0010
0100
0010
1000
0010
1000
0010
,
1000
0100
1000
0100
0010
0100
0010
0100
1000
0001
1000
0001
0100
0010
0100
0010
,
0100
0001
0100
0001
0010
0001
0010
0001
0010
0100
0010
0100
0010
0001
0010
0001
,
1000
0100
1000
0100
1000
0001
1000
0001
0100
0010
0100
0010
1000
0100
0010
0001
,
0100
0010
0100
0001
0010
0100
1000
0010
0100
0010
1000
0001
0100
0010
1000
0001
,
1000
0010
0100
0001
1000
0001
0100
0010
1000
0100
0010
0001
1000
0100
1000
0010
,
0100
0010
1000
0100
0010
0001
0100
0010
0100
0001
0010
0100
0010
0001
0100
0010
,
0100
0010
1000
0100
0010
0100
1000
0100
0010
0100
1000
0001
1000
0100
0010
0001
,
0100
0010
0100
0001
1000
0001
0100
0010
0100
0001
1000
0001
0010
0100
0010
0100
,
1000
0100
0010
0001
0100
0010
0100
0010
0100
0010
0100
0001
0010
0100
1000
0100
,
1000
0100
0010
0100
0010
0001
0010
0001
0010
0100
0010
0001
0010
0100
1000
0100
,
1000
0010
0100
0001
0010
0100
1000
0001
0100
0010
1000
0010
1000
0100
0010
0001
,
1000
0010
0100
0001
1000
0010
0100
0001
1000
0010
0100
0001
1000
0010
0100
0001
,
1000
0010
0100
0001
1000
0010
0100
0001
1000
0010
0100
0001
1000
0010
0100
0001
,
1000
0100
0010
0001
1000
0100
0010
0001
1000
0100
0010
0001
1000
0100
0010
0001
,
1000
0100
0010
0001
1000
0100
0010
0001
1000
0100
0010
0001
1000
0100
0010
0001
,
1000
0001
1000
0010
1000
0001
1000
0001
1000
0100
1000
0001
1000
0001
0100
0001
,
1000
0001
1000
0001
0010
0001
1000
0001
1000
0001
0100
0010
1000
0100
0010
0100
,
1000
0001
0010
0100
0010
0001
0100
0010
0100
0001
1000
0010
0100
0010
1000
0001
,
0100
0001
0010
0001
1000
0100
1000
0010
1000
0001
0010
0100
1000
0001
1000
0001
,
1000
0100
0010
0001
1000
0001
1000
0001
0100
0010
1000
0001
1000
0001
1000
0010
,
0100
0001
1000
0001
1000
0001
0010
0100
1000
0001
1000
0100
0010
0001
1000
0001
,
0010
0100
1000
0001
1000
0100
0010
0001
1000
0100
1000
0001
1000
0001
0100
0001
,
1000
0001
1000
0010
1000
0001
1000
0001
0100
0001
1000
0001
0010
0100
0010
0001
,
1000
0100
0010
0001
1000
0100
0010
0100
1000
0001
0010
0100
1000
0001
0010
0100
,
1000
0001
0010
0001
0100
0010
1000
0001
0100
0001
1000
0001
1000
0100
1000
0001
,
1000
0001
0010
0100
1000
0001
1000
0100
0010
0001
1000
0001
1000
0100
0010
0001
,
0010
0001
0100
0010
0100
0010
1000
0010
0100
0001
0100
0010
1000
0010
1000
0001
,
0100
0001
0100
0010
0100
0001
0010
0100
0010
0001
0100
0010
0100
0010
0100
0001
,
0010
0100
1000
0001
1000
0001
0100
0001
0100
0001
1000
0001
1000
0001
0010
0001
,
0010
0001
1000
0100
0010
0100
1000
0100
0010
0100
1000
0010
0100
0010
1000
0010
,
0100
0010
1000
0100
0010
0001
0100
0010
1000
0001
0100
0001
1000
0001
1000
0010
,
1000
0001
0100
0010
0100
0001
0100
0010
0100
0001
0010
0100
0010
0001
0010
0100
,
0010
0001
1000
0100
0010
0100
0010
0100
0010
0001
0010
0001
0010
0100
0010
0100
,
1000
0100
1000
0001
0100
0010
1000
0100
1000
0010
0100
0001
0010
0100
1000
0100
,
0010
0001
1000
0100
0010
0001
1000
0100
0010
0001
1000
0001
0010
0100
1000
0001
,
0010
0100
1000
0001
0010
0100
1000
0001
0010
0100
1000
0001
1000
0001
0100
0010
,
1000
0001
1000
0010
0100
0001
1000
0010
0100
0001
1000
0010
0100
0001
1000
0001
,
1000
0001
0100
0010
1000
0001
0100
0010
1000
0001
0100
0010
1000
0001
0010
0001
,
1000
0100
1000
0001
0010
0001
1000
0100
1000
0001
0100
0001
1000
0100
1000
0001
,
1000
0100
1000
0010
1000
0001
1000
0001
0100
0001
1000
0001
0100
0001
0010
0001
,
0100
0001
0010
0100
0010
0100
0010
0100
1000
0001
0100
0010
0100
0010
0100
0010
,
1000
0100
0010
0100
1000
0001
0100
0010
0100
0001
0010
0100
0010
0001
0100
0010
,
1000
0100
0010
0100
1000
0010
0100
0010
1000
0100
1000
0001
0010
0100
0010
0001
,
0100
0010
1000
0001
1000
0010
0100
0001
1000
0010
0100
0001
1000
0010
0100
0001
,
1000
0010
0100
0001
1000
0010
0100
0001
1000
0010
0100
0001
1000
0010
0100
0001
,
1000
0010
0100
0001
1000
0100
0010
0001
1000
0100
0010
0001
1000
0100
0010
0001
,
1000
0100
0010
0001
1000
0001
0010
0100
1000
0100
0010
0001
0010
0100
0010
0100
,
1000
0010
0100
0010
0100
0001
0010
0100
0010
0001
0100
0010
1000
0100
0010
0001
,
0010
0100
1000
0100
1000
0001
0010
0100
1000
0100
1000
0100
0010
0001
0010
0001
,
1000
0100
0010
0001
0010
0001
1000
0100
0010
0001
0100
0010
1000
0001
1000
0010
,
1000
0001
0100
0010
0100
0001
0100
0010
0100
0001
0010
0100
0010
0001
0010
0100
,
0010
0001
1000
0100
0010
0100
0010
0100
0010
0001
0010
0001
0010
0100
0010
0100
,
1000
0100
1000
0001
0100
0010
1000
0100
1000
0010
0100
0001
0010
0100
1000
0100
,
0010
0001
1000
0100
0010
0001
1000
0100
0010
0001
1000
0001
0010
0100
1000
0001
,
0010
0100
1000
0001
0010
0100
1000
0001
0010
0100
1000
0001
1000
0001
0100
0010
,
1000
0001
1000
0010
0100
0001
1000
0010
0100
0001
1000
0010
0100
0001
1000
0001
,
1000
0001
0100
0010
1000
0001
0100
0010
1000
0001
0100
0010
1000
0100
0010
0001
,
1000
0001
1000
0001
0010
0001
1000
0001
1000
0001
0100
0001
1000
0100
1000
0001
,
1000
0010
0100
0001
0100
0001
1000
0001
0100
0010
1000
0001
0100
0001
1000
0100
,
0010
0001
0010
0100
1000
0100
0010
0100
1000
0001
0100
0010
1000
0010
0100
0010
,
1000
0100
0010
0100
1000
0001
0100
0010
0100
0001
0010
0100
0010
0001
0100
0010
,
1000
0100
0010
0100
1000
0010
0100
0010
1000
0100
1000
0001
1000
0100
1000
0001
,
1000
0100
0010
0001
1000
0010
0100
0001
0010
0001
0010
0100
1000
0001
0100
0010
,
0100
0001
0100
0010
1000
0100
1000
0010
0100
0001
0100
0010
1000
0100
0010
0001
,
0100
0010
1000
0100
1000
0010
0100
0010
1000
0100
0010
0001
0010
0100
1000
0001
,
0010
0100
1000
0100
0010
0001
1000
0001
1000
0100
0010
0100
1000
0010
0100
0010
,
0100
0010
1000
0001
0100
0010
1000
0100
0010
0001
0010
0001
1000
0010
0100
0001
,
1000
0001
0010
0100
0010
0100
0010
0001
0100
0010
0100
0001
1000
0100
0010
0001
,
0010
0100
1000
0010
0100
0010
0100
0001
0010
0100
0010
0100
1000
0100
0010
0001
,
0010
0100
1000
0100
1000
0100
0010
0001
0010
0100
1000
0001
1000
0100
1000
0100
,
1000
0001
1000
0001
1000
0010
1000
0010
1000
0001
1000
0001
0010
0001
0010
0001
,
0100
0001
0100
0001
1000
0001
1000
0001
0100
0001
1000
0001
0010
0100
1000
0001
,
0100
0010
1000
0100
1000
0010
0100
0010
0100
0001
0100
0010
1000
0100
0010
0100
,
0010
0001
0100
0010
1000
0100
0010
0001
0010
0100
1000
0001
1000
0001
0100
0010
,
1000
0100
0010
0001
0010
0001
0010
0001
1000
0100
0010
0001
0010
0100
1000
0001
,
0010
0100
1000
0100
0010
0001
1000
0100
1000
0100
1000
0100
0010
0001
1000
0100
,
0010
0001
1000
0100
0010
0001
1000
0100
0010
0001
0010
0001
0010
0001
0010
0100
,
1000
0001
0010
0100
1000
0001
0010
0100
1000
0001
0010
0100
1000
0001
1000
0001
,
1000
0001
1000
0001
0100
0001
1000
0010
1000
0001
0100
0001
1000
0001
0010
0001
,
0010
0001
1000
0100
0010
0100
1000
0100
0010
0100
1000
0010
0100
0010
1000
0010
,
0100
0010
1000
0100
0010
0001
0100
0010
1000
0001
0100
0001
1000
0001
1000
0010
,
1000
0001
0100
0010
0100
0001
0100
0010
0100
0001
0010
0100
0010
0001
0010
0100
,
0010
0001
1000
0100
0010
0100
0010
0100
0010
0001
0010
0001
0010
0100
0010
0100
,
1000
0100
1000
0001
0100
0010
1000
0100
1000
0010
0100
0001
0010
0100
1000
0100
,
0010
0001
1000
0100
0010
0001
1000
0100
0010
0001
1000
0001
0010
0100
1000
0001
,
0010
0100
1000
0001
0010
0100
1000
0001
0010
0100
1000
0001
1000
0001
0100
0010
,
1000
0001
1000
0010
0100
0001
1000
0010
0100
0001
1000
0010
0100
0001
1000
0001
,
1000
0001
0100
0010
1000
0001
0100
0010
1000
0001
0100
0010
1000
0001
1000
0010
,
1000
0001
0100
0010
0100
0001
0100
0010
0100
0001
0010
0100
0010
0001
0010
0100
,
0010
0001
1000
0100
0010
0100
0010
0100
0010
0001
0010
0001
0010
0100
0010
0100
,
1000
0100
1000
0001
0100
0010
1000
0100
1000
0010
0100
0001
0010
0100
1000
0100
,
0010
0001
1000
0100
0010
0001
1000
0100
0010
0001
1000
0001
0010
0100
1000
0001
,
0010
0100
1000
0001
0010
0100
1000
0001
0010
0100
1000
0001
1000
0001
0100
0010
,
1000
0001
1000
0010
0100
0001
1000
0010
0100
0001
1000
0010
0100
0001
1000
0001
,
1000
0001
0100
0010
1000
0001
0100
0010
1000
0001
0100
0010
1000
0001
0010
0001
,
1000
0100
1000
0001
0010
0001
1000
0100
1000
0001
0100
0001
1000
0100
1000
0001
,
1000
0100
1000
0010
1000
0001
1000
0001
0100
0001
1000
0001
0100
0001
0010
0001
,
0100
0001
0010
0100
0010
0100
0010
0100
1000
0001
0100
0010
0100
0010
0100
0010
,
1000
0100
0010
0100
1000
0001
0100
0010
0100
0001
0010
0100
0010
0001
0100
0010
,
1000
0100
0010
0100
1000
0010
0100
0010
1000
0100
1000
0001
0010
0100
0010
0001
,
0100
0010
1000
0001
1000
0010
0100
0001
1000
0010
0100
0001
1000
0010
0100
0001
,
1000
0010
0100
0001
1000
0010
0100
0001
1000
0010
0100
0001
1000
0010
0100
0001
,
1000
0010
0100
0001
1000
0100
0010
0001
1000
0100
0010
0001
1000
0100
0010
0001
,
1000
0100
0010
0001
1000
0001
0010
0100
1000
0100
0010
0001
0010
0100
0010
0100
,
1000
0010
0100
0010
0100
0001
0010
0100
0010
0001
0100
0010
1000
0100
0010
0001
,
0010
0100
1000
0100
1000
0001
0010
0100
1000
0100
1000
0100
0010
0001
0010
0001
,
1000
0100
0010
0001
0010
0001
1000
0100
0010
0001
0100
0010
1000
0001
1000
0010
,
1000
0001
0100
0010
0100
0001
0100
0010
0100
0001
0010
0100
0010
0001
0010
0100
,
0010
0001
1000
0100
0010
0100
0010
0100
0010
0001
0010
0001
0010
0100
0010
0100
,
1000
0100
1000
0001
0100
0010
1000
0100
1000
0010
0100
0001
0010
0100
1000
0100
,
0010
0001
1000
0100
0010
0001
1000
0100
0010
0001
1000
0001
0010
0100
1000
0001
,
0010
0100
1000
0001
0010
0100
1000
0001
0010
0100
1000
0001
1000
0001
0100
0010
,
1000
0001
1000
0010
0100
0001
1000
0010
0100
0001
1000
0010
0100
0001
1000
0001
,
1000
0001
0100
0010
1000
0001
0100
0010
1000
0001
0100
0010
1000
0100
0010
0001
,
1000
0001
1000
0001
0010
0001
1000
0001
1000
0001
0100
0001
1000
0100
1000
0001
,
1000
0010
0100
0001
0100
0001
1000
0001
0100
0010
1000
0001
0100
0001
1000
0100
,
0010
0001
0010
0100
1000
0100
0010
0100
1000
0001
0100
0010
1000
0010
0100
0010
,
1000
0100
0010
0100
1000
0001
0100
0010
0100
0001
0010
0100
0010
0001
0100
0010
,
1000
0100
0010
0100
1000
0010
0100
0010
1000
0100
1000
0001
0010
0100
1000
0001
,
1000
0001
1000
0001
1000
0001
1000
0100
1000
0100
1000
0100
1000
0100
1000
0100
,
1000
0100
1000
0001
1000
0001
1000
0001
1000
0001
1000
0010
1000
0010
1000
0010
,
1000
0010
1000
0010
1000
0010
1000
0001
0010
0100
1000
0100
0010
0001
0010
0001
,
0010
0001
0010
0001
0010
0001
0100
0001
0100
0001
0100
0001
0100
0001
0010
0100
,
1000
0001
0010
0100
1000
0100
0010
0001
1000
0001
1000
0001
0100
0001
0100
0001
,
1000
0001
1000
0001
1000
0100
1000
0100
1000
0001
1000
0001
1000
0100
1000
0001
,
0100
0001
1000
0100
1000
0001
0100
0001
1000
0100
0010
0001
1000
0100
0010
0001
,
1000
0100
0010
0001
1000
0100
0010
0001
0010
0100
1000
0001
0010
0100
1000
0001
,
0010
0100
1000
0001
0010
0100
1000
0100
0010
0001
0010
0100
1000
0001
0010
0100
,
1000
0100
0010
0001
1000
0100
0010
0001
1000
0001
1000
0001
1000
0100
1000
0100
,
0010
0001
0010
0100
0010
0100
1000
0100
0010
0001
0010
0001
0010
0100
0010
0001
,
0100
0010
1000
0001
0100
0010
0100
0010
0100
0001
0010
0001
0100
0010
1000
0100
,
0010
0100
1000
0010
0100
0010
1000
0100
0010
0001
1000
0100
0010
0001
0010
0100
,
1000
0001
0010
0100
1000
0100
1000
0001
0010
0001
1000
0100
1000
0001
0010
0001
,
1000
0100
0010
0001
1000
0100
1000
0001
0010
0100
1000
0001
0010
0001
0100
0010
,
1000
0100
0010
0100
1000
0100
0010
0100
1000
0100
0010
0100
1000
0100
0010
0100
,
1000
0100
0010
0001
0010
0100
0010
0001
0010
0100
0010
0001
0010
0100
0010
0001
,
0010
0100
0010
0001
0010
0001
0010
0100
0010
0100
1000
0100
1000
0100
0010
0100
,
1000
0001
1000
0010
1000
0001
1000
0100
1000
0001
0010
0100
1000
0001
0100
0001
,
1000
0001
0010
0001
1000
0001
0100
0010
1000
0100
0010
0001
1000
0100
0010
0001
,
0010
0100
1000
0001
0010
0100
1000
0001
1000
0100
0010
0001
1000
0100
1000
0100
,
1000
0001
1000
0001
0100
0001
0100
0001
0100
0010
0100
0010
1000
0010
1000
0010
,
1000
0100
1000
0100
0010
0100
0010
0100
1000
0001
1000
0001
0100
0010
0100
0010
,
0100
0001
0100
0001
0010
0001
0010
0001
0010
0100
0010
0100
0010
0001
0010
0001
,
1000
0100
1000
0100
1000
0001
1000
0001
0100
0010
0100
0010
1000
0100
0010
0001
,
0100
0010
0100
0001
0010
0100
1000
0010
0100
0010
1000
0001
0100
0010
1000
0001
,
1000
0010
0100
0001
1000
0001
0100
0010
1000
0100
0010
0001
1000
0100
1000
0010
,
0100
0010
1000
0100
0010
0001
0100
0010
0100
0001
0010
0100
0010
0001
0100
0010
,
0100
0010
1000
0100
0010
0100
1000
0100
0010
0100
1000
0001
1000
0001
1000
0001
,
1000
0001
1000
0001
1000
0001
1000
0001
1000
0001
1000
0001
1000
0100
0010
0100
,
0010
0100
0010
0100
0010
0100
0010
0100
0010
0100
0010
0100
0010
0001
1000
0001
,
1000
0001
1000
0001
1000
0001
1000
0001
1000
0001
1000
0001
0010
0100
1000
0100
,
1000
0010
0100
0001
0010
0100
1000
0001
0100
0010
1000
0010
1000
0100
0010
0001
,
1000
0010
0100
0001
1000
0010
0100
0001
1000
0010
0100
0001
1000
0010
0100
0001
,
1000
0010
0100
0001
1000
0010
0100
0001
1000
0010
0100
0001
1000
0010
0100
0001
,
1000
0100
0010
0001
1000
0100
0010
0001
1000
0100
0010
0001
1000
0100
0010
0001
,
1000
0100
0010
0001
1000
0100
0010
0001
1000
0100
0010
0001
1000
0100
0010
0001
,
1000
0001
1000
0010
1000
0001
1000
0001
1000
0100
1000
0001
1000
0001
0100
0001
,
1000
0001
1000
0001
0010
0001
1000
0001
1000
0001
0100
0010
1000
0100
0010
0100
,
1000
0001
0010
0100
0010
0001
0100
0010
0100
0001
1000
0010
0100
0010
1000
0001
,
0100
0001
0010
0001
1000
0100
1000
0010
1000
0001
0010
0100
1000
0001
1000
0001
,
1000
0100
0010
0001
1000
0001
1000
0001
0100
0010
1000
0001
1000
0001
1000
0010
,
0100
0001
1000
0001
1000
0001
0010
0100
1000
0001
1000
0100
0010
0001
1000
0001
,
0010
0100
1000
0001
1000
0100
0010
0001
1000
0100
1000
0001
1000
0001
0100
0001
,
1000
0001
1000
0010
1000
0001
1000
0001
0100
0001
1000
0001
0010
0100
0010
0001
,
1000
0100
0010
0001
1000
0100
0010
0100
1000
0001
0010
0100
1000
0001
0010
0100
,
1000
0001
0010
0001
0100
0010
1000
0001
0100
0001
1000
0001
1000
0100
1000
0001
,
1000
0001
0010
0100
1000
0001
1000
0100
0010
0001
1000
0001
0010
0100
0010
0100
,
1000
0100
1000
0001
0100
0001
1000
0001
0100
0001
1000
0001
0010
0001
1000
0010
,
1000
0001
0010
0100
1000
0100
1000
0001
0100
0001
1000
0010
1000
0001
0010
0001
,
0100
0001
1000
0100
1000
0010
1000
0001
0100
0010
1000
0100
1000
0001
0010
0100
,
1000
0001
0010
0001
0100
0010
1000
0001
0100
0001
1000
0001
1000
0100
1000
0001
,
1000
0001
0010
0100
1000
0001
1000
0100
0010
0001
1000
0001
1000
0100
0010
0001
,
0010
0001
0100
0010
0100
0010
1000
0010
0100
0001
0100
0010
1000
0010
1000
0001
,
0100
0001
0100
0010
0100
0001
0010
0100
0010
0001
0100
0010
0100
0010
0100
0001
,
0010
0100
1000
0001
1000
0001
0100
0001
0100
0001
1000
0001
1000
0001
0010
0001
,
0010
0001
1000
0100
0010
0100
1000
0100
0010
0100
1000
0010
0100
0010
1000
0010
,
0100
0010
1000
0100
0010
0001
0100
0010
1000
0001
0100
0001
1000
0001
1000
0010
,
1000
0001
0100
0010
0100
0001
0100
0010
0100
0001
0010
0100
0010
0001
0010
0100
,
0010
0001
1000
0100
0010
0100
0010
0100
0010
0001
0010
0001
0010
0100
0010
0100
,
1000
0100
1000
0001
0100
0010
1000
0100
1000
0010
0100
0001
0010
0100
1000
0100
,
0010
0100
0010
0001
1000
0100
1000
0001
1000
0001
1000
0010
1000
0010
1000
0001
,
1000
0100
1000
0100
1000
0001
0010
0100
1000
0100
0010
0001
1000
0001
1000
0100
,
0010
0001
0100
0010
0100
0001
0010
0100
0010
0001
0010
0100
1000
0100
0010
0100
,
1000
0001
1000
0010
1000
0001
1000
0100
1000
0001
0010
0100
1000
0001
0100
0001
,
1000
0001
0010
0001
1000
0001
0100
0010
1000
0100
0010
0001
1000
0100
0010
0001
,
0010
0100
1000
0001
0010
0100
1000
0001
1000
0100
0010
0001
1000
0100
1000
0100
,
1000
0001
1000
0001
0100
0001
0100
0001
0100
0010
0100
0010
1000
0010
1000
0010
,
1000
0100
1000
0100
0010
0100
0010
0100
1000
0001
1000
0001
0100
0010
0100
0010
,
0100
0001
0100
0001
0010
0001
0010
0001
0010
0100
0010
0100
0010
0001
0010
0001
,
1000
0100
1000
0100
1000
0001
1000
0001
0100
0010
0100
0010
1000
0100
0010
0001
,
0100
0010
0100
0001
0010
0100
1000
0010
0100
0010
1000
0001
0100
0010
1000
0001
,
1000
0010
0100
0001
1000
0001
0100
0010
1000
0100
0010
0001
1000
0100
1000
0010
,
0100
0010
1000
0001
1000
0010
0100
0001
1000
0010
0100
0001
1000
0010
0100
0001
,
1000
0010
0100
0001
1000
0010
0100
0001
1000
0010
0100
0001
1000
0010
0100
0001
,
1000
0010
0100
0001
1000
0100
0010
0001
1000
0100
0010
0001
1000
0100
0010
0001
,
1000
0100
0010
0001
1000
0001
0010
0100
1000
0100
0010
0001
0010
0100
0010
0100
,
1000
0010
0100
0010
0100
0001
0010
0100
0010
0001
0100
0010
1000
0100
0010
0001
,
0010
0100
1000
0100
1000
0001
0010
0100
1000
0100
1000
0100
0010
0001
0010
0001
,
1000
0100
0010
0001
0010
0001
1000
0100
0010
0001
0100
0010
1000
0001
1000
0010
,
1000
0001
0100
0010
0100
0001
0100
0010
0100
0001
0010
0100
0010
0001
0010
0100
,
1000
0100
0010
0001
1000
0100
0010
0001
1000
0100
0010
0001
1000
0100
0010
0001
,
1000
0100
0010
0001
1000
0100
0010
0001
1000
0100
1000
0001
0010
0001
1000
0100
,
1000
0001
0010
0001
1000
0100
0010
0100
1000
0001
0010
0100
0010
0001
1000
0100
,
0010
0001
1000
0100
0010
0001
0010
0100
1000
0001
0010
0100
1000
0001
0010
0100
,
1000
0001
0010
0100
1000
0001
0010
0100
1000
0001
0010
0100
1000
0001
0100
0010
,
1000
0001
0100
0010
1000
0001
0100
0010
1000
0001
0100
0010
1000
0010
0100
0010
,
1000
0010
0100
0001
1000
0010
0100
0001
1000
0010
0100
0001
1000
0010
0100
0001
,
1000
0100
1000
0100
1000
0100
1000
0100
1000
0100
1000
0100
1000
0100
1000
0100
,
1000
0001
0010
0001
0010
0001
0010
0001
0010
0001
0010
0001
0010
0001
0010
0001
,
0100
0010
0100
0010
1000
0001
1000
0001
0100
0001
0100
0001
0010
0100
0010
0100
,
1000
0100
1000
0100
0010
0001
0010
0001
0100
0010
0100
0010
1000
0010
1000
0010
,
1000
0001
1000
0001
1000
0100
1000
0100
0010
0100
0010
0100
0010
0001
0010
0001
,
0010
0100
0010
0100
1000
0001
1000
0001
1000
0001
1000
0001
0100
0010
1000
0001
,
1000
0001
0010
0100
1000
0001
1000
0001
0100
0010
1000
0001
1000
0001
1000
0100
,
0010
0100
0010
0100
0010
0100
1000
0001
0010
0100
0010
0100
0010
0100
0010
0100
,
1000
0001
1000
0001
1000
0001
1000
0001
1000
0001
1000
0001
1000
0001
1000
0001
,
1000
0001
1000
0001
1000
0001
1000
0001
1000
0001
1000
0001
1000
0001
1000
0001
,
1000
0100
0010
0001
0010
0100
1000
0001
0010
0100
1000
0100
0010
0001
1000
0100
,
0010
0100
1000
0001
0010
0100
1000
0001
0010
0100
0010
0001
1000
0001
1000
0001
,
0010
0100
0010
0100
1000
0100
1000
0001
1000
0100
1000
0001
0010
0001
1000
0100
,
0010
0001
0100
0001
0010
0001
1000
0010
1000
0001
1000
0100
0010
0001
1000
0001
,
1000
0010
1000
0100
1000
0001
0010
0001
0100
0001
1000
0100
0010
0001
0100
0010
,
1000
0100
0010
0001
1000
0001
1000
0001
1000
0001
0100
0010
1000
0100
0010
0100
,
1000
0001
0100
0010
1000
0100
0010
0001
1000
0100
1000
0100
1000
0100
1000
0100
,
1000
0100
1000
0100
1000
0100
1000
0100
0010
0001
0010
0001
0100
0010
1000
0100
,
0010
0001
0010
0100
1000
0100
0010
0100
0010
0100
0010
0100
0010
0001
0010
0100
,
0010
0001
0010
0100
0010
0001
0010
0001
0010
0001
0010
0001
1000
0100
1000
0001
,
0010
0001
1000
0100
1000
0001
0010
0001
1000
0100
1000
0001
0100
0001
1000
0010
,
1000
0001
0100
0001
1000
0010
1000
0001
0100
0001
1000
0100
1000
0001
0010
0001
,
1000
0010
1000
0001
1000
0001
0100
0010
0100
0001
0100
0001
1000
0010
1000
0100
,
0010
0100
1000
0100
1000
0001
0010
0001
0100
0010
0100
0001
0010
0001
0010
0100
,
1000
0100
1000
0100
0010
0001
0010
0001
0010
0100
1000
0001
1000
0001
1000
0100
,
0010
0100
0010
0100
1000
0001
0010
0100
1000
0100
0010
0001
1000
0100
0010
0001
,
0010
0100
1000
0100
1000
0001
1000
0010
1000
0001
1000
0100
1000
0001
1000
0100
,
0010
0001
1000
0001
0100
0001
1000
0001
0010
0001
1000
0001
0100
0010
1000
0100
,
0010
0001
0010
0100
1000
0010
0100
0001
1000
0100
1000
0100
1000
0100
1000
0100
,
1000
0001
1000
0001
1000
0001
1000
0001
1000
0001
1000
0001
1000
0001
1000
0001
,
1000
0010
0100
0010
0100
0010
0100
0010
0100
0010
0100
0010
0100
0010
0100
0010
,
1000
0100
1000
0100
1000
0100
1000
0100
0010
0001
0010
0001
0010
0001
0010
0001
,
0100
0010
0100
0010
0100
0010
0100
0010
1000
0100
1000
0100
0010
0001
0010
0001
,
0100
0010
0100
0010
1000
0001
1000
0001
0010
0100
0010
0001
0010
0100
0010
0001
,
1000
0100
0010
0100
1000
0100
0010
0100
1000
0001
0010
0100
1000
0100
0010
0001
,
1000
0100
1000
0100
1000
0100
1000
0100
0010
0001
0010
0001
0010
0001
0010
0001
,
1000
0100
1000
0001
0100
0001
1000
0100
1000
0001
0100
0001
1000
0010
1000
0001
,
0010
0001
1000
0010
1000
0001
0010
0001
1000
0100
1000
0001
0100
0001
1000
0010
,
1000
0100
0010
0001
0100
0001
0010
0001
0100
0001
0010
0001
0100
0001
0010
0100
,
1000
0010
1000
0100
1000
0010
1000
0100
1000
0010
1000
0100
1000
0010
1000
0100
,
1000
0001
0010
0100
1000
0100
0010
0001
0100
0010
0100
0001
0010
0100
1000
0010
,
0100
0010
1000
0100
1000
0001
0010
0001
1000
0010
1000
0100
1000
0001
0010
0001
,
0100
0001
1000
0010
0100
0001
0010
0100
1000
0100
0010
0001
1000
0001
1000
0001
,
2002
3003
0000
0000
0000
0000
0000
0000
;
