#TITLE:Abyssal;
#SUBTITLE:Get ready to die.;
#ARTIST:Fleshgod Apocalypse;
#TITLETRANSLIT:;
#SUBTITLETRANSLIT:;
#ARTISTTRANSLIT:;
#CREDIT:;
#BANNER:../bn.png;
#BACKGROUND:../veyron.png;
#LYRICSPATH:;
#CDTITLE:CDTitle.png;
#MUSIC:02 Abyssal.ogg;
#OFFSET:3.336;
#SAMPLESTART:351.093;
#SAMPLELENGTH:27.620;
#SELECTABLE:YES;
#BPMS:0.000=140.000;
#STOPS:;
#BGCHANGES:;
// cache tags:
#FIRSTBEAT:8.000;
#LASTBEAT:954.250;
#SONGFILENAME:Songs/Cirque du Veyron/Zaia - Abyssal/02 Abyssal.sm;
#HASMUSIC:1;
#HASBANNER:1;
#MUSICLENGTH:405.890;
// end cache tags

//---------------dance-single - Zaia----------------
#NOTES:
     dance-single:
     Zaia:
     Challenge:
     18:
     1.000,1.000,0.017,0.067,1.000,4481.000,7.000,27.000,0.000,0.000:
0000
0000
0000
0000
,
0000
0000
0000
0000
,
1000
0001
1000
0001
1000
0010
1000
0001
0100
0010
0100
0001
1000
0010
0100
0001
1000
0010
1000
0010
0100
0001
0100
0001
,
1000
0100
0010
0100
1000
0001
0010
0001
1000
0100
0010
0001
0010
0100
1000
0001
1000
0001
0010
0001
0010
0100
1000
0100
,
1000
0001
0100
0010
0100
0001
1000
0010
0100
0001
1000
0010
1000
0001
0100
0010
1000
0001
0100
0001
0100
0010
1000
0010
,
1000
0001
1000
0100
0010
0100
1000
0001
0010
0100
0010
0001
1000
0010
1000
0001
1000
0001
0100
0010
1000
0001
0100
0001
,
1000
0010
0100
0001
1000
0010
0100
0010
0100
0001
0100
0001
1000
0010
0100
0001
0100
0010
1000
0001
0100
0010
0100
0001
,
1000
0100
1000
0001
0010
0100
1000
0001
1000
0100
0010
0001
1000
0001
1000
0001
0100
0001
0100
0010
1000
0001
0100
0010
,
1000
0001
1000
0001
0100
0010
0100
0001
1000
0001
1000
0001
0010
0100
1000
0001
0010
0001
1000
0100
1000
0100
0010
0001
,
1000
0010
1000
0001
0100
0010
1000
0001
1000
0010
0100
0010
1000
0001
0100
0001
1000
0010
1000
0001
0100
0010
0100
0010
,
1000
0001
0010
0100
0010
0001
1000
0100
1000
0001
0010
0001
0010
0100
1000
0100
0010
0001
1000
0100
0010
0001
1000
0001
,
1000
0001
0100
0010
0100
0001
1000
0010
1000
0001
0100
0010
0100
0001
1000
0010
1000
0010
0100
0010
0100
0001
0100
0001
,
1000
0100
0010
0100
1000
0001
0010
0100
0010
0100
1000
0001
0010
0100
0010
0001
1000
0100
0010
0001
1000
0100
1000
0100
,
0010
0001
1000
0010
1000
0001
0100
0010
1000
0001
1000
0100
1000
0001
0010
0001
1000
0100
0010
0100
1000
0100
0010
0001
,
1000
0001
1000
0100
0010
0001
1000
0100
0010
0001
0010
0001
1000
0100
1000
0100
0010
0001
1000
0100
0010
0001
1000
0100
,
1000
0001
0100
0010
0100
0001
1000
0001
0100
0010
1000
0001
0010
0001
0010
0100
0010
0100
1000
0100
1000
0100
0010
0001
,
1000
0100
0010
0001
1000
0100
0010
0001
0010
0100
1000
0001
0010
0001
1000
0010
0100
0010
0100
0001
0100
0010
1000
0001
,
0100
0000
0010
0000
1000
0000
0010
0000
0100
0000
0010
0000
0100
0000
0000
0001
0000
0000
0100
0000
0000
0010
0000
0000
0100
0000
0000
0001
0000
0000
1000
0000
0000
0001
0000
0000
0010
0000
0100
0000
1000
0000
0001
0000
0000
0010
0000
0000
,
0100
1000
0100
1000
0000
0000
0000
0000
0000
0000
0001
1000
0001
1000
0000
0000
,
0000
0000
0000
0000
0000
0000
1000
0100
1000
0100
0010
0001
1000
0001
0010
0100
0010
0001
1000
0100
1000
0001
1000
0001
,
0100
0010
1000
0010
0100
0001
1000
0001
0100
0001
0100
0010
1000
0010
1000
0001
0100
0010
0100
0001
1000
0010
1000
0010
,
0100
0001
1000
0100
1000
0001
0010
0100
1000
0001
1000
0100
0010
0100
1000
0001
0010
0001
0010
0100
0010
0100
1000
0001
,
1000
0000
0010
0000
0100
0000
0001
0000
0100
0000
0010
0000
1000
0000
0001
0000
1000
0000
0010
0000
0100
0000
0001
0000
1000
0000
0010
0000
1000
0000
0010
0000
0100
0000
0001
0000
1000
0000
0000
0010
0000
0000
0100
0000
0000
0001
0000
0000
,
0000
0000
0000
1000
0000
0000
0001
0010
0100
0010
0001
1000
0100
1000
0100
0010
0001
0010
0001
1000
0100
0010
0100
1000
,
0001
0100
0010
0100
0001
1000
0010
0100
0001
1000
0001
0100
0010
1000
0010
0100
0010
0100
0001
1000
0010
0100
0001
1000
,
0001
0010
0100
1000
0100
0010
0001
1000
0100
1000
0001
0010
0001
0010
0100
0010
0001
1000
0001
1000
0100
0010
0100
0010
,
0001
1000
0010
0100
0001
1000
0010
1000
0001
0100
0001
1000
0010
0100
0001
0100
0001
1000
0001
0000
0000
0000
0000
0000
,
1000
0001
1000
0100
1000
0001
0010
0100
1000
0100
0010
0001
1000
0100
0010
0100
1000
0001
1000
0001
0010
0100
1000
0001
,
1000
0010
0100
0001
0100
0010
1000
0010
0100
0001
1000
0010
1000
0001
0100
0001
1000
0010
1000
0010
0100
0001
0100
0001
,
1000
0100
0010
0001
0010
0100
0010
0100
1000
0001
0010
0100
0010
0001
1000
0100
1000
0001
1000
0001
0010
0100
0010
0001
,
1000
0000
0010
0000
0100
0000
0001
0000
0100
0000
0010
0000
1000
0000
0010
0000
1000
0000
0001
0000
0100
0000
0001
0000
1000
0000
0000
0100
0000
0000
0010
0000
0000
0001
0000
0000
0000
0000
0000
0000
0000
0000
1000
0000
0000
0000
0000
0000
,
0001
1000
0001
0010
0100
0010
0001
1000
0100
1000
0001
0010
0100
1000
0001
1000
0001
0010
0100
0010
0100
1000
0001
0010
,
0001
1000
0010
0100
0001
1000
0010
0100
0001
0100
0010
1000
0001
0100
0001
1000
0010
1000
0001
0100
0010
1000
0001
1000
,
0001
0010
0001
1000
0100
0010
0100
1000
0001
0010
0100
1000
0001
1000
0100
1000
0100
0010
0001
0010
0001
1000
0001
0010
,
0001
1000
0010
1000
0001
1000
0010
0000
0000
0000
0000
0000
0100
0010
0100
0010
0100
0010
1000
0001
1000
0001
1000
0001
,
1000
0100
0010
0001
1000
0001
0010
0100
0010
0001
1000
0100
1000
0100
0010
0100
1000
0001
0010
0100
0010
0001
1000
0100
,
0010
0100
1000
0001
0010
0100
1000
0001
1000
0010
0100
0001
1000
0010
0100
0001
,
1000
0010
0100
0001
0100
0010
1000
0001
0100
0001
1000
0010
0100
0001
1000
0010
1000
0001
0100
0001
1000
0010
1000
0001
,
1000
0100
0010
0001
1000
0100
0010
0100
0010
0001
1000
0100
1000
0001
0010
0100
0010
0001
1000
0100
1000
0001
0010
0100
,
1000
0001
0100
0001
1000
0010
1000
0001
0100
0010
1000
0001
1000
0010
0100
0001
1000
0010
1000
0010
0100
0001
0100
0001
,
1000
0010
0100
0001
1000
0010
0100
0001
1000
0100
0010
0001
1000
0100
0010
0100
,
1000
0001
0010
0100
0010
0001
1000
0100
0010
0100
0010
0001
1000
0100
1000
0001
0010
0100
1000
0001
1000
0100
0010
0001
,
1000
0010
1000
0010
0100
0001
0100
0001
1000
0010
0100
0001
0100
0010
0100
0001
1000
0001
1000
0100
1000
0001
1000
0001
,
0010
0100
1000
0100
0010
0001
1000
0100
1000
0001
0100
0010
0100
0001
1000
0001
0100
0001
0100
0010
1000
0010
1000
0001
,
0010
0100
0010
0001
1000
0100
0010
0001
1000
0001
0010
0100
0010
0100
0010
0001
1000
0001
1000
0010
0100
0001
0100
0001
,
1000
0010
0100
0001
1000
0001
0100
0010
1000
0010
1000
0001
0100
0001
0100
0010
1000
0001
0100
0010
1000
0001
0100
0010
,
1000
0001
1000
0100
1000
0001
0010
0100
0010
0001
1000
0100
1000
0001
0010
0001
1000
0001
1000
0010
0100
0001
0100
0001
,
1000
0010
1000
0001
0100
0010
1000
0001
1000
0100
1000
0001
0010
0100
1000
0001
1000
0100
0010
0100
1000
0001
0010
0001
,
1000
0010
0100
0001
1000
0010
1000
0001
0100
0010
1000
0010
1000
0001
0100
0001
1000
0001
1000
0100
0010
0100
1000
0001
,
0010
0100
1000
0001
1000
0100
1000
0100
0010
0001
0010
0001
1000
0010
0100
0001
1000
0001
0100
0010
1000
0001
1000
0010
,
0100
0010
0100
0001
1000
0001
1000
0100
0010
0001
1000
0100
1000
0001
0010
0100
0010
0001
1000
0010
0100
0001
0100
0010
,
1000
0001
0100
0001
0100
0010
1000
0010
1000
0001
0100
0010
1000
0001
1000
0100
0010
0100
1000
0001
0010
0001
0010
0100
,
1000
0100
0010
0001
1000
0001
1000
0010
0100
0010
1000
0001
0100
0010
1000
0001
1000
0010
0100
0010
0100
0001
1000
0010
,
0100
0001
0100
0010
1000
0001
0100
0001
0100
0010
0100
0010
1000
0001
1000
0100
0010
0001
1000
0001
0010
0001
1000
0100
,
0010
0100
0010
0001
1000
0001
1000
0010
0100
0010
1000
0001
0100
0010
1000
0001
0100
0001
1000
0001
0010
0100
0010
0001
,
1000
0100
0010
0001
1000
0100
1000
0100
0010
0001
1000
0100
1000
0001
0100
0001
1000
0010
0100
0001
0100
0010
1000
0001
,
1000
0010
0100
0001
1000
0001
1000
0100
0010
0100
1000
0001
0010
0001
1000
0100
1000
0001
0100
0010
0100
0010
0100
0010
,
1000
0001
1000
0001
1000
0001
1000
0001
1000
0001
1000
0001
1000
0010
0100
0001
1000
0001
0100
0010
0100
0001
1000
0010
,
1000
0000
0010
0000
0100
0000
0010
0000
1000
0000
0001
0000
0100
0000
0010
0000
0100
0000
0001
0000
1000
0000
0010
0000
0100
0000
0000
0010
0000
0000
1000
0000
0000
0001
0000
0000
0100
0000
0000
0010
0000
0000
1000
0000
0000
0001
0000
0000
,
1000
0000
0000
0100
0000
0000
0010
0000
0000
0001
0000
0000
1000
0000
0000
0100
0000
0000
0010
0000
0000
0001
0000
0000
1000
0000
0100
0000
0010
0000
0001
0000
0010
0000
0100
0000
1000
0000
0001
0000
0010
0000
0001
0000
1000
0000
0100
0000
,
0010
0001
1000
0100
1000
0001
0010
0001
1000
0100
1000
0001
1000
0010
0100
0001
1000
0010
0100
0010
0100
0001
1000
0010
,
1000
0001
0100
0010
0100
0001
1000
0010
1000
0001
0100
0010
1000
0001
0010
0001
1000
0100
1000
0001
0010
0100
1000
0001
,
1000
0000
0100
0000
0010
0000
0001
0000
1000
0000
0100
0000
1000
0000
0100
0000
0010
0000
0001
0000
0010
0000
0001
0000
1000
0000
0000
0100
0000
0000
0010
0000
0000
0001
0000
0000
1000
0000
0000
0100
0000
0000
0010
0000
0000
0001
0000
0000
,
1000
0000
0000
0010
0000
0000
0100
0000
0000
0001
0000
0000
1000
0000
0000
0010
0000
0000
0100
0000
0000
0010
0000
0000
1000
0000
0001
0000
0100
0000
0010
0000
0100
0000
0001
0000
1000
0000
0010
0000
0100
0000
0010
0000
0100
0000
0001
0000
,
1000
0010
1000
0001
0100
0010
1000
0001
1000
0010
0100
0001
1000
0100
1000
0100
0010
0001
0010
0001
1000
0100
0010
0001
,
0010
0000
0100
0000
0010
0000
0001
0000
1000
0000
0001
0000
1000
0000
0010
0000
1000
0000
0001
0000
1000
0000
0001
0000
0100
0000
0000
0010
0000
0000
1000
0000
0000
0001
0000
0000
0100
0000
0000
0010
0000
0000
1000
0000
0000
0001
0000
0000
,
0100
0000
0000
0001
0000
0000
1000
0000
0000
0100
0000
0000
0010
0000
0000
0001
0000
0000
1000
0000
0000
0001
0000
0000
0100
0000
0010
0000
0100
0000
0001
0000
1000
0000
0010
0000
0100
0000
0001
0000
1000
0000
0001
0000
0100
0000
0010
0000
,
0100
0010
0100
0001
1000
0001
1000
0100
0010
0001
0010
0001
1000
0100
0010
0001
1000
0001
0010
0100
1000
0100
1000
0001
,
0010
0001
0010
0100
1000
0001
1000
0100
1000
0001
0010
0100
1000
0001
1000
0010
1000
0001
0100
0010
0100
0001
1000
0010
,
1000
0000
0001
0000
0100
0000
0001
0000
1000
0000
0001
0000
1000
0000
0100
0000
0010
0000
0001
0000
0010
0000
0001
0000
1000
0000
0000
0100
0000
0000
0010
0000
0000
0001
0000
0000
1000
0000
0000
0100
0000
0000
0010
0000
0000
0001
0000
0000
,
1000
0000
0000
0010
0000
0000
0100
0000
0000
0001
0000
0000
1000
0000
0000
0010
0000
0000
0100
0000
0000
0001
0000
0000
1000
0000
0100
0000
0010
0000
0001
0000
1000
0000
0100
0000
1000
0000
0001
0000
0010
0000
0100
0000
1000
0000
0100
0000
,
1000
0001
0010
0001
1000
0001
1000
0010
0100
0010
1000
0001
0100
0010
1000
0001
1000
0010
1000
0010
0100
0001
0100
0001
,
1000
0001
1000
0001
2000
0000
0000
0000
,
3002
0000
0000
0000
,
0023
0000
0000
0130
0200
0000
0000
0000
,
2300
0000
0000
0000
,
3002
0000
0000
0103
0200
0000
0000
0000
,
0320
0000
0000
0000
,
2030
0000
3002
0000
,
0000
0000
2003
0000
,
0000
3000
1002
0000
,
2003
0000
0000
0000
,
3020
0000
0000
0130
0200
0000
0000
0000
,
0302
0000
0000
0000
,
2003
0000
0000
3100
0200
0000
0000
0000
,
0320
0000
0000
0000
,
0032
0000
2003
0000
,
0000
0000
0000
0000
0000
0000
0000
0000
0000
0000
0000
0000
3020
0000
0000
0000
0000
0000
0030
0000
0000
0100
0001
0100
,
0001
0000
1000
0000
,
0001
0001
0000
0000
1000
1000
0000
0000
,
0100
0000
0000
0100
0000
0000
0000
0000
0000
0010
0100
0010
0100
0000
0000
1000
0000
0000
0000
0000
0000
0000
0000
0000
,
0001
0001
0000
0000
1000
1000
0000
0000
,
0010
0010
0000
0000
0100
0100
0000
0000
,
0001
0001
0000
0000
1000
1000
0000
0000
,
0010
0000
0000
0010
0000
0000
0000
0000
0000
0100
0010
0100
0010
0000
0000
1000
0000
0000
0000
0000
0000
0000
0000
0000
,
0001
0000
0000
0001
0000
0000
0000
0000
0000
0000
0000
0000
0010
0000
0000
0010
0000
0000
0000
0000
0000
0100
1000
0100
,
1000
0000
0001
0000
0101
0000
0100
0010
,
1010
0000
1000
0000
1000
0010
1000
0000
,
1000
0001
1000
0000
0001
0000
0100
0001
,
0101
0000
0001
0000
0001
1000
0001
0000
,
0001
0010
0001
0000
0010
0000
0100
0010
,
0110
0000
1000
0000
1000
0100
1000
0000
,
1000
0001
1000
0000
1001
0000
1000
0010
,
1001
0000
0000
0000
0000
0000
1000
0000
0000
0000
0000
0000
0001
0100
0001
0100
0010
1000
0001
0100
0001
0100
0000
0000
,
0001
1000
0001
1000
0001
1000
0001
1000
0001
1000
0001
1000
0001
0100
0010
1000
0010
0100
0001
1000
0010
0100
0001
1000
,
0001
0100
0010
1000
0001
0100
0001
0100
0010
0100
0010
0100
0010
1000
0010
1000
0001
0100
0010
1000
0001
1000
0010
0100
,
0001
1000
0010
0100
0001
1000
0010
1000
0010
0100
0001
0100
0001
1000
0100
0010
0100
1000
0001
0010
0100
1000
0001
0010
,
0001
1000
0100
1000
0100
0010
0100
0010
0001
0010
0001
0010
0100
1000
0001
0010
0100
0010
0001
1000
0100
1000
0001
0010
,
0100
0010
0100
1000
0001
0010
0100
1000
0001
1000
0100
0010
0001
1000
0010
0100
0001
1000
0010
0100
0010
1000
0001
0100
,
0001
0100
0010
1000
0010
1000
0001
0100
0010
1000
0010
0100
0001
1000
0001
0100
0010
0100
0010
1000
0001
0100
0010
1000
,
0010
0100
0001
1000
0010
0100
0001
1000
0001
1000
0001
1000
0100
0010
0100
1000
0001
0010
0100
0010
0001
1000
0100
1000
,
0001
0010
0001
0010
0100
1000
0100
1000
0100
1000
0001
1000
0001
0010
0100
1000
0001
1000
0100
0010
0001
1000
0100
1000
,
0001
0010
0100
0010
0001
1000
0001
1000
0100
0010
0100
1000
0001
0100
0010
0100
0001
1000
0010
0100
0010
0100
0001
1000
,
0001
0100
0010
1000
0001
0100
0010
1000
0010
1000
0010
0100
0010
0100
0001
0100
0001
0100
0010
1000
0010
0100
0001
1000
,
0001
0100
0010
1000
0001
0100
0001
1000
0010
0100
0001
1000
0001
0010
0100
1000
0100
0010
0001
1000
0100
1000
0100
0010
,
0001
0010
0001
1000
0100
0010
0100
1000
0001
0010
0100
1000
0001
0010
0001
1000
0001
1000
0100
0010
0100
1000
0001
0010
,
0100
1000
0001
1000
0100
0010
0001
1000
0001
1000
0100
0010
0001
1000
0010
1000
0001
0100
0001
1000
0010
0100
0001
1000
,
0010
1000
0010
0100
0001
0100
0001
0100
0010
0100
0010
1000
0001
0100
0010
1000
0001
1000
0010
0100
0001
1000
0001
0100
,
0010
0100
0010
1000
0001
0100
0010
1000
0010
0100
0001
1000
0010
0000
0000
0000
0100
0000
0000
0000
0001
0100
0010
0100
,
0001
1000
0010
0100
0001
1000
0001
1000
0010
0100
0001
1000
0001
0010
0100
1000
0001
1000
0100
0010
0100
1000
0001
0010
,
0001
0000
0010
0000
0100
0000
0010
0000
0100
0000
0010
0000
0100
0000
1000
0000
0100
0000
1000
0000
0100
0000
0010
0000
0001
0000
0000
1000
0000
0000
0001
0000
0000
0010
0000
0000
0001
0000
0000
1000
0000
0000
0100
0000
0000
0010
0000
0000
,
0001
1000
0100
1000
0001
1000
0001
1000
0001
1000
0001
1000
0001
1000
0001
1000
,
0001
0100
0010
1000
0010
0100
0001
1000
0100
0010
0100
1000
0001
0010
0100
1000
,
0100
0010
0100
1000
0001
1000
0001
1000
0001
1000
0001
1000
0001
1000
0001
1000
,
0002
0000
0000
0000
0000
0000
0003
0000
1000
0010
0100
0001
0100
0010
1000
0010
,
0100
0001
0100
0010
1000
0001
1000
0100
1000
0001
0010
0100
0010
0001
1000
0001
,
1000
0010
0100
0001
0100
0010
1000
0010
1000
0001
0010
0100
1000
0001
0010
0100
,
0010
0000
0000
0001
0000
0000
0010
0000
0000
0100
0000
0000
1000
0000
0000
0001
0000
0000
1000
0000
0000
0001
0000
0000
1000
0000
0010
0000
1000
0000
0010
0000
0100
0000
0001
0000
1000
0000
0010
0000
1000
0000
0010
0000
0100
0000
0001
0000
,
1000
0000
0001
0000
0010
0000
0001
0000
0010
0000
0100
0000
1000
0000
0001
0000
0010
0000
0001
0000
0010
0000
0100
0000
1000
0000
0000
0001
0000
0000
1000
0000
0000
0100
0000
0000
1000
0000
0000
0001
0000
0000
0010
0000
0000
0100
0000
0000
,
1000
0001
0010
0001
1000
0001
1000
0001
1000
0001
1000
0001
1000
0001
1000
0001
,
1000
0010
0100
0001
0100
0010
1000
0001
0010
0100
0010
0001
1000
0100
0010
0001
,
1000
0100
0010
0100
1000
0001
0100
0010
0100
0001
1000
0010
1000
0001
1000
0001
,
0100
0010
1000
0001
1000
0001
0100
0010
1000
0001
0010
0001
1000
0100
1000
0100
,
0010
0001
1000
0100
1000
0001
0100
0010
0100
0001
1000
0010
0100
0001
1000
0010
,
1000
0001
1000
0001
1000
0001
1000
0001
2000
0000
0000
0000
3100
0000
0020
0000
,
0000
0000
0000
0031
0000
0000
2000
0000
0000
0000
0000
0000
3010
0100
0001
1000
0001
1000
0010
0100
0001
1000
0001
1000
,
0010
0100
0001
1000
0010
0100
0001
1000
0001
1000
0001
1000
0001
0010
0001
0010
0100
1000
0001
1000
0100
0010
0100
1000
,
0001
0010
0001
1000
0001
1000
0010
0100
0001
0100
0010
1000
0001
1000
0010
1000
0010
0100
0001
0100
0001
1000
0010
0100
,
0010
1000
0001
0100
0001
0100
0010
1000
0001
0010
0001
1000
0100
0010
0001
1000
0001
0010
0100
0010
0001
1000
0100
1000
,
0100
0010
0100
0010
0001
1000
0001
0100
0010
1000
0010
0100
0001
1000
0001
0100
0010
1000
0001
0100
0001
0100
0010
1000
,
0001
0000
0000
0100
0000
0000
0010
0000
0000
1000
0000
0000
0000
0000
0000
0000
0000
0000
0001
0000
0000
0000
0000
0000
1000
0000
0100
0000
0010
0000
0100
0000
1000
0000
0001
0000
0010
0000
0001
0000
0010
0000
0100
0000
1000
0000
0100
0000
,
1000
0001
0010
0100
0010
0001
1000
0010
0100
0010
1000
0001
0100
0010
1000
0001
1000
0010
0100
0001
0100
0010
0100
0010
,
1000
0001
0100
0010
1000
0001
1000
0100
0010
0001
0010
0100
1000
0001
0010
0001
1000
0100
1000
0100
0010
0100
1000
0001
,
1000
0001
0010
0100
0010
0100
1000
0001
0100
0010
1000
0001
0100
0001
1000
0010
1000
0001
0100
0010
1000
0010
1000
0001
,
1000
0000
0000
0000
0000
0000
0001
1000
0001
0010
0001
1000
0100
0010
0001
0010
0100
1000
0001
0010
0100
0010
0001
1000
,
0001
1000
0100
0010
0001
1000
0001
0100
0010
1000
0010
0100
0001
0100
0010
1000
0001
0100
0001
1000
0010
1000
0001
0100
,
0001
0100
0010
1000
0010
1000
0001
0010
0100
1000
0100
0010
0100
0010
0001
1000
0100
0010
0100
1000
0001
0010
0001
1000
,
0001
0000
1000
0000
0100
0000
0010
0000
0100
0000
1000
0000
0001
0000
0100
0000
0010
0000
1000
0000
0010
0000
0100
0000
0001
0000
0100
0000
0001
0000
1000
0000
0010
0000
1000
0000
0001
0000
0000
0010
0000
0000
0100
0000
0000
1000
0000
0000
,
0000
0000
0000
0001
0000
0000
1000
0001
1000
0100
0010
0100
1000
0001
0010
0001
1000
0100
0010
0001
1000
0001
1000
0100
,
0010
0100
0010
0001
1000
0100
1000
0001
0100
0010
1000
0001
0100
0010
1000
0010
0100
0001
1000
0010
1000
0001
0100
0001
,
1000
0010
0100
0001
1000
0001
1000
0100
1000
0001
0010
0100
0010
0001
1000
0100
0010
0001
1000
0001
0010
0001
0010
0100
,
1000
0100
1000
0001
1000
0100
1000
0001
0100
0001
1000
0001
0100
0000
0000
0000
0000
0000
0010
0100
0010
0100
0010
0100
,
0001
1000
0001
1000
0001
1000
0001
0010
0100
1000
0001
1000
0100
0010
0100
1000
0001
0010
0001
0010
0100
0010
0001
1000
,
0100
0000
0010
0000
0100
0000
1000
0000
0001
0000
0010
0000
0100
0000
0000
0010
0000
0000
0001
0000
0000
1000
0000
0000
0100
0000
0000
0010
0000
0000
0001
0000
0000
1000
0000
0000
0001
0000
0000
0100
0000
0000
0010
0000
0000
1000
0000
0000
,
0001
0000
0000
0100
0000
0000
0010
0000
0000
1000
0000
0000
0001
0000
0100
0000
0010
0000
1000
0000
0010
0000
0100
0000
0001
0000
1000
0000
0010
0000
1000
0000
0001
0000
0100
0000
0010
0000
1000
0000
0001
0000
0100
0000
0001
0000
1000
0000
,
0010
1000
0001
0100
0001
1000
0001
0010
0100
1000
0001
0010
0100
0010
0100
1000
0001
0010
0001
1000
0100
0010
0100
1000
,
0001
0010
0001
1000
0100
0010
0001
1000
0010
1000
0001
0100
0001
1000
0010
0100
0001
1000
0001
0100
0010
1000
0001
0100
,
0001
0000
0100
0000
0010
0000
1000
0000
0010
0000
1000
0000
0001
0000
0000
0100
0000
0000
0010
0000
0000
1000
0000
0000
0001
0000
0000
0100
0000
0000
0010
0000
0000
1000
0000
0000
0001
0000
0000
0010
0000
0000
0100
0000
0000
1000
0000
0000
,
0001
0000
0000
0010
0000
0000
0100
0000
0000
0010
0000
0000
0001
0000
1000
0000
0100
0000
0010
0000
0100
0000
1000
0000
0001
0000
0010
0000
0100
0000
0010
0000
0100
0000
1000
0000
0001
0000
0010
0000
0001
0000
1000
0000
0100
0000
0010
0000
,
0001
0000
1000
0000
0001
0000
0010
0000
0100
0000
1000
0000
0001
0000
0100
0000
0001
0000
0100
0000
0010
0000
1000
0000
0001
0000
0000
0100
0000
0000
0010
0000
0000
1000
0000
0000
0001
0000
0000
0100
0000
0000
0010
0000
0000
1000
0000
0000
,
0001
0010
0100
1000
0001
0010
0100
1000
0100
0010
0001
1000
0100
0010
0001
1000
,
0010
0100
0001
1000
0010
0100
0001
0100
0010
1000
0010
0100
0001
0100
0010
0000
,
1000
0000
0000
0001
0000
1000
0000
0000
0100
0010
0100
0010
0001
0010
0100
1000
,
0100
0010
0001
0010
0100
1000
0001
1000
0001
1000
0001
1000
0001
1000
0001
1000
,
0001
1000
0001
1000
0001
1000
0001
1000
0001
1000
0001
1000
0001
1000
0001
1000
,
0001
1000
0001
1000
0001
1000
0001
1000
0001
1000
0001
1000
0001
0000
0100
0000
,
0010
0000
0000
0000
0000
0000
0000
0000
0000
1000
0000
0000
0000
0000
0000
0001
0000
0000
0000
0000
0000
0000
0000
0000
1000
0000
0010
0000
0100
0000
0001
0000
1000
0000
0001
0000
1000
0000
0100
0000
1000
0000
0100
0000
0010
0000
0001
0000
,
1000
0001
0010
0100
0010
0001
1000
0100
1000
0001
1000
0001
0100
0010
1000
0010
0100
0001
1000
0001
0100
0001
0100
0010
,
1000
0010
1000
0001
0100
0010
0100
0001
1000
0010
1000
0010
0100
0001
1000
0100
1000
0001
0010
0100
1000
0001
1000
0100
,
0010
0100
1000
0001
0010
0001
0010
0100
0010
0100
1000
0001
1000
0010
0100
0001
0100
0010
1000
0001
1000
0010
0100
0001
,
1000
0000
0010
0000
1000
0000
0010
0000
0100
0000
0001
0000
1000
0000
0000
0010
0000
0000
0100
0000
0000
0001
0000
0000
0000
0000
0000
0000
0000
0000
1000
0000
0000
0000
0000
0000
0001
0000
0010
0000
0100
0000
0010
0000
0001
0000
1000
0000
,
0100
1000
0100
0010
0001
0010
0001
1000
0100
0010
0100
1000
0001
0100
0010
0100
0001
1000
0010
0100
0001
1000
0001
0100
,
0010
1000
0010
0100
0010
0100
0001
1000
0010
0100
0001
1000
0001
0010
0100
1000
0100
0010
0001
1000
0100
1000
0001
0010
,
0001
0010
0100
0010
0001
1000
0001
1000
0100
0010
0100
0010
0001
1000
0010
0100
0001
1000
0010
1000
0001
0100
0001
1000
,
0010
0100
0001
0100
0001
1000
0001
1000
0001
1000
0001
1000
0001
1000
0001
1000
0001
1000
0001
0000
0000
0000
0000
0000
,
0000
0000
0000
0000
0000
0000
0000
0000
0000
0000
0000
0000
0000
0000
0000
0000
0000
0000
1000
0100
0010
0001
1000
0001
,
0010
0000
0100
0000
0010
0000
0001
0000
1000
0000
0100
0000
1000
0000
0100
0000
0010
0000
0100
0000
1000
0000
0001
0000
0010
0000
0100
0000
0010
0000
0001
0000
1000
0000
0100
0000
0010
0000
0000
0100
0000
0000
1000
0000
0000
0001
0000
0000
,
0010
0000
0000
0100
0000
0000
1000
0000
0000
0001
0000
0000
1000
0000
0000
0010
0000
0000
0100
0000
0000
0001
0000
0000
1000
0000
0000
0010
0000
0000
0100
0000
0000
0001
0000
0000
1000
0000
0010
0000
0100
0000
0001
0000
0100
0000
0010
0000
,
1000
0001
0100
0001
1000
0010
0100
0001
1000
0010
1000
0001
0100
0001
1000
0010
1000
0001
1000
0100
0010
0001
1000
0100
,
0010
0100
0010
0001
1000
0100
1000
0001
0010
0100
0010
0001
1000
0100
1000
0001
0010
0100
1000
0001
0100
0001
1000
0010
,
1000
0000
0001
0000
0100
0000
0010
0000
1000
0000
0001
0000
1000
0000
0010
0000
0100
0000
0001
0000
1000
0000
0010
0000
1000
0000
0010
0000
0100
0000
0001
0000
0100
0000
0001
0000
1000
0000
0000
0010
0000
0000
0100
0000
0000
0001
0000
0000
,
1000
0000
0000
0010
0000
0000
0100
0000
0000
0001
0000
0000
1000
0000
0000
0100
0000
0000
0010
0000
0000
0001
0000
0000
1000
0000
0000
0100
0000
0000
0010
0000
0000
0100
0000
0000
1000
0000
0001
0000
0010
0000
0100
0000
0010
0000
0001
0000
,
1000
0100
0010
0100
0010
0001
1000
0100
1000
0001
0010
0100
1000
0001
1000
0100
0010
0001
1000
0010
1000
0010
0100
0001
,
0100
0000
0001
0000
1000
0000
0010
0000
0100
0000
0001
0000
0100
0000
0010
0000
0100
0000
0001
0000
1000
0000
0001
0000
1000
0000
0100
0000
1000
0000
0001
0000
1000
0000
0001
0000
0010
0000
0000
0100
0000
0000
1000
0000
0000
0001
0000
0000
,
0010
0000
0000
0100
0000
0000
1000
0000
0000
0001
0000
0000
0100
0000
0000
0010
0000
0000
1000
0000
0000
0001
0000
0000
0100
0000
0000
0010
0000
0000
1000
0000
0000
0001
0000
0000
1000
0000
0100
0000
0010
0000
0001
0000
1000
0000
0100
0000
,
0010
0001
1000
0001
0010
0100
0010
0100
0010
0001
1000
0001
1000
0010
0100
0001
0100
0001
1000
0010
0100
0001
1000
0001
,
0100
0010
1000
0010
1000
0001
0100
0001
0100
0010
1000
0001
0100
0010
1000
0001
0100
0010
1000
0001
1000
0100
1000
0001
,
0010
0000
0100
0000
0010
0000
0001
0000
1000
0000
0100
0000
1000
0000
0001
0000
0010
0000
0001
0000
1000
0000
0001
0000
1000
0000
0010
0000
0100
0000
0001
0000
0100
0000
0001
0000
1000
0000
0000
0010
0000
0000
0100
0000
0000
0001
0000
0000
,
1000
0000
0000
0010
0000
0000
0100
0000
0000
0001
0000
0000
1000
0000
0000
0100
0000
0000
0010
0000
0000
0001
0000
0000
1000
0000
0000
0010
0000
0000
1000
0000
0000
0001
0000
0000
1000
0000
0001
0000
1000
0000
0010
0000
1000
0000
0001
0000
,
0100
0001
0100
0010
1000
0010
1000
0001
0100
0001
1000
0001
1000
0100
0010
0100
1000
0001
0010
0100
1000
0001
1000
0100
,
1000
0100
0010
0001
0010
0001
1000
0000
0000
0001
0000
0000
1000
0000
0000
0001
0000
0000
1000
0010
0100
0001
1000
0010
,
1000
0010
0100
0010
0100
0010
0100
0001
0100
0001
1000
0010
0100
0001
0100
0010
1000
0001
1000
0100
0010
0100
1000
0001
,
0010
0100
1000
0001
1000
0001
0010
0001
0010
0100
1000
0001
0010
0100
0010
0001
1000
0001
0100
0010
1000
0010
0100
0001
,
1000
0010
0100
0001
0100
0010
1000
0010
1000
0001
0100
0001
0100
0010
1000
0001
0100
0001
1000
0100
1000
0001
0010
0100
,
0010
0001
1000
0100
0010
0001
1000
0100
1000
0100
1000
0001
0010
0001
0010
0001
1000
0001
1000
0010
0100
0001
1000
0001
,
0100
0010
1000
0001
0100
0001
0100
0010
0100
0010
1000
0001
0100
0010
0100
0001
1000
0001
1000
0100
0010
0100
1000
0001
,
0010
0100
1000
0100
0010
0100
1000
0100
1000
0001
0010
0100
0010
0001
1000
0001
1000
0001
0100
0010
0100
0001
1000
0010
,
1000
0001
0100
0010
1000
0010
0100
0001
1000
0001
0100
0010
1000
0001
0010
0100
0010
0001
1000
0100
1000
0001
0010
0100
,
0010
0100
1000
0100
1000
0100
1000
0001
0100
0010
0100
0001
1000
0010
0100
0001
1000
0001
1000
0100
0010
0100
1000
0001
,
0010
0100
1000
0001
1000
0100
0010
0001
0010
0100
0010
0100
1000
0100
1000
0001
1000
0001
0100
0010
0100
0001
1000
0001
,
0100
0010
1000
0010
0100
0001
1000
0010
1000
0010
1000
0001
1000
0001
0100
0010
0100
0001
1000
0100
1000
0001
0010
0100
,
0010
0001
1000
0001
0010
0100
0010
0100
1000
0001
1000
0100
0010
0001
1000
0100
0010
0001
1000
0010
0100
0001
1000
0010
,
1000
0001
0100
0010
1000
0001
0010
0001
0010
0100
1000
0100
1000
0001
0100
0010
1000
0001
1000
0100
1000
0001
0010
0100
,
0010
0100
1000
0100
1000
0100
1000
0001
0100
0010
1000
0001
1000
0010
0100
0001
1000
0010
1000
0001
1000
0100
0010
0001
,
1000
0100
1000
0001
0010
0100
0010
0001
1000
0001
1000
0100
0010
0100
1000
0001
0010
0001
1000
0010
0100
0001
1000
0010
,
1000
0001
0100
0001
0100
0010
1000
0001
0100
0010
0100
0010
1000
0001
1000
0100
0010
0100
1000
0001
1000
0001
1000
0001
,
1000
0100
1000
0100
1000
0100
0010
0000
0000
0100
0000
0000
0010
0000
0000
0100
0000
0000
1000
0100
0010
0001
1000
0100
,
1000
0100
0010
0100
0010
0100
0010
0001
0010
0001
1000
0100
0010
0001
0010
0100
1000
0001
1000
0010
0100
0010
1000
0001
,
0100
0010
1000
0001
1000
0001
0100
0001
0100
0010
1000
0001
0100
0010
0100
0001
1000
0001
0010
0100
1000
0100
0010
0001
,
1000
0100
0010
0001
0010
0100
1000
0100
1000
0001
0010
0001
0010
0100
1000
0001
0010
0001
1000
0010
1000
0001
0100
0010
,
0100
0001
1000
0010
0100
0001
1000
0010
1000
0010
1000
0001
0100
0001
0100
0001
1000
0001
1000
0100
0010
0001
1000
0001
,
0010
0100
1000
0001
0010
0001
0010
0100
0010
0100
1000
0001
0010
0100
0010
0001
1000
0001
1000
0010
0100
0010
1000
0001
,
0100
0010
1000
0010
0100
0010
1000
0010
1000
0001
0100
0010
0100
0001
1000
0001
1000
0001
0010
0100
0010
0001
1000
0100
,
1000
0001
0010
0100
1000
0100
0010
0001
1000
0001
0010
0100
1000
0001
0100
0010
0100
0001
1000
0010
1000
0001
0100
0010
,
0100
0010
1000
0010
1000
0010
1000
0001
0010
0100
0010
0001
1000
0100
0010
0001
1000
0001
1000
0010
0100
0010
1000
0001
,
0100
0010
1000
0001
1000
0010
0100
0001
0100
0010
0100
0010
1000
0010
1000
0001
1000
0001
0010
0100
0010
0001
1000
0001
,
0010
0100
1000
0100
0010
0001
1000
0100
1000
0100
1000
0001
1000
0001
0010
0100
0010
0001
1000
0010
1000
0001
0100
0010
,
0100
0001
1000
0001
0100
0010
0100
0010
1000
0001
1000
0010
0100
0001
1000
0010
0100
0001
1000
0100
0010
0001
1000
0100
,
1000
0001
0010
0100
1000
0001
0100
0001
0100
0010
1000
0010
1000
0001
0100
0010
1000
0001
1000
0100
1000
0001
0010
0100
,
0010
0100
1000
0100
1000
0100
1000
0001
0100
0010
1000
0001
1000
0010
0100
0001
1000
0010
1000
0001
1000
0100
0010
0001
,
1000
0100
1000
0001
0010
0100
0010
0001
1000
0001
1000
0100
0010
0100
1000
0001
0010
0001
1000
0010
0100
0001
1000
0010
,
1000
0001
0100
0001
0100
0010
1000
0001
0100
0010
0100
0010
1000
0001
1000
0100
0010
0100
1000
0001
1000
0001
1000
0001
,
0100
0000
0001
0000
0100
0000
0001
0000
0100
0000
0001
0000
1000
0000
0000
0000
0000
0000
0001
0000
0000
0000
0000
0000
1000
0000
0000
0000
0000
0000
0001
0000
0000
0000
0000
0000
1000
0000
0000
0010
0000
0000
1000
0000
0000
0001
0000
0000
,
0010
0100
1000
0001
1000
0010
1000
0001
0010
0100
1000
0001
1000
0100
1000
0001
,
0100
0010
1000
0001
1000
0100
1000
0001
0100
0010
1000
0001
1000
0010
0100
0001
,
1000
0100
0010
0001
1000
0010
0100
0001
1000
0100
0010
0001
1000
0010
0100
0001
,
1000
0100
0010
0100
1000
0010
0100
0001
1000
0100
0010
0100
1000
0010
1000
0001
,
0010
0100
1000
0001
1000
0010
1000
0001
0010
0100
1000
0001
1000
0100
1000
0001
,
0100
0010
1000
0001
1000
0100
1000
0001
0100
0010
1000
0001
1000
0001
0010
0100
,
1000
0010
0100
0001
1000
0010
0100
0001
1000
0001
0010
0100
1000
0001
0010
0100
,
1000
0001
0010
0001
1000
0010
0100
0001
1000
0001
0010
0001
1000
0010
1000
0001
,
0010
0100
1000
0001
1000
0010
1000
0001
0010
0100
1000
0001
1000
0100
1000
0001
,
0100
0010
1000
0001
1000
0100
1000
0001
0100
0010
1000
0001
1000
0100
0010
0001
,
1000
0010
0100
0001
1000
0100
0010
0001
1000
0010
0100
0001
1000
0100
0010
0100
,
1000
0010
0100
0001
1000
0100
0010
0100
1000
0010
0100
0001
1000
0010
0100
0001
,
1000
0001
0100
0010
1000
0001
0010
0100
1000
0001
0010
0100
1000
0100
0010
0001
,
1000
0100
0010
0001
1000
0010
0100
0001
1000
0100
1000
0001
1000
0010
0100
0001
,
1000
0000
0000
0100
0000
0000
1000
0000
0000
0001
0000
0000
1000
0000
0000
0100
0000
0000
0010
0000
0000
0001
0000
0000
1000
0000
0000
0001
0000
0000
0010
0000
0000
0001
0000
0000
1000
0000
0010
0000
1000
0000
0010
0000
0100
0000
0001
0000
,
1000
0000
0001
0000
1000
0000
0100
0000
0010
0000
0001
0000
0010
0000
0001
0000
1000
0000
0100
0000
0010
0000
0100
0000
2000
0000
0000
3000
0000
0000
0000
0000
0000
0000
0000
0000
0000
0000
0000
0000
0000
0000
0000
0000
0000
0000
0000
0000
;
