#TITLE:Insect Digestion Melancholy;
#SUBTITLE:;
#ARTIST:Hrvatskil;
#TITLETRANSLIT:;
#SUBTITLETRANSLIT:;
#ARTISTTRANSLIT:;
#CREDIT:;
#BANNER:idm.png;
#BACKGROUND:idm-bg.png;
#LYRICSPATH:;
#CDTITLE:!moogycdtitle.png;
#MUSIC:idm-edit.mp3;
#OFFSET:-0.070;
#SAMPLESTART:35.369;
#SAMPLELENGTH:12.000;
#SELECTABLE:YES;
#BPMS:0.000=169.640;
#STOPS:;
#BGCHANGES:;
// cache tags:
#FIRSTBEAT:0.000;
#LASTBEAT:376.000;
#SONGFILENAME:Songs/Community Keyboard Megapack - Volume 1/(Moogy) Insect Digestion Melancholy/idm.sm;
#HASMUSIC:1;
#HASBANNER:1;
#MUSICLENGTH:135.340;
// end cache tags

//---------------dance-single - ----------------
#NOTES:
     dance-single:
     :
     Hard:
     11:
     0.634,1.000,0.406,0.052,0.654,539.000,55.000,7.000,0.000,0.000:  // measure 1
1100
0000
0000
0000
,  // measure 2
0000
0000
0110
0000
,  // measure 3
0011
0000
0000
1010
0000
0000
0000
0000
,  // measure 4
0000
0000
0000
0000
,  // measure 5
0110
0000
0000
0000
,  // measure 6
0000
0000
0011
0000
,  // measure 7
1010
0000
0000
0000
,  // measure 8
0000
0000
0101
0000
,  // measure 9
0011
0000
0000
0100
0000
0000
1000
0000
,  // measure 10
0010
0000
0001
0000
,  // measure 11
0010
0000
0000
0000
,  // measure 12
1000
0000
0011
0000
,  // measure 13
0110
0000
0000
0101
0000
0000
0011
0000
,  // measure 14
1010
0000
0101
0000
,  // measure 15
0110
0000
0000
0000
,  // measure 16
1010
0000
1001
0000
,  // measure 17
0011
0000
0000
0000
,  // measure 18
1100
0000
0000
0000
,  // measure 19
1001
0000
0000
0000
0000
0100
0000
0000
0000
0000
0010
0000
0000
0000
0000
0000
,  // measure 20
0001
0000
0100
0000
,  // measure 21
0010
0000
0000
0100
0000
0000
0010
0000
,  // measure 22
0001
0000
1000
0000
,  // measure 23
0010
0000
0000
0000
0000
0100
0000
0000
0000
0000
0000
0000
0001
0000
0000
0000
,  // measure 24
1000
0000
0000
0100
,  // measure 25
0010
0000
0000
1000
0000
0000
0100
0000
,  // measure 26
0010
0000
0001
0000
,  // measure 27
0010
0000
0000
0000
0000
1000
0000
0000
0000
0000
0000
0000
0100
0000
0000
0000
,  // measure 28
0010
0000
0000
0000
,  // measure 29
0110
0000
0101
0000
,  // measure 30
1100
0000
0011
0000
,  // measure 31
1010
0000
0011
0000
,  // measure 32
0110
0000
0011
0000
,  // measure 33
1001
0010
0100
0010
0100
0000
0010
0000
1000
0010
0100
0001
0010
0000
0100
0000
,  // measure 34
0010
0100
1000
0001
0010
0000
0100
0000
0000
1000
0010
0100
0001
0000
0010
0000
,  // measure 35
0100
0010
0000
0000
1000
0100
0010
0001
0100
0010
1000
0010
0100
0001
0010
0100
,  // measure 36
1000
0010
0100
0001
0010
0100
1000
0010
0100
0001
0010
0100
1000
0100
0010
0001
,  // measure 37
1000
0010
0100
0001
0010
0100
1000
0100
0010
0001
0010
0100
1000
0010
0100
0001
,  // measure 38
0100
0010
0001
0100
0010
0100
1000
0100
0010
0001
0010
0100
1000
0010
0100
0001
,  // measure 39
0010
0100
1000
0010
0100
0001
0010
0100
0010
0001
1000
0010
0100
0001
0010
0100
,  // measure 40
1000
0010
0100
0001
1000
0100
0010
0001
0100
0001
0010
0100
1000
0100
0010
0000
,  // measure 41
0100
0000
0010
0001
0010
0100
1000
0010
0100
0001
0010
0100
1000
0100
0010
1000
,  // measure 42
0010
0100
0001
0010
0100
1000
0010
0100
0001
1000
0001
0010
0100
1000
0010
0100
,  // measure 43
0001
0000
0010
0000
0100
0000
1000
0000
0010
0000
0100
0000
1000
0000
0010
0000
0100
0000
0001
0000
0010
0000
0100
0000
0001
0000
0010
0000
0100
0000
1000
0100
,  // measure 44
0010
0001
0010
0100
1000
0100
0010
0001
0010
0000
0100
0000
1000
0000
0010
0000
0100
0000
0001
0000
0010
0000
0100
0000
1000
0000
0100
0000
0010
0000
0001
0000
,  // measure 45
0010
0000
0000
0000
1000
0000
0000
0000
0001
0000
0000
0010
0000
0000
0100
0000
,  // measure 46
0000
0000
0000
0010
0000
0000
0000
0000
0000
0000
0000
0000
1000
0000
0000
0000
0000
0000
0010
0000
0000
0000
0000
0000
0100
0000
0000
0000
0001
0000
0000
0000
0010
0000
0000
0000
1000
0000
0000
0100
0000
0000
1000
0000
0000
0010
0000
0000
,  // measure 47
0100
0100
0010
1000
0010
0001
0100
1000
,  // measure 48
0010
0000
0000
0000
0001
0000
0010
0000
0100
0001
0010
0100
1000
0000
0010
0000
0100
0010
0001
0000
1010
0000
0000
0000
0000
0000
0000
0000
0000
0000
0000
0000
,  // measure 49
0011
0000
0000
0000
0000
0000
0000
0000
0000
0000
0000
0000
0000
0000
0000
0000
0010
1000
0001
0010
0001
0010
0001
0000
0000
0000
0000
0000
0000
0000
0000
0000
,  // measure 50
0110
0000
0000
0000
1000
0010
0000
0000
0001
0000
0100
0000
0100
0100
0100
0000
,  // measure 51
0011
0100
0100
0000
0000
0000
1100
0000
0000
0010
0010
0000
0000
0000
0000
0000
,  // measure 52
0011
0000
0010
0000
0000
0000
0010
0000
0110
0000
0000
0010
0000
0000
0001
1000
,  // measure 53
0000
0110
0000
0011
0000
0000
0011
0000
,  // measure 54
1010
0100
0010
0001
0000
0000
0000
0000
0011
0000
1000
0000
0000
0000
0000
0000
,  // measure 55
0011
0000
0000
1010
0000
0000
0011
0000
,  // measure 56
0110
0000
0000
0000
0000
0000
0000
0000
0000
0000
0000
0000
0000
0000
0000
0000
0000
0000
0000
0000
0000
0000
0000
0000
0010
0100
0010
0100
0010
0100
0010
0000
,  // measure 57
1100
0000
0001
1000
0000
0000
0011
0100
0000
0000
0000
0001
1100
0000
0000
0000
,  // measure 58
1020
0000
0000
1000
0000
0000
0000
0000
,  // measure 59
0031
0000
0000
0000
0000
0000
0010
0000
0000
0000
0000
0100
0000
0000
0000
0000
,  // measure 60
0020
0000
0000
0030
2000
0000
0000
3000
0002
0000
0000
0003
0020
0000
0000
0030
,  // measure 61
1100
0000
0011
0000
,  // measure 62
0110
0000
1001
0000
,  // measure 63
1010
0000
0000
0000
0000
0000
0000
0000
0010
0000
1000
0100
0010
0001
0010
0001
0010
0000
0100
0000
0000
0000
0100
0000
0000
0000
0100
0000
0000
0000
0100
0000
,  // measure 64
0010
0000
0010
0000
,  // measure 65
1000
0001
0010
0000
,  // measure 66
0100
0000
0000
0000
0000
0000
0010
0000
0100
0000
0000
0000
0010
0100
0010
0000
,  // measure 67
0001
0000
0001
0000
0001
0000
0000
0000
0010
0100
1000
0000
0000
0000
0010
0100
,  // measure 68
1000
0001
0010
0100
1000
0000
1000
0100
0010
0001
0100
0010
0001
0000
0000
0000
,  // measure 69
1000
0000
0000
0000
0010
0000
0000
0000
0100
0000
0010
0000
0000
0000
0001
0010
,  // measure 70
0001
0000
0000
0000
0000
0000
0010
1000
0000
0000
1000
0000
0000
1000
0000
0000
,  // measure 71
0010
0100
0010
0000
0000
0000
0000
0000
0100
1000
0010
0100
0001
0000
0010
0100
,  // measure 72
1000
0000
0010
0000
0100
0000
0000
0000
0010
0100
0010
0000
0000
0000
0000
0000
,  // measure 73
0010
0000
0010
0000
0100
0000
0000
0000
0010
0001
0010
0100
1000
0100
0000
0010
,  // measure 74
0100
0001
0010
0100
1000
0000
1000
0000
0100
0000
0001
0000
0010
0100
1000
0010
,  // measure 75
0010
0000
0001
0000
0010
0000
0000
0000
0010
1000
0010
1000
0000
0000
0001
0010
,  // measure 76
0001
0010
0000
0000
0000
0000
0000
0000
0010
0100
0010
0100
0000
0100
0000
0100
,  // measure 77
0010
0000
0000
0000
0010
0000
0000
0000
0100
0010
0001
0010
0100
0010
0001
0010
,  // measure 78
0100
0010
0001
0010
0100
0010
0001
0010
0200
0000
0000
0000
0000
0000
0000
0000
,  // measure 79
0310
0000
0100
0000
0010
0000
0001
0010
,  // measure 80
0200
0000
0000
0000
0000
0000
0000
0000
0000
0000
0000
0000
0000
0000
0000
0300
,  // measure 81
0010
1000
0001
1000
,  // measure 82
0010
1000
0010
1000
,  // measure 83
0001
0100
0010
1000
,  // measure 84
0001
0010
0100
1000
,  // measure 85
0010
0100
0001
0010
,  // measure 86
1000
0100
0001
0010
,  // measure 87
0100
1000
0010
0100
,  // measure 88
0001
0010
0100
0001
,  // measure 89
0010
0100
1000
0010
,  // measure 90
0100
0001
0010
0100
,  // measure 91
1000
0010
0100
0001
,  // measure 92
0010
1000
0001
0100
,  // measure 93
0010
1000
0010
0100
,  // measure 94
0001
1000
0010
0100
,  // measure 95
0001
0000
0000
0000
;
