#TITLE:Steel Gods of The Last Apocalypse;
#SUBTITLE:;
#ARTIST:Rhapsody;
#TITLETRANSLIT:;
#SUBTITLETRANSLIT:;
#ARTISTTRANSLIT:;
#CREDIT:Magna Trick & Cerdo Claro;
#BANNER:SGOTLA-BN.png;
#BACKGROUND:SGOTLA-BG.png;
#LYRICSPATH:;
#CDTITLE:Magna Trick title!.png;
#MUSIC:Steel Gods Of The Last Apocalypse.mp3;
#OFFSET:-0.340;
#SAMPLESTART:36.116;
#SAMPLELENGTH:11.980;
#SELECTABLE:YES;
#BPMS:0.000=174.000,161.000=87.000,175.750=174.000,386.000=348.000,388.000=174.000,444.000=87.000,458.750=174.000,669.000=347.999,671.000=174.000,797.000=116.000,825.000=174.000;
#STOPS:32.000=1.060
,175.750=1.100
,410.000=0.700
,458.750=1.100
,912.000=0.340
;
#BGCHANGES:;
// cache tags:
#FIRSTBEAT:0.000;
#LASTBEAT:940.500;
#SONGFILENAME:Songs/keyboard/(Magna Trick & Cerdo Claro) Steel Gods of the Last Apocalypse/Steel Gods Of The Last Apocalypse.sm;
#HASMUSIC:1;
#HASBANNER:1;
#MUSICLENGTH:348.559;
// end cache tags

//---------------dance-single - ----------------
#NOTES:
     dance-single:
     :
     Hard:
     12:
     1.000,1.000,1.000,0.261,1.000,2538.000,575.000,91.000,168.000,38.000:
1001
0000
0000
0001
1000
0100
1001
0000
0000
1000
0001
0100
,
1001
0000
0000
0001
1000
0010
1100
0001
0010
0101
0010
0100
,
1001
0000
0000
1000
0001
0010
1001
0000
0000
0001
1000
0010
,
1001
0000
0000
1000
0001
0100
0011
1000
0100
1010
0100
0010
,
1001
0000
0000
0010
0100
0001
0110
0000
0000
0100
0010
0001
,
0110
0000
0000
0010
0100
1000
0101
0010
1000
0011
1000
0001
,
0110
0000
0000
1100
0110
0011
1001
0000
0000
0011
0110
1100
,
1001
0000
0000
1100
0110
0011
1001
1010
0110
0101
1010
0101
,
1001
0000
1001
00M1
0011
0M1M
0110
0M1M
,
0011
M0M1
1001
M0M1
0101
010M
01M1
1M01
,
M101
1M01
110M
1M00
1010
M010
0110
0M10
,
1010
1MM0
11M0
1M00
1M10
MM10
1010
M110
,
1M10
0000
M110
1001
0110
0000
M010
0000
1010
0000
10MM
0000
1001
0000
10MM
0000
,
1010
MM10
0110
MM10
0011
00M1
M011
011M
,
0M11
011M
01M1
010M
1100
1M00
1001
100M
,
1100
M10M
M101
010M
110M
1M0M
1100
1M01
,
110M
0000
1M01
0110
1001
0100
0010
0001
1000
0010
0100
0001
1000
0100
0010
0001
,
1100
0010
0100
0010
1001
0100
1000
0010
0100
0010
0101
1000
0010
0100
0001
1000
,
0011
0100
1000
0001
0110
1000
0100
1000
0001
0100
0001
1000
0010
1000
0001
0010
,
0001
0100
0010
0100
1010
0001
1000
0001
0100
0010
1000
0010
0101
1000
0100
1000
,
0010
0100
0001
0010
1001
0100
1000
0010
0100
0001
1000
0100
1000
0010
0100
0001
,
0010
0001
1000
0100
0011
1000
0100
0010
0001
0100
0001
0010
1001
0100
0010
0001
,
1000
0010
0100
0001
1010
0100
0010
1000
0010
0100
0001
1000
0100
1000
0010
0100
,
0001
1000
0001
1000
0110
0001
0010
0100
1000
0100
0010
0001
1000
0010
0100
0001
,
1000
0100
0010
0001
1100
0010
0001
1000
0010
0100
0001
1000
0101
0010
0100
1000
,
0011
0100
1000
0001
0110
0001
1000
0010
1100
0001
0100
0010
1001
0100
1000
0010
,
0101
1000
0010
0100
0011
1000
0100
0010
0001
0010
0100
1000
0010
0100
0001
1000
,
0100
1000
0001
0010
1100
0001
0010
0100
1000
0001
0100
0010
1001
0100
0010
1000
,
0100
1000
0001
0100
0011
1000
0100
1000
0010
0100
0001
1000
0100
1000
0010
0100
,
0001
1000
0010
0100
1001
0010
0001
1000
0010
0100
0001
0100
1010
0001
1000
0010
,
0100
0001
1000
0010
0101
1000
0100
1000
0010
0100
0001
1000
0100
1000
0010
0001
,
1000
0100
0001
1000
0011
0100
1000
0001
0100
0010
1000
0100
1001
0000
1001
0000
,
1001
0000
1001
0110
1001
0000
1M00
0000
1100
0000
M1M0
0000
0110
0000
M1M0
0000
,
1100
1M0M
1001
1M0M
1010
M010
1M10
10M1
,
101M
10M1
M011
00M1
0101
010M
0110
01M0
,
0101
0MM1
0M11
00M1
01M1
01MM
0101
011M
,
01M1
0000
011M
1001
0110
0000
010M
0000
0101
0000
MM01
0000
1001
0000
MM01
0000
,
0101
01MM
0110
01MM
1100
1M00
110M
M110
,
11M0
M110
1M10
M010
0011
00M1
1001
M001
,
0011
M01M
101M
M010
M011
M0M1
0011
10M1
,
M011
0000
10M1
0110
1001
0010
0100
0001
1000
0100
0010
0001
1100
1000
1000
0100
,
0011
0010
0010
0100
1001
0001
0001
1000
1000
1000
0100
0100
0011
0010
0010
0010
,
1001
0001
0001
0001
0110
0010
0010
0010
0000
1000
0001
0001
1010
1000
1000
1000
,
0101
0100
0100
0100
1010
0010
0010
1001
1000
1000
1010
0010
0011
0001
0001
1001
,
0110
0000
1100
0000
0011
0000
1001
0010
,
0100
1001
0100
1000
1001
0100
0011
0100
,
1000
0110
0001
1000
1010
0100
1001
0100
,
0010
0001
0110
0001
1000
0010
0101
0010
,
1000
0000
0100
0000
1001
0000
0100
0000
0010
0000
0001
0000
0110
0000
0001
1000
,
0010
0100
1001
0000
0000
0000
1000
0000
0100
0000
0001
0000
1100
0000
0001
0010
,
0100
1000
0110
0000
0000
0000
1000
0000
0001
0000
0100
0000
1001
0000
0100
0000
,
0010
1001
0010
0001
1001
0010
1100
0010
,
0001
0110
1000
0001
0101
0010
1001
0010
,
0100
1000
0110
1000
0001
0100
1010
0100
,
0001
0000
0010
0000
1001
0000
0010
0000
0100
0000
1000
0000
0110
0000
1000
0001
,
0100
0010
1001
0000
0000
0000
0001
0000
0010
0000
1000
0000
0011
0000
1000
0100
,
0010
0001
0110
0000
0000
0000
0001
0000
1000
0000
0100
0000
1001
0000
0100
0000
,
0010
0011
0100
1000
0110
0001
1010
0100
,
1000
0011
0100
0001
1010
0100
2001
0001
,
0001
0001
0001
3001
1002
0103
1020
1000
,
1000
1000
1000
1000
1030
0100
0021
0031
,
1010
0100
0011
0011
0101
1000
0001
0010
,
0010
0000
0010
0000
0010
0100
1000
0001
1000
0010
1000
0100
1001
0010
0001
1000
,
0010
0100
1010
0100
0001
1000
0010
1000
0101
0010
0100
1000
0011
1000
0100
0010
,
0001
1000
0110
0001
1000
0010
0100
0001
1100
0010
0001
0100
1001
0010
1000
0001
,
1000
0010
0100
0001
1000
0100
1000
0010
0101
1000
0001
0100
1010
0001
0010
0100
,
1000
0100
0010
0001
1000
0010
0100
0001
1100
0010
0001
0100
1001
0010
1000
0001
,
0100
0010
0101
1000
0010
1000
0001
0100
0011
1000
0001
1000
0110
0001
0010
0100
,
1000
0001
1100
0010
0001
0100
0010
0100
1001
0010
1000
0010
0101
1000
0100
1000
,
0010
0100
0001
1000
0010
0100
0001
1000
0110
0001
0010
0100
1010
0100
0010
0001
,
1000
0010
0100
0001
1000
0100
1000
0010
0100
0001
0010
0001
1100
0010
0100
1000
,
0001
0100
0011
1000
0010
0100
0001
1000
0110
0001
0010
0001
1100
0010
0001
1000
,
0010
0100
1001
0010
1000
0001
0010
0100
0011
1000
0100
0010
1001
0100
1000
0010
,
0100
0001
1000
0100
1000
0010
0100
0001
1100
0010
0001
1000
0011
0100
1000
0010
,
0100
0001
1000
0100
1000
0010
0100
0010
0101
1000
0010
0100
1010
0001
0010
0100
,
1000
0010
1001
0100
0010
0001
1000
0010
1100
0001
0100
1000
0011
0100
1000
0010
,
0100
0001
0110
1000
0001
0010
0100
0010
1100
0001
0010
0100
1001
0100
0010
0001
,
1000
0010
0100
0001
1000
0100
1000
0010
0100
0001
1000
0010
0102
0000
1000
0000
,
0100
0000
1000
0000
0013
0000
0100
0010
0001
0100
0010
1000
0110
0000
0000
0000
,
1002
0000
0203
2310
,
0000
3002
0000
1203
,
0000
0300
2000
3012
,
0000
0000
0000
1203
0000
0000
0000
0000
0000
1301
0010
0100
,
0001
1000
0100
0010
0001
0010
0100
1000
0010
1100
0001
1000
,
0010
1000
0100
1010
0001
0010
0100
1000
0001
1100
0010
1000
,
0100
1000
0010
0100
0001
0010
0100
0010
0001
1100
0010
0100
,
0001
0000
1000
0000
0100
0000
1001
0000
0010
0000
0100
0000
0010
0000
0001
0000
1000
0000
0101
0000
0000
1010
0000
0000
,
1001
0000
0000
0000
0000
0000
0001
0010
0100
1000
0001
0010
0110
0000
0000
0000
,
2001
0000
3020
0132
,
0000
2003
0000
3021
,
0000
0030
0002
2103
,
0000
0000
0000
3021
0000
0000
0000
0000
0000
1031
0100
0010
,
1000
0001
0010
0100
1000
0100
0010
0001
0100
0011
1000
0001
,
0100
0001
0010
0101
1000
0100
0010
0001
1000
0011
0100
0001
,
0010
0001
0100
0010
1000
0100
0010
0100
1000
0011
0100
0010
,
1000
0000
0001
0000
0010
0000
1001
0000
0100
0000
0010
0000
0100
0000
1000
0000
0001
0000
1010
0000
0000
0101
0000
0000
,
1001
0000
0200
0000
,
0311
0100
1000
0010
0100
0001
0010
0100
1001
0010
0001
0100
0010
1000
0100
0001
,
1010
0001
0100
1000
0010
0100
0001
0010
1001
0100
1000
0010
0100
0001
1000
0100
,
0011
1000
0001
1000
0001
1000
0001
1000
0001
1000
0001
1000
0001
1000
0001
1000
,
0101
0010
0001
0010
0001
0010
0001
0010
0001
0010
0001
0010
0001
0010
0001
0010
,
1001
0100
1000
0100
1000
0100
1000
0100
1000
0100
1000
0100
1000
0100
1000
0100
,
1010
0000
0000
0000
0000
0000
0000
0000
0000
0000
0000
0000
0000
0000
0000
0000
0100
0000
0000
0000
0000
0000
0000
0000
0000
0000
0000
0000
0000
0000
0000
0000
0001
0000
0000
0000
0000
0000
0000
0000
0000
0000
0000
0000
0000
0000
0000
0000
2000
0000
0000
0000
0000
0000
0000
0000
0000
0000
0000
0000
0000
0000
0000
0000
0000
0000
0000
0000
0000
0000
0000
0000
3100
0000
0000
0000
0000
0000
0000
0000
0000
0000
0000
0000
0010
0000
0000
0000
0000
0000
0000
0000
0000
0000
0000
0000
0002
0000
0000
0003
0000
0000
0000
0000
0000
0000
0000
0000
0000
0000
0000
0000
0000
0000
0000
0000
0000
0000
0000
0000
0000
0000
0000
0000
0000
0000
0000
0000
0000
0000
0000
0000
0000
0000
0000
0000
0000
0000
0000
0000
0000
0000
0000
0000
0010
0000
0000
0000
0000
0000
0000
0000
0000
0000
0000
0000
0000
0000
0000
0000
1000
0000
0000
0000
0000
0000
0000
0000
0000
0000
0000
0000
0000
0000
0000
0000
0100
0000
0000
0000
0000
0000
0000
0000
0000
0000
0000
0000
0000
0000
0000
0000
,
1001
1M00
1100
M1M0
0110
M1M0
1100
1M0M
,
1001
1M0M
1010
M010
1M10
10M1
101M
10M1
,
M011
00M1
0101
010M
0110
01M0
0101
0MM1
,
0M11
0000
00M1
0000
01M1
0000
01MM
0000
0101
0000
011M
0000
01M1
0000
011M
1001
,
0110
010M
0101
MM01
1001
MM01
0101
01MM
,
0110
01MM
1100
1M00
110M
M110
11M0
M110
,
1M10
M010
0011
00M1
1001
M001
0011
M01M
,
101M
0000
M010
0000
M011
0000
M0M1
0000
0011
0000
10M1
0000
M011
0000
10M1
0110
,
1001
0010
0100
0001
1000
0100
0010
0001
1100
1000
1000
0100
0011
0010
0010
0100
,
1001
0001
0001
1000
1000
1000
0100
0100
0011
0010
0010
0010
1001
0001
0001
0001
,
0110
0010
0010
0010
0000
1000
0001
0001
1010
1000
1000
1000
0101
0100
0100
0100
,
1010
0010
0010
1001
1000
1000
1010
0010
0011
0001
0001
1001
0110
0000
0000
0000
,
0011
0000
1100
0000
1001
0100
0010
1001
,
0010
0001
1001
0010
1100
0010
0001
0110
,
1000
0001
0101
0010
1001
0010
0100
1000
,
0110
1000
0001
0100
1010
0100
0001
0010
,
1001
0000
0010
0000
0100
0000
1000
0000
0110
0000
1000
0001
0100
0010
1001
0000
,
0000
0000
0001
0000
0010
0000
1000
0000
0011
0000
1000
0100
0010
0001
0110
0000
,
0000
0001
1000
0010
1001
0010
0100
1001
,
0100
1000
1001
0100
0011
0100
1000
0110
,
0001
1000
1010
0100
1001
0100
0010
0001
,
0110
0001
1000
0010
0101
0010
1000
0100
,
1001
0000
0100
0000
0010
0000
0001
0000
0110
0000
0001
1000
0010
0100
1001
0000
,
0000
0000
1000
0000
0100
0000
0001
0000
1100
0000
0001
0010
0100
1000
0110
0000
,
0000
1000
0001
0010
1001
0010
0100
1100
,
0010
0001
0110
1000
0101
0010
0001
1100
,
0010
1000
0101
0010
1002
1000
1000
1000
,
1000
1003
2001
3010
0201
0001
0001
0001
,
0001
0001
0301
0010
1200
1300
0101
0010
,
1100
1100
1010
0001
1000
0100
0100
0100
,
0100
0010
0001
1000
0001
0100
0001
0010
1001
0100
1000
0001
0100
0010
0101
0010
,
1000
0001
0100
0001
1010
0100
0010
0001
1100
0001
0010
0100
1000
0001
0110
1000
,
0001
0100
0010
1000
0011
0100
1000
0010
1001
0100
0001
1000
0001
0100
0010
1000
,
0001
0010
0001
0100
1010
0001
1000
0010
0101
1000
0100
0010
0001
0010
0100
1000
,
0001
0100
0010
1000
0010
0100
1000
0010
1001
0100
0001
1000
0010
0100
1010
0001
,
0100
0001
1000
0010
1100
0001
1000
0001
0110
1000
0100
0010
0001
1000
0011
0100
,
1000
0010
0100
0010
1001
0100
0001
0100
1010
0001
0010
0001
0100
0010
1000
0001
,
0100
0010
1000
0001
0110
1000
0100
0010
0101
0010
0100
1000
0001
0100
0010
1000
,
0001
0010
0001
0100
0010
1000
0100
1000
0011
0100
0010
0001
1000
0010
1100
0001
,
0100
0010
1000
0001
0110
1000
0100
1000
0011
0100
1000
0001
0100
0010
1001
0100
,
0001
1000
0100
0010
1100
0001
0010
0100
1001
0010
0001
0100
0010
1000
0001
0010
,
0001
0100
0010
1000
0011
0100
1000
0001
1100
0010
0001
0100
0010
1000
0001
0010
,
0001
0100
0010
0100
1010
0001
0100
0010
0101
1000
0100
0010
0001
0100
1001
0010
,
0100
1000
0001
0100
0011
1000
0010
0001
1100
0010
0001
0100
0010
1000
0110
0001
,
1000
0100
0010
0100
0011
1000
0100
0010
1001
0010
0100
1000
0001
0100
0010
1000
,
0001
0010
0001
0100
0010
1000
0001
0100
2010
0000
0001
0000
0010
0000
0001
0000
,
3100
0000
0010
0100
1000
0010
0100
0001
0110
0000
0000
0000
2001
0000
0000
0000
,
0000
3020
0132
0000
,
2003
0000
3021
0000
,
0030
0002
2103
0000
,
3021
0000
0000
0000
0000
0000
1031
0100
0010
1000
0001
0010
,
0100
1000
0100
0010
0001
0100
0011
1000
0001
0100
0001
0010
,
0101
1000
0100
0010
0001
1000
0011
0100
0001
0010
0001
0100
,
0010
1000
0100
0010
0100
1000
0011
0100
0010
1000
0001
0010
,
1001
0000
0100
0000
0010
0000
0100
0000
1000
0000
0001
0000
1010
0000
0000
0101
0000
0000
1001
0000
0000
0000
0000
0000
,
0000
0000
1000
0100
0010
0001
1000
0100
0110
0000
0000
0000
1002
0000
0000
0000
,
0000
0203
2310
0000
,
3002
0000
1203
0000
,
0300
2000
3012
0000
,
1203
0000
0000
0000
0000
0000
1301
0010
0100
0001
1000
0100
,
0010
0001
0010
0100
1000
0010
1100
0001
1000
0010
1000
0100
,
1010
0001
0010
0100
1000
0001
1100
0010
1000
0100
1000
0010
,
0100
0001
0010
0100
0010
0001
1100
0010
0100
0001
1000
0100
,
1001
0000
0010
0000
0100
0000
0010
0000
0001
0000
1000
0000
0101
0000
0000
1010
0000
0000
1001
0000
0000
0000
0000
0000
,
0000
0000
0000
0000
0020
0000
0000
0000
0000
0000
0000
0000
1130
0010
0001
0100
,
0010
1000
0100
0010
1001
0100
1000
0010
0100
0001
0010
1000
0101
1000
0010
0001
,
0100
0010
1000
0100
1001
0010
0001
0100
0010
1000
0001
0010
1100
0001
1000
0001
,
1000
0001
1000
0001
1000
0001
1000
0001
1000
0001
1000
0001
1010
0100
1000
0100
,
1000
0100
1000
0100
1000
0100
1000
0100
1000
0100
1000
0100
1001
0010
0001
0010
,
0001
0000
0000
0010
0000
0000
0001
0000
0000
0010
0000
0000
0001
0000
0000
0010
0000
0000
0001
0000
0000
0010
0000
0000
0001
0000
0000
0010
0000
0000
0001
0000
0000
0010
0000
0000
0101
0000
0000
0000
0010
0000
0000
0000
1000
0000
0000
0000
,
0002
0000
0013
0100
2001
0000
0000
0000
0000
0000
0000
0000
3010
0000
0000
0000
,
0100
0000
0000
0010
0000
0000
1001
0000
0010
0000
0100
0000
0001
0000
1000
0000
0100
0000
1010
0000
0001
0000
0010
0000
,
0100
1000
0010
1100
0001
1000
0100
1000
0001
1010
0100
0010
,
0001
1000
0001
0110
0001
1000
0100
1000
0100
0011
0100
0010
,
0001
1000
0010
1100
0001
0100
0010
1000
0100
1001
0010
0100
,
0011
0000
0110
0000
1001
1000
0010
0100
0001
1000
0100
0010
0001
0010
0100
1000
,
0010
0100
0001
1000
0100
1000
0001
0100
0001
0010
0100
0010
0001
1000
0010
0100
,
0001
0000
0000
1000
0000
0000
0100
0000
0000
1000
0000
0000
0001
0000
0000
0100
0000
0000
0001
0000
0000
0010
0000
0000
0100
0000
0000
1000
0000
0000
0001
0000
0000
0100
0000
0000
0010
0000
0000
0000
1000
0000
0000
0000
0100
0000
0000
0000
,
0002
0000
0000
0103
1000
0010
0100
0001
1000
0200
0000
0000
,
1000
0000
0000
0310
0001
2000
0000
0000
3000
1001
0100
0010
,
1000
0001
0010
0101
1000
0100
0010
0001
0100
0011
1000
0001
,
0010
0001
1000
0101
0010
0100
1000
0001
1000
0110
1000
0001
,
0010
0001
0010
1100
0010
0100
1000
0001
0100
0011
1000
0010
,
0100
0000
0000
0000
0001
0000
0000
0000
0010
0000
0000
0000
1001
0000
0000
0000
0100
0000
0000
0000
0010
0000
0000
0000
1100
0000
0000
0000
0000
0000
0110
0000
0000
0000
0000
0000
1001
0000
0000
0001
0000
0000
0100
0000
0000
0010
0000
0000
,
1000
0001
0010
0100
1000
0100
0010
0001
0100
0010
1000
0001
0010
0001
1000
0010
,
1000
0100
0010
0100
1000
0001
0100
0010
1000
0001
0010
0001
1000
0010
1000
0100
,
0010
0000
0000
0001
0000
0000
1000
0000
0000
0010
0000
0000
0100
0000
0000
0000
0001
0000
0000
0000
0010
0000
0000
0000
2000
0000
0000
0000
0000
0000
0000
0000
0000
0000
0000
0000
3010
0000
0000
0000
0001
0000
0000
0000
0100
0000
0000
0000
,
0010
1000
0001
0020
0000
0000
0001
0000
0000
0130
1000
0002
,
0000
0000
0000
0000
0000
0000
0000
0000
0003
0000
0000
0000
0010
0000
0000
0100
0000
0000
1000
0000
0000
0001
0000
0000
0010
0000
0000
0100
0000
0000
1000
0000
0000
0001
0000
0000
0010
0000
0000
0100
0000
0000
1000
0000
0000
0001
0000
0000
,
0010
0100
1000
0001
1000
0010
0100
0001
1000
0010
0100
0001
1000
0010
0100
0001
,
1000
0100
1000
0100
0010
0001
1000
0100
0010
0001
1000
0100
0010
0001
1000
0100
,
0010
0001
1000
0100
0010
0001
1000
0001
0100
0010
1000
0001
1000
0010
0100
0001
,
1000
0100
0010
0001
2001
0000
0010
0000
3100
0000
0012
0000
1000
0000
0213
0000
,
0001
2310
3102
0010
1000
0103
2001
0010
,
0100
0000
0001
0000
3110
0000
0000
1010
0000
0000
0101
0000
1001
0000
0000
0110
,
0000
0000
0011
0000
1100
0000
0000
1001
0000
0000
1010
0000
0101
0010
0100
1000
,
0001
0000
0000
1000
0000
0000
0001
0000
0000
0100
0000
0000
1010
0000
0000
0000
0110
0000
0000
0000
0000
0000
0000
0000
0110
0000
0000
0000
1010
0000
0000
0000
0000
0000
0000
0000
1010
0000
0000
0000
0110
0000
0000
0000
0000
0000
0000
0000
,
0110
1010
0100
1002
0000
1013
0110
0000
0110
1010
0000
1010
,
0110
0000
0110
1010
0100
1002
0000
2003
0100
3010
0001
0010
,
0100
2000
0001
3200
0010
1300
0100
0020
0001
1030
0100
2000
,
0010
3100
0001
1000
0100
0020
0032
0203
0000
0000
0000
0300
,
0010
1000
0010
1000
0010
1000
0101
0000
0110
0000
0000
0000
0110
0000
0101
0000
0000
0000
0101
0000
0110
0000
0000
0000
,
0110
0101
0010
2001
0000
3101
0110
0000
0110
0101
0000
0101
,
0110
0000
0000
0000
0000
0000
0000
0000
0110
0000
0000
0000
0101
0000
0000
0000
0000
0000
0010
0000
0000
0000
0000
0000
2001
0000
0000
0000
0000
0000
0000
0000
0000
0000
0000
0000
3100
0000
0000
0010
0000
0000
0001
0000
0000
1000
0000
0000
,
0100
0010
0001
1000
0100
0010
0001
1000
0101
0010
0100
1000
0011
0100
0001
1000
,
0010
0100
0001
1000
0011
0100
0001
1000
0010
0100
0001
1000
0101
0010
0001
1000
,
0010
0100
0001
1000
0100
0010
0001
1000
0011
0100
0001
1000
0101
0010
0001
0010
,
0100
1000
0001
1000
0010
0100
0001
1000
0100
0010
0001
0010
1001
0000
0000
0000
,
0120
0000
0032
1203
,
0000
0320
0000
0132
,
0000
0003
0200
1320
,
0000
0000
0000
0132
0000
0000
0000
0000
0000
0113
1000
0001
,
0010
0100
0001
1000
0010
1000
0001
0100
1000
0101
0010
0100
,
1000
0100
0001
1100
0010
1000
0001
0100
0010
0101
1000
0100
,
0001
0100
1000
0001
0010
1000
0001
1000
0010
0101
1000
0001
,
0010
0000
0100
0000
0001
0000
0110
0000
1000
0000
0001
0000
1000
0000
0010
0000
0100
0000
0011
0000
0000
1100
0000
0000
,
0110
0000
0000
0000
0000
0000
0010
1000
0001
0100
0010
1000
1001
0000
0000
0000
,
0210
0000
2300
3021
,
0000
0230
0000
2310
,
0000
3000
0020
0231
,
0000
0000
0000
2310
0000
0000
0000
0000
0000
3110
0001
1000
,
0100
0010
1000
0001
0100
0001
1000
0010
0001
1010
0100
0010
,
0001
0010
1000
0011
0100
0001
1000
0010
0100
1010
0001
0010
,
1000
0010
0001
1000
0100
0001
1000
0001
0100
1010
0001
1000
,
0100
0000
0010
0000
1000
0000
0110
0000
0001
0000
1000
0000
0001
0000
0100
0000
0010
0000
1100
0000
0000
0011
0000
0000
,
0110
0000
0000
0000
0000
0000
0000
0000
0000
0000
0000
0000
0001
0000
0000
0010
0000
0000
0100
0000
0000
1000
0000
0000
0001
0000
0000
0000
0100
0000
0000
0000
0010
0000
0000
0000
1000
0000
0000
0000
0100
0000
0000
0000
1000
0000
0000
0000
,
0010
0100
0001
0010
0100
1000
0001
0100
0010
1000
0100
1000
,
0010
0000
0000
0000
0100
0000
0000
0000
0001
0000
0000
0000
0010
0000
0000
0000
0100
0000
0000
0000
1000
0000
0000
0000
0100
0000
0000
0010
0000
0000
0001
0000
0000
1000
0000
0000
0100
0000
0000
0010
0000
0000
0001
0000
0000
1000
0000
0000
,
0100
0010
0001
1000
0100
0010
0001
1000
0011
0100
0001
1000
0010
0100
0001
1000
,
0010
0100
0001
1000
0010
0100
0001
1000
0101
0010
0100
1000
0001
0010
0100
1000
,
0001
0000
0000
0010
0000
0000
0100
0000
0000
1000
0000
0000
0001
0000
0000
0010
0000
0000
0100
0000
0000
1000
0000
0000
0101
0000
0000
0000
1000
0000
0000
0000
0010
0000
0000
0000
0100
0000
0000
0000
0000
0000
1000
0000
0000
0001
0000
0000
,
0020
0000
0000
0000
0000
0000
0000
0000
0000
0000
0000
0000
0130
1000
0001
0100
,
2002
3003
0000
0000
0000
0000
0000
0000
;
