#TITLE:[5-Boss] Eye For An Eye;
#SUBTITLE:;
#ARTIST:The Berzerker;
#TITLETRANSLIT:;
#SUBTITLETRANSLIT:;
#ARTISTTRANSLIT:;
#CREDIT:;
#BANNER:../Beast 4 - bn.png;
#BACKGROUND:../Beast 4 - bg.png;
#LYRICSPATH:;
#CDTITLE:;
#MUSIC:Eye For An Eye.ogg;
#OFFSET:0.010;
#SAMPLESTART:92.728;
#SAMPLELENGTH:20.100;
#SELECTABLE:YES;
#DISPLAYBPM:255.000;
#BPMS:0.000=255.000,364.000=135.000,404.000=255.000;
#STOPS:;
#BGCHANGES:;
// cache tags:
#FIRSTBEAT:28.000;
#LASTBEAT:539.500;
#SONGFILENAME:Songs/Beast Aoreo BEAST! 4/Eye For An Eye - [Aoreo]/Eye For An Eye.sm;
#HASMUSIC:1;
#HASBANNER:1;
#MUSICLENGTH:136.319;
// end cache tags

//---------------dance-single - J. Nero----------------
#NOTES:
     dance-single:
     J. Nero:
     Challenge:
     18:
     1.000,1.000,0.007,0.081,1.000,1236.000,1.000,11.000,0.000,0.000:
0000
0000
0000
0000
,
0000
0000
0000
0000
,
0000
0000
0000
0000
,
0000
0000
0000
0000
,
0000
0000
0000
0000
,
0000
0000
0000
0000
,
0000
0000
0000
0000
,
2002
3003
0000
0000
,
0000
0000
0000
0000
,
0000
0000
0000
0000
,
0000
0000
0000
0000
,
0001
0100
0001
0010
0100
1000
0010
0100
,
0001
1000
0100
0010
0001
1000
0010
0100
,
0010
1000
0001
0010
0100
1000
0001
0100
,
0010
0100
0001
1000
0100
0010
0001
1000
,
0010
0100
0000
0010
1000
0001
0000
1000
,
0100
0000
0010
0000
0000
0000
0100
0000
1000
0000
0010
0000
0100
0010
0100
0001
,
1000
0100
0000
1000
0001
0100
0000
0001
,
0010
0000
0100
0000
1000
0000
0010
0000
0100
0001
1000
0001
0010
0100
1000
0001
,
0100
0010
0100
0001
0010
0100
1000
0001
,
0100
0000
0010
0000
1000
0000
0100
0000
1000
0000
0001
0000
0100
0000
0010
1000
,
0010
0100
0001
0010
0100
1000
0001
0100
,
0001
1000
0001
0100
0010
0100
0001
1000
0100
0010
0100
1000
0001
0100
0010
0100
,
0001
1000
0000
0001
0100
0010
0000
1000
,
0100
0010
0000
0100
1000
0001
0000
0100
,
0010
1000
0000
0001
0010
0100
0000
1000
,
0001
0100
0000
0010
1000
0100
0000
0010
,
0001
1000
0000
0001
0010
0100
0000
1000
,
0010
0100
0000
0001
0100
0010
0000
1000
,
0100
0010
0000
0100
1000
0001
0000
0100
,
0010
1000
0000
0001
0010
0100
0000
1000
,
0001
0100
0010
0100
0001
1000
0010
0100
,
0010
1000
0100
0010
0100
1000
0001
0100
,
0001
0100
0001
1000
0100
1000
0001
0010
0100
1000
0001
0100
0010
0100
0001
1000
,
0001
1000
0100
0010
0001
1000
0100
0010
,
0100
1000
0010
0100
0001
1000
0001
0010
,
0100
1000
0010
0100
0001
1000
0100
1000
,
0001
0100
0001
1000
0010
0100
0010
1000
0001
0010
0100
1000
0001
0100
0001
1000
,
0010
0100
0010
1000
0100
0010
0001
1000
,
0001
0100
0010
0100
0001
1000
0100
0010
,
0100
1000
0010
0100
0001
1000
0001
0100
,
0001
1000
0100
0010
0001
1000
0100
1000
0001
0100
0010
0100
0001
1000
0001
0100
,
0010
1000
0100
0010
0100
1000
0010
0100
,
0001
0010
0100
1000
0010
0100
0001
1000
,
0100
0010
0001
1000
0100
1000
0010
0100
,
0001
0100
0001
1000
0010
0100
0010
1000
0001
0010
0100
1000
0001
0100
0001
1000
,
0001
0000
0000
0000
,
1000
0100
0010
0100
1000
0010
0100
0010
,
1000
0001
0010
0100
1000
0001
0100
0010
,
1000
0010
0100
0010
1000
0001
0100
0001
1000
0100
0010
0001
1000
0010
0100
0010
,
1000
0100
0010
0100
1000
0010
0100
0001
,
1000
0001
0010
0100
1000
0010
0100
0010
,
1000
0100
0010
0001
1000
0001
0100
0010
,
1000
0010
1000
0001
0100
0001
1000
0100
0010
0100
1000
0001
0100
0010
0100
0001
,
1000
0000
0000
0000
,
0001
0100
0010
0100
0001
1000
0001
0010
,
0100
1000
0010
0100
0010
1000
0100
0010
,
0001
1000
0100
1000
0010
0100
0010
1000
,
0001
0010
0100
1000
0001
0100
0010
0100
,
0002
0003
0000
1000
0010
0100
0010
0000
,
2000
3000
0000
0001
0010
0100
0010
0000
,
0002
0003
0000
1000
0100
0010
0001
0000
,
0200
0300
0001
1000
0010
0000
1000
0000
,
0100
0010
0000
0001
1000
0010
0000
0100
,
0001
0000
0010
0000
0000
0000
0100
0000
1000
0000
0001
0000
0100
0001
0100
0010
,
1000
0010
0000
0100
0001
0010
0000
0100
,
1000
0000
0010
0000
0000
0000
0100
0000
0001
1000
0001
0010
0100
1000
0001
0100
,
0010
0100
0001
0010
0001
1000
0100
0010
,
0001
1000
0010
0100
0010
1000
0001
0010
,
0100
1000
0010
0100
0001
1000
0100
0010
,
0001
1000
0001
0100
0010
0100
0001
1000
0001
0010
0100
1000
0001
0100
0010
0100
,
0001
1000
0100
0010
0100
1000
0010
0100
,
0001
1000
0100
0010
0001
1000
0010
0100
,
0001
1000
0100
1000
0001
0100
0010
0100
0001
1000
0100
0010
0001
1000
0100
1000
,
0001
0100
0001
1000
,
0001
0100
0000
0001
0010
0100
0000
1000
,
0010
0100
0000
0001
1000
0100
0000
1000
,
0010
0100
0000
0001
0010
0100
0000
1000
,
0010
0100
0000
0001
1000
0100
0000
0010
,
0001
1000
0010
0100
0010
1000
0100
0010
,
0100
1000
0010
0100
0001
1000
0100
0010
,
0001
1000
0001
0100
0010
0100
0001
1000
0001
0010
0100
1000
0001
0100
0010
0100
,
0001
1000
0100
1000
0001
0100
0010
0100
,
0001
0010
0100
1000
0010
0100
0001
1000
,
0100
0010
0100
1000
0001
0100
0010
0100
,
0001
1000
0001
0010
0100
1000
0001
0100
0010
0100
0001
1000
0100
0010
0001
1000
,
0001
0100
0001
1000
,
0100
1000
0010
0100
0010
1000
0100
0010
,
0001
1000
0010
0100
0010
1000
0001
0010
,
0001
1000
0010
0100
0010
1000
0001
0010
0001
1000
0100
0010
0001
1000
0010
0100
,
0001
1000
0100
0010
0100
1000
0010
0100
,
0001
0000
0000
1000
0100
0010
0001
0000
0000
1000
0010
0100
0001
0000
0000
0100
0010
0100
0001
0000
0000
1000
0100
0010
,
0100
0000
1000
0100
1000
0010
0100
0001
1000
0001
0010
0100
1000
0010
0100
0001
1000
0001
0100
0010
0100
0001
1000
0001
,
0100
0001
0010
0100
1000
0010
0100
0001
1000
0100
0010
0100
,
1000
0010
0100
0001
1000
0001
0010
0100
1000
0001
0100
0001
,
1000
0010
0100
0010
1000
0001
1000
0100
0010
0100
1000
0010
,
0100
0001
1000
0001
0010
0100
1000
0001
0100
0010
0100
0001
,
1000
0100
0010
0001
1000
0100
1000
0001
0100
0010
0100
0001
,
1000
0001
0010
0100
1000
0010
0100
0010
1000
0100
0010
0001
,
1000
0001
0100
0010
0100
0001
1000
0001
0010
0100
1000
0010
,
0100
0000
0000
0001
0000
0000
1000
0100
0010
0100
1000
0001
1000
0000
0000
0001
0000
0000
1000
0000
0100
0000
0010
0000
,
0001
0000
0001
0000
,
0001
0000
0001
1000
,
0001
0100
0010
0100
0001
1000
0100
0010
,
0100
1000
0001
0100
0010
0100
0001
1000
,
0100
0010
0100
1000
0001
0100
0010
0100
,
0001
1000
0100
0010
0001
1000
0010
0100
,
0001
0100
0001
1000
0010
0100
0010
1000
0001
0100
0001
1000
0100
0010
0100
1000
,
0001
0010
0100
1000
0001
0100
0001
1000
0001
1000
0010
0100
0010
1000
0001
0100
,
0001
1000
0100
1000
0001
0010
0100
0010
0001
1000
0100
0010
0001
1000
0100
1000
,
0001
0100
0010
0100
0001
1000
0001
0100
0010
0100
0001
1000
0010
1000
0001
0100
,
0001
1000
0100
1000
0010
0100
0001
0010
,
0100
1000
0010
0100
0001
1000
0100
0010
,
0100
1000
0010
0100
0001
1000
0001
0010
,
0100
1000
0010
0100
0001
1000
0010
0100
,
0001
1000
0001
0100
0010
0100
0001
1000
0001
0100
0010
0100
0001
1000
0100
0010
,
0100
1000
0001
1000
0100
0010
0001
1000
0001
0100
0010
0100
0001
1000
0001
0100
,
0010
0100
0001
1000
0001
0100
0001
1000
0100
0010
0001
1000
0100
1000
0001
0100
,
0002
0000
0000
0003
,
1000
0001
0100
0010
0100
0001
1000
0010
1000
0001
0100
0001
1000
0100
1000
0001
,
0010
0100
1000
0001
1000
0010
0100
0010
1000
0001
0100
0001
1000
0010
0100
0010
,
1000
0001
0010
0100
1000
0001
0010
0001
1000
0100
0010
0100
1000
0001
1000
0010
,
0100
0010
1000
0001
0100
0001
1000
0010
1000
0001
0010
0100
1000
0001
0010
0001
,
1000
0100
1000
0001
0100
0010
0100
0001
1000
0001
1000
0100
0010
0100
1000
0001
,
0010
0001
1000
0010
0100
0001
1000
0001
0100
0010
0100
0001
1000
0100
1000
0001
,
0010
0100
1000
0001
0100
0001
1000
0100
0010
0100
1000
0001
0100
0001
1000
0100
,
0010
0001
1000
0100
1000
0001
0100
0001
1000
0000
0000
0000
0000
0000
0000
0000
,
0001
0100
0001
1000
0010
0100
0010
1000
0001
1000
0010
0100
0001
1000
0100
1000
,
0001
0010
0100
0010
0001
1000
0001
0100
0010
0100
0001
1000
0010
0100
0001
1000
,
0100
1000
0001
0010
0100
0010
0001
1000
0100
1000
0001
0100
0010
0100
0001
1000
,
0001
0100
0010
1000
0001
1000
0010
0100
0010
1000
0001
0010
0001
1000
0100
0010
,
0100
1000
0001
0100
0001
1000
0100
1000
0001
0100
0010
0100
0001
1000
0001
0100
,
0010
0100
0001
1000
0010
0100
0001
1000
0100
1000
0001
0010
0100
1000
0001
0010
,
0001
1000
0100
1000
0001
0100
0010
1000
0001
1000
0010
0100
0001
1000
0001
0100
,
0002
0003
2000
3000
0020
0030
0200
0300
;

//---------------dance-single - J. Nero----------------
#NOTES:
     dance-single:
     J. Nero:
     Hard:
     16:
     1.000,1.000,0.007,0.081,1.000,1172.000,1.000,11.000,0.000,0.000:
0000
0000
0000
0000
,
0000
0000
0000
0000
,
0000
0000
0000
0000
,
0000
0000
0000
0000
,
0000
0000
0000
0000
,
0000
0000
0000
0000
,
0000
0000
0000
0000
,
2002
3003
0000
0000
,
0000
0000
0000
0000
,
0000
0000
0000
0000
,
0000
0000
0000
0000
,
0001
0100
0001
0010
0100
1000
0010
0100
,
0001
1000
0100
0010
0001
1000
0010
0100
,
0010
1000
0001
0010
0100
1000
0001
0100
,
0010
0100
0001
1000
0100
0010
0001
1000
,
0010
0100
0000
0010
1000
0001
0000
1000
,
0100
0000
0010
0000
0000
0000
0100
0000
1000
0000
0010
0000
0100
0010
0100
0001
,
1000
0100
0000
1000
0001
0100
0000
0001
,
0010
0000
0100
0000
1000
0000
0010
0000
0100
0001
1000
0001
0010
0100
1000
0001
,
0100
0010
0100
0001
0010
0100
1000
0001
,
0100
0000
0010
0000
1000
0000
0100
0000
1000
0000
0001
0000
0100
0000
0010
1000
,
0010
0100
0001
0010
0100
1000
0001
0100
,
0001
1000
0001
0100
0010
0100
0001
1000
0100
0010
0100
1000
0001
0100
0010
0100
,
0001
1000
0000
0001
0100
0010
0000
1000
,
0100
0010
0000
0100
1000
0001
0000
0100
,
0010
1000
0000
0001
0010
0100
0000
1000
,
0001
0100
0000
0010
1000
0100
0000
0010
,
0001
1000
0000
0001
0010
0100
0000
1000
,
0010
0100
0000
0001
0100
0010
0000
1000
,
0100
0010
0000
0100
1000
0001
0000
0100
,
0010
1000
0000
0001
0010
0100
0000
1000
,
0001
0100
0010
0100
0001
1000
0010
0100
,
0010
1000
0100
0010
0100
1000
0001
0100
,
0001
0100
0001
1000
0100
1000
0001
0010
0100
1000
0001
0100
0010
0100
0001
1000
,
0001
1000
0100
0010
0001
1000
0100
0010
,
0100
1000
0010
0100
0001
1000
0001
0010
,
0100
1000
0010
0100
0001
1000
0100
1000
,
0001
0100
0001
1000
0010
0100
0010
1000
0001
0010
0100
1000
0001
0100
0001
1000
,
0010
0100
0010
1000
0100
0010
0001
1000
,
0001
0100
0010
0100
0001
1000
0100
0010
,
0100
1000
0010
0100
0001
1000
0001
0100
,
0001
1000
0100
0010
0001
1000
0100
1000
0001
0100
0010
0100
0001
1000
0001
0100
,
0010
1000
0100
0010
0100
1000
0010
0100
,
0001
0010
0100
1000
0010
0100
0001
1000
,
0100
0010
0001
1000
0100
1000
0010
0100
,
0001
0100
0001
1000
0010
0100
0010
1000
0001
0010
0100
1000
0001
0100
0001
1000
,
0001
0000
0000
0000
,
1000
0100
0010
0100
1000
0010
0100
0010
,
1000
0001
0010
0100
1000
0001
0100
0010
,
1000
0010
0100
0010
1000
0001
0100
0001
1000
0100
0010
0001
1000
0010
0100
0010
,
1000
0100
0010
0100
1000
0010
0100
0001
,
1000
0001
0010
0100
1000
0010
0100
0010
,
1000
0100
0010
0001
1000
0001
0100
0010
,
1000
0010
1000
0001
0100
0001
1000
0100
0010
0100
1000
0001
0100
0010
0100
0001
,
1000
0000
0000
0000
,
0001
0100
0010
0100
0001
1000
0001
0010
,
0100
1000
0010
0100
0010
1000
0100
0010
,
0001
1000
0100
1000
0010
0100
0010
1000
,
0001
0010
0100
1000
0001
0100
0010
0100
,
0002
0003
0000
1000
0010
0100
0010
0000
,
2000
3000
0000
0001
0010
0100
0010
0000
,
0002
0003
0000
1000
0100
0010
0001
0000
,
0200
0300
0001
1000
0010
0000
1000
0000
,
0100
0010
0000
0001
1000
0010
0000
0100
,
0001
0000
0010
0000
0000
0000
0100
0000
1000
0000
0001
0000
0100
0001
0100
0010
,
1000
0010
0000
0100
0001
0010
0000
0100
,
1000
0000
0010
0000
0000
0000
0100
0000
0001
1000
0001
0010
0100
1000
0001
0100
,
0010
0100
0001
0010
0001
1000
0100
0010
,
0001
1000
0010
0100
0010
1000
0001
0010
,
0100
1000
0010
0100
0001
1000
0100
0010
,
0001
1000
0001
0100
0010
0100
0001
1000
0001
0010
0100
1000
0001
0100
0010
0100
,
0001
1000
0100
0010
0100
1000
0010
0100
,
0001
1000
0100
0010
0001
1000
0010
0100
,
0001
1000
0100
1000
0001
0100
0010
0100
0001
1000
0100
0010
0001
1000
0100
1000
,
0001
0100
0001
1000
,
0001
0100
0000
0001
0010
0100
0000
1000
,
0010
0100
0000
0001
1000
0100
0000
1000
,
0010
0100
0000
0001
0010
0100
0000
1000
,
0010
0100
0000
0001
1000
0100
0000
0010
,
0001
1000
0010
0100
0010
1000
0100
0010
,
0100
1000
0010
0100
0001
1000
0100
0010
,
0001
1000
0001
0100
0010
0100
0001
1000
0001
0010
0100
1000
0001
0100
0010
0100
,
0001
1000
0100
1000
0001
0100
0010
0100
,
0001
0010
0100
1000
0010
0100
0001
1000
,
0100
0010
0100
1000
0001
0100
0010
0100
,
0001
1000
0001
0010
0100
1000
0001
0100
0010
0100
0001
1000
0100
0010
0001
1000
,
0001
0100
0001
1000
,
0100
1000
0010
0100
0010
1000
0100
0010
,
0001
1000
0010
0100
0010
1000
0001
0010
,
0001
1000
0010
0100
0010
1000
0001
0010
0001
1000
0100
0010
0001
1000
0010
0100
,
0001
1000
0100
0010
0100
1000
0010
0100
,
0001
0000
0000
1000
0100
0010
0001
0000
0000
1000
0010
0100
0001
0000
0000
0100
0010
0100
0001
0000
0000
1000
0100
0010
,
0100
0000
1000
0100
1000
0010
0100
0001
1000
0001
0010
0100
1000
0010
0100
0001
1000
0001
0100
0010
0100
0001
1000
0001
,
0100
0001
0010
0100
1000
0010
0100
0001
1000
0100
0010
0100
,
1000
0010
0100
0001
1000
0001
0010
0100
1000
0001
0100
0001
,
1000
0010
0100
0010
1000
0001
1000
0100
0010
0100
1000
0010
,
0100
0001
1000
0001
0010
0100
1000
0001
0100
0010
0100
0001
,
1000
0100
0010
0001
1000
0100
1000
0001
0100
0010
0100
0001
,
1000
0001
0010
0100
1000
0010
0100
0010
1000
0100
0010
0001
,
1000
0001
0100
0010
0100
0001
1000
0001
0010
0100
1000
0010
,
0100
0000
0000
0001
0000
0000
1000
0100
0010
0100
1000
0001
1000
0000
0000
0001
0000
0000
1000
0000
0100
0000
0010
0000
,
0001
0000
0001
0000
,
0001
0000
0001
1000
,
0001
0100
0010
0100
0001
1000
0100
0010
,
0100
1000
0001
0100
0010
0100
0001
1000
,
0100
0010
0100
1000
0001
0100
0010
0100
,
0001
1000
0100
0010
0001
1000
0010
0100
,
0001
0100
0001
1000
0010
0100
0010
1000
0001
0100
0001
1000
0100
0010
0100
1000
,
0001
0010
0100
1000
0001
0100
0001
1000
0001
1000
0010
0100
0010
1000
0001
0100
,
0001
1000
0100
1000
0001
0010
0100
0010
0001
1000
0100
0010
0001
1000
0100
1000
,
0001
0100
0010
0100
0001
1000
0001
0100
0010
0100
0001
1000
0010
1000
0001
0100
,
0001
1000
0100
1000
0010
0100
0001
0010
,
0100
1000
0010
0100
0001
1000
0100
0010
,
0100
1000
0010
0100
0001
1000
0001
0010
,
0100
1000
0010
0100
0001
1000
0010
0100
,
0001
1000
0001
0100
0010
0100
0001
1000
0001
0100
0010
0100
0001
1000
0100
0010
,
0100
1000
0001
1000
0100
0010
0001
1000
0001
0100
0010
0100
0001
1000
0001
0100
,
0010
0100
0001
1000
0001
0100
0001
1000
0100
0010
0001
1000
0100
1000
0001
0100
,
0002
0000
0000
0003
,
1000
0100
0010
0100
1000
0010
0100
0001
,
1000
0100
1000
0010
0100
0001
1000
0010
,
1000
0001
0100
0010
0100
0001
1000
0001
0010
0100
1000
0001
0100
0010
0100
0001
,
1000
0001
0100
0010
0100
0001
1000
0001
0010
0100
1000
0001
0100
0010
0100
0001
,
1000
0001
0100
0010
0100
0001
0010
0100
,
1000
0010
0100
0001
1000
0100
0010
0001
,
1000
0001
1000
0010
0100
0001
1000
0100
0010
0100
1000
0001
1000
0010
0100
0010
,
1000
0001
0010
0100
1000
0001
0100
0001
1000
0000
0000
0000
0000
0000
0000
0000
,
0001
0100
0010
0100
0001
0010
0100
1000
,
0010
0100
0001
1000
0100
0010
0001
0100
,
0001
1000
0001
0010
0100
0010
0001
1000
0100
1000
0001
0100
0010
0100
0001
1000
,
0001
0100
0010
1000
0001
1000
0010
0100
0010
1000
0001
0010
0001
1000
0100
0010
,
0001
1000
0100
0010
0100
1000
0010
0100
,
0001
1000
0001
0010
0100
1000
0010
0100
,
0001
1000
0100
1000
0001
0100
0010
1000
0001
1000
0010
0100
0001
1000
0001
0100
,
0002
0003
2000
3000
0020
0030
0200
0300
;
