#TITLE:Hardcore Vibes;
#SUBTITLE:;
#ARTIST:Rave Allstars feat. Nightcore;
#TITLETRANSLIT:;
#SUBTITLETRANSLIT:;
#ARTISTTRANSLIT:;
#CREDIT:;
#BANNER:BN.PNG;
#BACKGROUND:BG.PNG;
#LYRICSPATH:;
#CDTITLE:ov1_title.png;
#MUSIC:Nightcore - Hardcore Vibes.mp3;
#OFFSET:-5.400;
#SAMPLESTART:54.756;
#SAMPLELENGTH:29.999;
#SELECTABLE:YES;
#BPMS:0.000=179.740,71.500=188.740;
#STOPS:;
#BGCHANGES:;
// cache tags:
#FIRSTBEAT:32.000;
#LASTBEAT:448.000;
#SONGFILENAME:Songs/Owenviau1 Simfiles 4/Nightcore - Hardcore Vibes [owenviau1]/Nightcore - Hardcore Vibes.sm;
#HASMUSIC:1;
#HASBANNER:1;
#MUSICLENGTH:159.608;
// end cache tags

//---------------dance-single - ----------------
#NOTES:
     dance-single:
     :
     Challenge:
     11:
     0.989,1.000,1.000,0.113,0.417,763.000,324.000,18.000,0.000,1.000:

0000
0000
0000
0000
,
0000
0000
0000
0000
,
0000
0000
0000
0000
,
0000
0000
0000
0000
,
0000
0000
0000
0000
,
0000
0000
0000
0000
,
0000
0000
0000
0000
,
0000
0000
0000
0000
,
1000
0010
0101
0010
1000
0001
0110
1000
,
0001
0010
1100
0010
0100
1000
0101
0010
,
0100
1000
0110
0001
0010
0100
1001
0100
,
0010
0001
1100
0100
0001
1000
0011
0100
,
1000
0001
0110
1000
0001
0100
1001
0010
,
0100
1000
0101
0010
0001
1000
0011
0100
,
1000
0001
0110
1000
0001
0010
1001
0100
,
1000
0001
1100
0100
0010
0001
0110
1000
,
1002
0000
0000
0000
,
0000
0000
0000
0000
,
1013
1000
0110
0010
0101
0010
1001
0001
,
0110
0001
1100
0001
0110
1000
0011
0100
,
1001
0010
0101
0010
1001
1000
0101
0100
,
0011
0100
1001
0001
0110
1000
1100
0001
,
1010
1000
0101
0010
0011
1000
0110
0001
,
1001
0010
1100
0001
0110
1000
1001
0010
,
0101
1000
1001
0010
0110
0001
0011
1000
,
1100
0000
0001
0000
0110
0000
0100
0000
1001
0000
0010
0000
1000
0100
0010
0001
,
1010
1000
0110
0001
1001
0010
1100
0001
,
0110
1000
0011
0100
1001
0010
0110
0001
,
1001
0000
0110
0000
1010
0000
0101
0000
1001
0100
0010
0001
1000
0010
0100
0001
,
1000
0100
0010
0001
1000
0001
0100
0001
0010
0100
1000
0100
0010
0000
0001
0000
,
1001
0010
0101
1000
0110
0001
1010
0100
,
1001
0010
0011
1000
0110
0001
0011
1000
,
1100
0001
0011
0100
1001
0010
0110
0001
,
1001
0100
1010
0010
0101
0001
1010
0100
,
1001
0010
0110
1000
0011
0010
1100
0001
,
0101
0010
1001
1000
0110
0001
1010
0010
,
0101
1000
0011
0010
1100
0001
0110
1010
,
1001
0000
0000
0110
0000
0000
1001
0000
0101
0000
0000
0000
1100
0000
0110
0000
,
1001
0010
0110
1000
1001
0010
1100
0001
,
0011
1000
0101
0010
0110
1000
1010
0001
,
1001
0100
0101
0010
1100
0001
0110
1000
,
0011
0100
1001
0100
0011
1000
0110
0001
,
1100
0010
1001
0100
0110
0001
1100
0001
,
0110
1000
1001
0010
0101
1000
0011
0100
,
1001
0001
1010
0100
0011
0100
1001
0001
,
0110
1000
0101
0010
1100
0110
0011
0101
,
1001
0010
0110
1000
0011
0100
1001
0100
,
0011
1000
0110
0001
1100
0010
1001
0100
,
0110
0001
1100
0001
0110
1000
1001
0010
,
0101
1000
0011
0100
1001
0001
1010
0100
,
0011
0100
1001
0001
0110
1000
0101
0010
,
1100
0010
0011
0100
1001
0010
0110
1000
,
0101
0010
1100
0001
0011
0100
1010
1000
,
0110
0001
0101
0010
1001
0110
0101
1010
,
1001
0010
1100
0001
0110
1000
1001
0010
,
0101
1000
0110
0100
1001
0001
1010
1000
,
0110
0010
0101
0010
1001
0001
0110
1000
,
1010
0001
1100
0001
0110
0100
1001
0010
,
0101
1000
0011
0100
1001
0010
0110
1000
,
0011
0001
1100
0001
0110
0100
1001
0010
,
1100
0001
0110
1000
0011
0010
0101
0010
,
1001
0000
0001
0000
0110
0000
1000
0000
1010
0000
0001
0000
0110
0000
0001
0010
,
1001
1000
0101
0010
0110
1000
1001
0010
,
1100
0001
0110
1000
1001
0010
0101
0010
,
0011
1000
0110
0001
1100
0010
1001
0100
,
1010
0100
1001
0010
0110
1000
1001
0010
,
0101
0010
0011
1000
0110
0010
1100
0001
,
0110
1000
0101
0010
1001
0010
0101
1000
,
0010
0100
0001
1000
0010
1000
0001
0100
0001
1000
0100
0010
0001
0010
0100
1000
,
0010
1000
0100
0010
0001
0100
0001
1000
0100
0010
0001
0100
0010
1000
0100
0010
,
2001
0000
0000
0000
,
3200
0300
0020
0032
,
2003
0000
0000
0000
3000
0200
0000
0300
0020
0000
0032
0000
0003
0000
0020
0000
,
0230
0000
0000
0000
0300
0000
0000
0000
0000
0000
2000
0000
0000
3002
0000
0000
,
0203
0300
0000
0000
,
1001
0110
1100
1001
,
0101
0110
1100
1001
,
1010
1100
1010
1001
,
0101
0011
0110
1001
,
0011
0110
1100
0110
,
0011
1001
0110
1001
,
1010
1001
0110
0101
,
2002
0000
3003
0000
0010
0100
1000
0001
,
0100
0000
0010
1000
0000
0000
0100
0010
0001
0000
1000
0001
,
0100
0000
0100
0010
0000
0010
1000
0000
1000
0100
0000
0100
,
0010
0000
0010
0001
0000
0001
0100
0000
0100
0010
0000
0010
,
1000
0000
1000
0001
0000
0100
1000
0100
0010
0001
0000
1000
,
0001
0000
0001
0100
0000
0100
0010
0000
0010
1000
0000
1000
,
0001
0000
1000
0100
0010
0001
0100
0000
0010
1000
0000
1000
,
0001
0000
0001
0100
0000
0100
0010
0000
0010
1000
0000
1000
,
0100
0000
0010
0100
0000
0001
1000
0100
0010
0001
0000
1000
,
1100
0000
0100
0110
0000
0100
0101
0000
0001
1001
0000
0010
,
0110
0000
0100
1100
0000
0001
0011
0000
0100
0110
0000
1000
,
1001
0000
0010
1010
0000
0001
1001
0000
0100
0101
0000
0010
,
0110
0000
0001
0011
0000
0010
0110
0000
0100
1100
0000
0100
,
0110
0000
0010
0011
0000
0001
0101
0000
0100
0110
0000
0010
,
1010
0000
1000
1001
0000
0100
0110
0000
0001
1001
0000
0100
,
0101
0000
0010
0011
0000
1000
1001
0000
0100
0110
0000
1000
,
1100
0000
1000
0001
0000
0001
0100
0010
1000
0001
0000
1000
,
1001
0000
0010
0110
0000
0100
1100
0000
0001
0011
0000
0100
,
0110
0000
1000
1001
0000
0010
1010
0000
0001
1001
0000
0100
,
0101
0000
0010
0110
0000
0001
0011
0000
0010
0110
0000
0100
,
1100
0000
0100
0110
0000
0010
0011
0000
0001
0101
0000
0100
,
0110
0000
0010
1010
0000
1000
1001
0000
0100
0110
0000
0001
,
1001
0000
0100
0101
0000
0010
0011
0000
1000
1001
0000
0100
,
0110
0000
1000
1100
0000
0010
0110
0000
0100
0101
0000
0001
,
1001
0000
1000
1100
0000
0100
0110
0000
0010
0011
0000
1000
,
1001
0110
1010
0101
,
0110
1001
0101
1100
,
0011
0110
1100
0110
,
2002
0000
0000
0000
,
0000
0000
0000
0000
,
3003
0000
0000
0000
;

//---------------dance-single - ----------------
#NOTES:
     dance-single:
     :
     Hard:
     9:
     0.451,0.526,0.232,0.006,0.000,466.000,37.000,1.000,0.000,0.000:

0000
0000
0000
0000
,
0000
0000
0000
0000
,
0000
0000
0000
0000
,
0000
0000
0000
0000
,
0000
0000
0000
0000
,
0000
0000
0000
0000
,
0000
0000
0000
0000
,
0000
0000
0000
0000
,
1000
0000
0001
0000
0010
0100
1000
0000
,
0001
0000
0100
0000
0010
1000
0010
0000
,
0001
0000
0010
0000
0100
0000
1000
0001
,
1000
0000
0010
0000
1000
0001
0010
0100
,
1000
0000
0001
0000
0100
0001
0100
0000
,
0010
0000
1000
0100
0000
0000
1000
0000
,
0001
0100
0010
0000
1000
0000
0001
0000
,
0010
0100
1000
0000
0001
0000
0100
0010
,
1000
0000
0000
0000
,
0000
0000
0000
0000
,
1000
0000
0010
0000
0100
0001
0010
0000
,
0100
0000
1000
0000
0001
1000
0001
0000
,
0010
0000
0100
0000
1000
0010
1000
0000
,
0001
0000
0100
0000
0010
0100
0010
0000
,
1001
0000
0001
0000
1000
0100
1000
0000
,
0010
0000
0100
0000
0001
0100
0001
0000
,
1000
0100
1000
0000
0010
0100
0010
0000
,
1000
0000
0001
0000
0010
0100
1000
0000
,
0001
0100
0010
1000
,
0001
0000
0010
0000
0100
0000
1000
0100
,
1000
0001
0010
0100
1000
0001
0100
0010
,
1000
0100
0001
0010
0100
0000
1000
0000
,
0001
0000
0010
0000
0100
0000
1000
0001
,
1000
0000
0010
0100
0010
0000
1000
0100
,
1000
0000
0001
0010
0001
0000
0100
0000
,
0010
0000
1000
0000
0001
1000
0001
0010
,
0100
0000
1000
0001
0010
0000
0100
0000
,
1000
0000
0001
0100
0001
0000
0010
0000
,
0100
0000
1000
0001
1000
0000
0010
1000
,
0010
0000
0100
0000
0001
0000
0010
0100
,
1000
0000
0001
0100
0001
0000
0010
0000
,
0100
0000
1000
0010
1000
0000
0100
0010
,
0001
0000
1000
0001
0100
0000
0010
1000
,
0001
0010
0100
1000
,
0001
0000
0100
0001
0100
0000
0010
1000
,
0010
0000
0100
0001
0100
0000
0100
0001
,
0010
0000
0100
1000
0001
0000
0100
0000
,
0010
0000
1000
0000
0001
1000
0001
0010
,
0100
0000
1000
0010
1000
0000
0001
0000
,
0010
0000
0100
1000
0100
0000
0001
0100
,
0001
0000
1000
0010
1000
0000
0001
0000
,
1000
0000
0010
1000
0001
0100
0001
0100
,
0010
0000
1000
0100
1000
0000
0001
0000
,
0100
0000
0010
1000
0010
0000
0100
0001
,
0010
0000
0100
1000
0001
0000
0100
0010
,
1000
0000
0001
0000
1000
0001
1000
0001
,
0010
0100
1000
0001
,
0100
0010
1000
0000
1000
0001
0100
0000
,
0100
0010
1000
0000
0001
0000
0010
0000
,
0100
1000
0100
0000
0100
0010
0100
0000
,
0001
0100
0010
1000
,
1000
0001
1000
0000
0100
0010
0100
0000
,
0001
0000
0010
0000
0001
1000
0001
0000
,
0100
0010
0100
0000
0001
0000
1000
0000
,
0100
0000
0010
0000
0001
1000
0001
0000
,
0010
0000
0100
0000
1000
0010
1000
0000
,
0100
0000
0010
0000
0001
0100
0001
0000
,
0010
0000
0100
0000
1000
0010
1000
0000
,
0100
0000
0010
0000
0100
1000
0100
0000
,
0001
0000
0100
0000
1000
0010
1000
0000
,
0001
0000
0100
0000
0010
1000
0010
0000
,
1000
0100
0010
0001
1000
0100
1000
0100
,
0010
0000
0000
0000
,
0001
0010
0100
1000
,
0001
0000
0100
0000
,
0010
0000
1000
0000
,
0000
0000
0000
0000
,
1000
0001
0100
0010
,
1000
0100
1000
0100
,
0010
0001
0100
0010
,
1000
0001
0010
0100
,
1000
0001
0100
0010
,
1000
0100
1000
0001
,
0010
0001
0100
0010
,
1000
0000
0000
0000
,
0000
0000
0000
0000
,
0001
0010
0100
1000
,
0010
1000
0001
0010
,
0100
0010
0001
0100
,
1001
0010
0001
1000
,
0100
0010
0001
0100
,
0001
1000
0100
1000
,
0010
1000
0001
0010
,
1100
0100
0110
0010
,
0011
0001
1001
1000
,
1010
0010
0110
0100
,
0101
0001
1001
1001
,
1001
1010
0010
0110
,
0100
0101
0001
0011
,
0010
0110
0100
1100
,
1000
1001
0001
0101
,
0101
0110
0010
1010
,
1000
1100
0100
0110
,
0010
0011
0001
0101
,
0100
0110
0010
1010
,
1000
1100
0100
0110
,
0010
0011
0001
1001
,
1000
1010
0010
0110
,
0100
0101
0001
1001
,
0001
0010
0100
1000
,
0001
0100
0010
1000
,
0100
0010
0001
0100
,
0020
0000
0000
0000
,
0000
0000
0000
0000
,
0030
0000
0000
0000
;
