#TITLE:The Shadow Of Uther;
#SUBTITLE:The Fourth Legacy (2000);
#ARTIST:Kamelot;
#TITLETRANSLIT:;
#SUBTITLETRANSLIT:;
#ARTISTTRANSLIT:;
#CREDIT:SulferDragon;
#BANNER:The Shadow of Uther-banner.png;
#BACKGROUND:The Shadow of Uther-bg.png;
#LYRICSPATH:;
#CDTITLE:!SulferDragon.png;
#MUSIC:06.The Shadow Of Uther.mp3;
#OFFSET:0.181;
#SAMPLESTART:47.994;
#SAMPLELENGTH:14.400;
#SELECTABLE:YES;
#BPMS:0.000=170.000;
#STOPS:;
#BGCHANGES:;
// cache tags:
#FIRSTBEAT:1.000;
#LASTBEAT:589.000;
#SONGFILENAME:Songs/Astronomic Metal Collection 2/(SulferDragon) The Shadow Of Uther/06.The Shadow Of Uther.sm;
#HASMUSIC:1;
#HASBANNER:1;
#MUSICLENGTH:214.595;
// end cache tags

//---------------dance-single - ----------------
#NOTES:
     dance-single:
     :
     Hard:
     12:
     1.000,1.000,1.000,0.280,1.000,1234.000,408.000,60.000,0.000,2.000:
0000
0000
0000
0001
0001
0000
0001
0000
0001
1010
0000
0000
,
0000
0000
0000
0001
0001
0000
0001
0000
0001
1100
0000
0000
,
0000
0000
0000
0001
0001
0000
0001
0000
0001
0010
0000
0010
,
0000
0000
0010
0000
0000
0000
0010
0000
0100
0000
0000
0000
0100
0000
0000
0000
0100
1000
0010
0000
1000
0000
0010
0000
,
0100
0010
0100
0011
0001
0000
0001
0000
0001
1010
0000
0000
,
1000
0000
0100
0011
0001
0000
0001
0000
0001
1100
0000
0000
,
1000
0000
0100
0011
0001
0000
0001
0000
0001
1010
0000
0000
,
1000
0010
0100
0011
1000
0000
0001
0000
0010
1100
0001
0010
,
0100
1000
0000
0011
0001
0100
0001
0000
0001
1010
0000
0000
,
1000
0000
0100
0011
0001
0100
0001
0000
0001
1100
0000
0000
,
1000
0000
0000
0000
0000
0000
0000
0000
0100
0000
0000
0000
0011
0000
0000
0000
0001
0000
0000
0000
0100
0000
0000
0000
0001
0000
0000
0000
0000
0000
0000
0000
0001
0000
0000
0000
1100
0010
0000
0000
0000
0000
0000
0000
0101
0000
0000
0000
,
0000
0110
0000
1010
0101
1010
0101
0010
0100
1001
0110
1000
,
0010
0100
0001
1100
0010
0100
1001
0100
0010
0002
0000
0000
,
1000
0000
0003
0100
0010
0100
1001
0100
0010
0002
0000
0000
,
1000
0000
0003
0100
0010
0100
1001
0100
0010
0002
0000
0003
,
1200
0300
0000
0020
0000
0030
2100
3000
0000
0200
0000
0000
,
1000
0000
0300
0101
0010
0100
1001
0100
0010
0002
0000
0000
,
1000
0000
0003
0100
0010
0100
1001
0100
0010
0002
0000
0000
,
1000
0000
0003
0100
0010
0100
1001
0100
0010
0001
0000
0100
,
1000
0010
0000
1001
0000
0000
1000
0001
0100
0010
0000
1100
,
1100
0001
0100
1010
0000
1001
0010
1100
0000
1001
0000
0101
,
0010
1100
0000
1010
0000
0110
1000
0101
0000
0011
0000
0000
,
1000
0000
0000
1001
0000
0101
1000
0110
0000
1100
0000
0101
,
1000
0110
0000
1010
0000
0000
1000
0000
0000
1001
0000
0000
,
1000
0000
0000
0110
0000
1010
0001
1100
0000
1001
0000
0101
,
0010
1100
0000
1010
0000
0110
1000
0101
0000
0011
0000
0000
,
1000
0000
0000
1010
0000
1100
0001
1010
0000
0110
0000
0101
,
0010
1001
0000
0011
0000
0000
1000
0000
0000
0110
0000
0000
,
0101
0000
0000
1001
0000
1010
0001
0110
0000
0101
0000
0011
,
1100
0000
1001
0010
0000
0000
0011
0000
0000
0000
0101
0000
0010
0000
1100
0000
0000
0000
1010
0000
0000
0000
0000
0000
,
1000
0000
0000
1001
0000
1100
0001
1010
0000
1001
0000
0101
,
1000
0110
0000
1010
0000
0000
0101
0000
0000
0110
0000
0000
,
1001
0000
0000
0011
0100
0010
1001
0100
0010
0002
0000
0000
,
1000
0000
0003
0010
0100
0010
1001
0100
0010
0001
0000
0100
,
1000
0110
0000
1010
0000
1001
0010
0101
0000
1100
0000
1010
,
0001
0110
0000
0011
0000
0100
0001
0010
0000
1000
0011
0011
,
0011
0100
1000
0101
0001
0001
0001
0001
0001
1100
0100
0100
,
0100
0100
0100
1010
0010
0010
0010
0010
0010
1001
1000
1000
,
1000
1000
1000
0101
0001
0001
0001
0001
0001
1100
0100
0100
,
0100
0100
0100
0011
0010
0010
0010
0010
0010
0110
0010
0010
,
0010
0010
0010
0101
0001
0001
0001
0001
0001
1100
0100
0100
,
0100
0100
0100
0011
0010
0010
0010
0010
0010
1001
1000
1000
,
1000
1000
1000
0101
0001
0001
0001
0001
0001
1100
0100
0100
,
0100
0100
0100
0011
0100
0000
0010
0000
1000
0001
1000
0010
,
0100
0001
1000
0101
0010
0100
1001
0100
0010
0102
0000
0000
,
1000
0000
0003
0100
0010
0100
1001
0100
0010
0102
0000
0000
,
1000
0000
0003
0100
0010
0100
1001
0100
0010
0102
0000
0003
,
2100
3000
0000
0020
0000
0030
1200
0300
0000
0020
0000
0000
,
1000
0000
0030
1100
0010
0100
1001
0100
0010
0102
0000
0000
,
1000
0000
0003
0100
0010
0100
1001
0100
0010
0102
0000
0000
,
1000
0000
0003
0100
0010
0100
1001
0100
0010
0001
0000
0100
,
1000
0010
0000
1000
0000
0011
0011
1000
0001
0110
0001
0010
,
1100
0010
1001
0011
0000
1010
0001
0110
0000
1010
0000
1100
,
0001
0110
0000
0011
0000
0101
0010
1100
0000
1001
0000
0000
,
1000
0000
0000
1010
0000
1100
0010
0101
0000
0110
0000
1100
,
0010
0101
0000
0011
0000
0000
1000
0000
0000
1010
0000
0000
,
1000
0000
0000
0101
0000
0011
1000
0110
0000
1010
0000
1100
,
0001
0110
0000
0011
0000
0101
0010
1100
0000
1001
0000
0000
,
1000
0000
0000
0011
0000
0110
1000
0011
0000
0101
0000
1100
,
0001
1010
0000
1001
0000
0000
1000
0000
0000
0101
0000
0000
,
1100
0000
0000
1010
0000
0011
1000
0101
0000
1100
0000
1001
,
0100
1010
0000
1001
0000
1100
0001
0110
0000
0011
0000
0000
,
1000
0000
0000
1010
0000
0110
1000
0011
0000
1010
0000
1100
,
0010
0101
0000
1100
0000
0000
1001
0000
0000
0101
0000
0000
,
0011
0000
0000
1010
0100
0010
1001
0100
0010
0002
0000
0000
,
1000
0000
0003
0010
0100
0010
1001
0100
0010
0001
0100
0010
,
1001
0110
1000
0011
0000
1010
0001
1100
0000
0110
0000
0011
,
1000
0101
0000
1001
0000
0000
1000
0000
0000
0011
0011
0011
,
0011
0011
0011
1100
0100
0100
0100
0100
0100
1001
0001
0001
,
0001
0001
0001
1100
1000
1000
1000
1000
1000
0011
0010
0010
,
0010
0010
0010
0101
0100
0100
0100
0100
0100
1001
0001
0001
,
0001
0001
0001
1010
1000
1000
1000
1000
1000
1100
1000
1000
,
1000
1000
1000
0101
0100
0100
0100
0100
0100
1001
0001
0001
,
0001
0001
0001
1010
1000
1000
1000
1000
1000
0110
0010
0010
,
0010
0010
0010
0101
0100
0100
0100
0100
0100
1001
0001
0001
,
0001
0001
0001
1010
0100
0011
0100
1001
0100
0011
0000
0000
,
0011
0000
0000
1000
0000
0010
1000
0010
0000
0020
0000
0000
,
1000
0000
0030
0100
0000
0001
1000
0001
0000
0002
0000
0000
,
1000
0000
0000
0000
0003
0000
1000
0000
0000
0000
0100
0001
1010
0100
1000
0000
0000
0000
0011
0000
0000
0000
1000
0000
,
0100
0001
0000
1100
0000
0010
1000
0001
0000
2010
0000
0000
,
0001
0000
3000
1100
0000
0010
1000
0010
0000
0020
0000
0000
,
1000
0000
0030
0100
0000
1000
0010
0100
0000
0002
0000
0000
,
1000
0000
0000
0000
0003
0000
1100
0000
0000
0000
0100
0001
1010
0100
1000
0000
0000
0000
0010
0000
0000
0000
1100
0000
,
1100
1100
1100
1200
0000
0000
1000
0000
0000
0000
0000
0000
,
2310
0000
0000
0000
3000
0000
0100
0000
0000
0000
0010
0000
1000
0000
0001
0000
0000
0000
0100
0000
0000
0000
1000
0001
,
1100
0010
0001
0000
0000
0000
0102
0000
0000
0000
0000
0000
1000
0000
0000
0000
0000
0000
0000
0000
0000
0000
0000
0000
,
1203
0000
0000
0000
0300
0000
0011
0000
0000
0000
0010
0000
1000
0000
0100
0000
0000
0000
1010
0000
0000
0000
0001
1000
,
0011
0100
1000
0000
0000
0000
0101
0000
1000
0000
0100
0000
0011
0000
0010
0000
0010
0000
0100
0000
0010
0000
0100
0000
,
1010
0001
0010
0100
1000
0001
0100
0001
0001
0010
0100
1000
,
0210
0000
0300
1010
0000
0100
1000
0010
0000
0001
0000
1000
,
0010
0100
0000
1001
0000
0011
0011
1000
0001
0010
1100
1100
,
1100
1100
1100
1200
0300
0010
0101
1000
0100
0020
0030
0100
,
1001
0100
0010
0002
0003
0010
0101
1000
0100
0010
0000
0001
,
2100
0000
3000
0210
0300
0010
0101
1000
0100
0020
0030
0100
,
1001
0100
0010
0101
1000
0100
1010
0100
0010
0101
0010
0100
,
2010
0000
3000
1200
0300
0010
0101
1000
0100
0020
0030
0100
,
1001
0100
0010
0002
1003
0100
1010
0100
0010
0001
0000
0010
,
1000
0100
0000
2010
0000
0000
0001
0000
3000
0100
0000
0010
,
0100
0000
1000
0010
0100
0001
2100
0000
0000
0000
0000
0000
0010
0000
0000
0000
0000
0000
0000
0000
0000
0000
0000
0000
,
3000
1100
1100
0001
0000
0000
0001
0000
0001
1010
0000
0000
,
0000
0010
1000
0011
0001
0000
0001
0000
0001
1100
0000
0000
,
0000
0010
0100
0011
0001
0000
0001
0000
0001
1010
0000
0000
,
0000
0100
1000
0011
0001
0000
0001
0000
0001
1010
0001
1100
,
0010
0101
1000
0011
0100
0010
1000
0100
0010
0102
0000
0000
,
0000
1000
0103
0011
0100
0010
1000
0100
0010
0102
0000
0000
,
0000
0000
0000
0000
1000
0000
0000
0000
0103
0000
0000
0000
0011
0000
0000
0000
0100
0000
0000
0000
0010
0000
0000
0000
1000
0000
0000
0000
0100
0000
0000
0000
0010
0000
0000
0000
0101
1000
0000
0000
0000
0000
0000
0000
0011
0000
0000
0000
,
0000
1010
0000
1100
0001
0000
0010
0000
0001
1010
0000
1100
,
0000
0101
0000
0011
0001
0000
0001
0000
0001
2010
0000
0000
,
3000
0010
0100
0011
0001
0000
0001
0000
0001
2100
0000
0000
,
3000
0010
0100
0011
0001
0000
0001
0000
0001
1010
0000
0000
,
0000
0100
0010
1100
0000
0000
1000
0000
1000
0011
0000
0010
,
0000
0100
0000
0011
0001
0000
0001
0000
0001
1010
0000
0000
,
0000
0010
0100
0011
0001
0000
0001
0000
0001
1100
0000
0000
,
0000
0000
0000
0000
0010
0000
0000
0000
0100
0000
0000
0000
0011
0000
0000
0000
0001
0000
0000
0000
0000
0000
0000
0000
0001
0000
0000
0000
0000
0000
0000
0000
0001
0000
0000
0000
1100
0010
0000
0000
0000
0000
0000
0000
0101
0000
0000
0000
,
0000
1010
0000
0011
0011
0011
0100
0001
0010
1100
0010
1000
,
0001
1000
0010
1001
0000
0101
0010
1100
0000
0110
0000
0011
,
0100
1010
0000
0011
0000
1001
0100
1010
0000
1100
0000
0000
,
1000
0000
0000
0000
0000
1100
0001
0110
0000
0101
0000
0011
,
0100
1001
0000
1010
0000
0000
1001
0000
0000
0101
0000
0000
,
1100
0000
0000
0011
0100
0010
1001
0100
0010
0002
0000
0000
,
1000
0000
0000
0000
0003
0000
0010
0000
0100
0000
0010
0000
1001
0000
0100
0000
0010
0000
0001
0000
0000
0000
0100
0010
,
1100
0001
0110
0000
0000
0000
0101
0000
0000
0000
1100
0000
0010
0000
1001
0000
0000
0000
1010
0000
0000
0000
0110
0000
,
1000
0101
0000
0011
0000
0000
1000
0000
0000
0010
1000
0011
,
0011
0011
0011
1100
0100
0100
0100
0100
0100
1010
1000
1000
,
1000
1000
1000
0011
0010
0010
0010
0010
0010
0101
0001
0001
,
0001
0001
0001
0110
0100
0100
0100
0100
0100
1010
1000
1000
,
1000
1000
1000
0011
0010
0010
0010
0010
0010
1010
0010
0010
,
0010
0010
0010
0101
0100
0100
0100
0100
0100
1010
1000
1000
,
1000
1000
1000
0011
0010
0010
0010
0010
0010
0101
0001
0001
,
0001
0001
0001
0110
0100
0100
0100
0100
0100
1001
0001
0001
,
0001
0001
0001
1100
0010
1001
0010
1100
0010
0101
0000
0000
,
0101
0000
0000
1000
0000
0010
1000
0010
0000
0020
0000
0000
,
1000
0000
0030
0100
0000
0001
1000
0001
0000
0002
0000
0000
,
1000
0000
0000
0000
0003
0000
1000
0000
0000
0000
0100
0001
1010
0100
1000
0000
0000
0000
0011
0000
0000
0000
1000
0000
,
0100
0001
0000
1100
0000
0010
1000
0001
0000
2010
0000
0000
,
0001
0000
3000
1100
0000
0010
1000
0010
0000
0020
0000
0000
,
1000
0000
0030
0100
0000
1000
0010
0100
0000
0002
0000
0000
,
1000
0000
0000
0000
0003
0000
1000
0000
0000
0000
0100
0001
1010
0100
1000
0000
0000
0000
0010
0000
0000
0000
1000
0000
,
0100
0000
0000
0000
0000
0000
0000
0000
0000
0000
0000
0000
0000
0000
0000
0000
0001
0000
0000
0000
0000
0000
0000
0000
0000
0000
0000
0000
0000
0000
0000
0000
0000
0000
0000
0000
0000
0000
0000
0000
0000
0000
0000
0000
0000
0000
0000
0000
1200
0000
0000
0000
0000
0000
0000
0000
0000
0300
0000
0000
0000
0000
0000
0000
0002
0000
0000
0000
0000
0000
0000
0000
0000
0000
0000
0003
0000
0000
0000
0000
0020
0000
0000
0000
0000
0000
0000
0000
0000
0000
0000
0000
0000
0000
0000
0000
1000
0000
0000
0000
0000
0000
0000
0000
0000
0000
0000
0000
0000
0000
0000
0000
0000
0000
0000
0000
0000
0000
0000
0000
0000
0000
0000
0000
0000
0000
0000
0000
0000
0000
0000
0000
0000
0000
0000
0000
0000
0000
0000
0000
0000
0000
0000
0000
0030
0000
0000
0000
0000
0000
0000
0000
0000
0000
0000
0000
0000
0000
0000
0000
1100
0000
0000
0000
0000
0000
0000
0000
0000
0000
0000
0000
0000
0000
0000
0000
1100
0000
0000
0000
0000
0000
0000
0000
0000
0000
0000
0000
0000
0000
0000
0000
,
1100
1100
1100
1100
0000
0010
1000
0010
0000
0020
0000
0000
,
1000
0000
0030
0100
0000
0001
1000
0001
0000
0002
0000
0000
,
1000
0000
0000
0000
0003
0000
1100
0000
0000
0000
0100
0001
1010
0100
1000
0000
0000
0000
0010
0000
0000
0000
1000
0000
,
0100
0001
0000
0100
0000
0010
1000
0001
0000
2000
0000
0000
,
0001
0000
3000
1100
0000
0010
1000
0010
0000
0020
0000
0000
,
1000
0000
0030
0101
0000
1100
0010
0101
0000
0012
0000
0000
,
1000
0000
0000
0000
0003
0000
1000
0000
0000
0000
0100
0001
1010
0100
1000
0000
0000
0000
0010
0000
0000
0000
1000
0000
,
0110
0000
0000
0000
0000
0000
0000
0000
0000
0000
0000
0000
0000
0000
0000
0000
0001
0000
0000
0000
0000
0000
0000
0000
0000
0000
0000
0000
0000
0000
0000
0000
0000
0000
0000
0000
0000
0000
0000
0000
0000
0000
0000
0000
0000
0000
0000
0000
0010
0000
0000
0000
0000
0000
0000
0000
0000
0100
0000
0000
0000
0000
0000
0000
0000
0000
0000
0000
0000
0000
0000
0000
0010
0000
0000
0000
0000
0000
0000
0000
0000
0000
0000
0000
0100
0000
0000
0000
0000
0000
0000
0000
0000
0000
0000
0000
0000
0000
0000
0010
0000
0000
0000
0000
0000
0000
0000
0000
0100
0000
0000
0000
0000
0000
0000
0000
0000
0000
0000
0000
0010
0000
0000
0000
0000
0000
0000
0000
0000
0100
0000
0000
0000
0000
0000
0000
0000
0000
0000
0000
0000
0000
0000
0000
0010
0000
0000
0000
0000
0000
0000
0000
0000
0100
0000
0000
0000
0000
0000
0000
0000
0000
0000
0000
0000
0010
0000
0000
0000
0000
0000
0000
0000
0000
0000
0000
0100
0000
0000
0000
0000
0000
0000
0000
0000
0000
0000
0000
0010
0000
0000
0000
,
0000
0000
0000
0000
0000
0000
0100
0000
0000
0000
0000
0000
0000
0000
0000
0000
0000
0000
0010
0000
0000
0000
0000
0000
0000
0000
0000
0000
0100
0000
0000
0000
0000
0000
0000
0000
0000
0000
0000
0010
0000
0000
0000
0000
0000
0000
0000
0000
0101
0000
0000
0000
0000
0000
0000
0000
0000
0000
0000
0000
0000
0000
0000
0000
0000
0000
0000
0000
0000
0000
0000
0000
0000
0000
0000
0000
0000
0000
0000
0000
0000
0000
0000
0000
0000
0000
0000
0000
0000
0000
0000
0000
0000
0000
0000
0000
0000
0000
0000
0000
0000
0000
0000
0000
0000
0000
0000
0000
0000
0000
0000
0000
0000
0000
0000
0000
0000
0000
0000
0000
0000
0000
0000
0000
0000
0000
0000
0000
0000
0000
0000
0000
0000
0000
0000
0000
0000
0000
0000
0000
0000
0000
0000
0000
0000
0000
0000
0000
0000
0000
0000
0000
0000
0000
0000
0000
0000
0000
0000
0000
0000
0000
0000
0000
0000
0000
0000
0000
0000
0000
0000
0000
0000
0000
0000
0000
0000
0000
0000
0000
0000
0000
0000
0000
0000
0000
0000
0000
0000
0000
0000
0000
;
