#TITLE:katekyoshi hitman reborn 11th ending;
#SUBTITLE:smile;
#ARTIST:aya ueto;
#TITLETRANSLIT:;
#SUBTITLETRANSLIT:;
#ARTISTTRANSLIT:;
#CREDIT:;
#BANNER:banner.png;
#BACKGROUND:bg.png;
#LYRICSPATH:;
#CDTITLE:;
#MUSIC:Smile.mp3;
#OFFSET:0.160;
#SAMPLESTART:54.660;
#SAMPLELENGTH:15.000;
#SELECTABLE:YES;
#BPMS:0.000=139.000;
#STOPS:;
#BGCHANGES:0.000=Katekyo Hitman Reborn 11th ED.avi=1.000=1=0=0,
205.500=bg.png=1.000=1=0=0,
99999=-nosongbg-=1.000=0=0=0 // don't automatically add -songbackground-
;
// cache tags:
#FIRSTBEAT:1.000;
#LASTBEAT:205.500;
#SONGFILENAME:Songs/toune 1 (2010)/Smile/Smile.sm;
#HASMUSIC:1;
#HASBANNER:1;
#MUSICLENGTH:89.082;
// end cache tags

//---------------dance-single - ----------------
#NOTES:
     dance-single:
     :
     Hard:
     6:
     0.608,0.490,0.348,0.191,0.157,331.000,31.000,17.000,0.000,0.000:
0000
0000
0000
0000
0000
0000
2020
0000
0000
0000
0000
3030
0000
0000
0000
0010
0000
0000
0200
0000
0000
0000
0000
0300
,
0000
0000
0000
0202
0000
0303
0000
0000
0000
0002
0000
0003
0000
0000
0000
1000
0000
0000
0010
0000
0000
1000
0000
0000
,
0100
0000
0001
0000
1000
0000
0000
0000
0010
0000
0000
1000
0100
0000
0001
0000
,
1000
0000
0010
0000
0100
0000
0000
0000
0101
0000
0000
0001
0010
0000
1000
0000
,
0001
0100
0010
0000
1010
0000
1000
0000
,
0100
0001
0100
0010
0001
0010
1000
0001
,
0100
0000
0010
0000
0100
0000
0000
0000
0110
0000
0000
0010
1000
0000
0001
0000
,
0100
0000
0001
0000
0010
0000
0000
0000
1010
0000
0000
1000
0001
0000
0100
0000
,
0001
0010
1000
0100
0001
1000
0010
0001
,
0010
1000
0001
0100
1000
0100
0001
1000
,
0010
0100
0010
0000
1000
0100
0000
0001
,
0010
0001
0010
0000
1000
0001
0000
0100
,
0020
0000
0000
0000
0000
0000
0000
0000
0000
0000
0030
0000
0000
0000
0000
0000
0000
0000
0100
0000
0000
0001
0000
0000
0100
0000
0000
0000
0000
0000
0010
0000
0000
0000
0000
0000
1000
0000
0000
0000
0000
0000
0020
0000
0000
0000
0000
0000
,
0000
0000
0030
0000
0000
0000
0110
0000
0000
0000
0000
0000
0100
0000
0000
0000
0000
0000
0001
0000
0000
0020
0000
0000
,
0000
0000
0000
0000
0030
0000
0000
0000
0000
0000
0000
0000
1010
0000
0000
0000
0000
0000
0000
0000
0000
0000
0000
0000
0100
0000
0000
0000
0000
0000
0000
0000
0000
0001
0000
0000
0010
0000
0000
0000
0000
0000
1000
0000
0000
0000
0000
0000
,
0001
0000
0100
0000
0010
0000
0000
0000
0110
0000
0000
0100
0001
0000
0010
0000
,
1000
0000
0001
0000
0100
0000
0000
0000
0101
0000
0000
0001
1000
0000
0100
0000
,
0001
0000
1000
0000
0010
0000
0000
0000
0100
0000
0000
0001
0010
0000
1000
0000
,
0100
0000
0010
0000
1000
0000
0000
0000
1001
0000
0000
0001
0100
0000
0010
0000
,
1000
0000
0100
0000
0001
0000
0000
0000
1001
0000
0000
1000
0010
0000
1000
0000
,
0100
0000
0001
0000
1000
0000
0000
0000
1100
0000
0000
0100
0001
0000
0010
0000
,
1000
0000
0010
0000
0100
0000
0000
0000
0110
0000
0000
0010
1000
0000
0100
0000
,
0001
0000
1001
0000
0001
0010
1000
0010
,
0100
0001
0100
0010
0001
0010
1000
0001
,
0100
0001
0010
0000
1000
0001
0100
0001
,
0010
0100
1000
0100
0001
1000
0010
0001
,
0010
1000
0010
0000
0100
0010
0100
0010
,
0000
0000
1000
0000
0100
0000
0000
0001
1000
0000
0010
0000
1000
0000
0100
0000
,
0000
0000
0001
0000
1000
0000
0000
0001
0010
0000
1000
0000
0001
0000
0100
0000
,
0010
0100
0010
1000
0001
1000
0100
0001
,
1000
0010
0100
0000
0001
0100
0000
0010
,
0100
0010
0000
1010
1010
0000
1000
0001
,
0100
0000
1000
0000
0100
0000
0000
0000
0101
0000
0000
0001
1000
0000
0010
0000
,
1000
0000
0100
0000
0001
0000
0000
0000
1001
0000
0000
1000
0010
0000
0100
0000
,
0001
0000
0100
0000
0010
0000
0000
0000
0110
0000
0000
0100
0001
0000
0010
0000
,
1000
0000
0001
0000
0100
0000
0010
0000
0100
0000
0010
0000
0000
0000
0000
1000
,
0100
0001
1000
0000
1010
0000
0100
0001
,
0100
0000
0010
0000
0001
0000
0010
0000
1000
0000
0000
0001
0100
0000
0010
0000
,
0001
0000
1000
0000
0010
0000
0000
0000
0110
0000
0000
0100
0001
0000
0010
0000
,
1000
0001
0100
0000
1100
0000
1000
0100
,
0010
0000
1000
0000
0001
0000
0000
0000
0101
0000
0000
0010
1000
0000
0100
0000
,
0001
0000
1000
0000
0010
0000
0000
0000
0110
0000
0000
0100
0001
0000
0010
0000
,
1000
0100
0001
0000
1001
0000
1000
0000
,
0001
0010
0100
0001
0001
1000
0010
0100
,
0001
0000
1000
0000
0010
0000
0000
0000
1010
0000
0000
1000
0001
0000
0100
0000
,
0001
0010
1000
0000
1001
0000
0101
0000
,
0110
0000
0010
1000
0010
0100
1000
0100
,
0001
1000
0010
0100
0010
1000
0001
0100
,
1000
0000
0000
0000
0000
0000
0000
0000
0000
0000
0000
0000
0000
0000
0000
0000
0000
0000
0000
0000
0000
0000
0000
0000
0100
0000
0000
0000
0000
0000
0000
0000
0000
0000
0000
0000
0000
0000
0000
0000
0000
0000
0000
0000
0000
0000
0000
0000
0002
0000
0000
0000
0000
0000
0000
0000
0000
0000
0000
0000
0000
0000
0000
0000
0000
0000
0000
0000
0000
0000
0000
0000
0000
0000
0000
0000
0000
0000
0000
0000
0000
0000
0000
0000
0000
0000
0000
0000
0003
0000
0000
0000
0000
0000
0000
0000
0000
0000
0000
0000
0000
0000
0000
0000
0000
0000
0000
0000
0000
0000
0000
0000
0000
0000
0000
0000
0000
0000
0000
0000
1000
0000
0000
0000
0000
0000
0000
0000
0000
0000
0000
0000
0000
0000
0000
0000
0000
0000
0000
0000
0000
0000
0000
0000
0000
0000
0000
0000
0000
0000
0020
0000
0000
0000
0000
0000
0000
0000
0000
0000
0000
0000
0000
0000
0000
0000
0000
0000
0000
0000
0000
0000
0000
0000
0000
0000
0000
0000
0000
0000
0000
0000
0000
0000
0000
0000
0000
0000
0000
0000
0000
0000
,
0000
0000
0000
0000
0000
0000
0000
0000
0000
0000
0000
0000
0000
0000
0000
0000
0000
0000
0000
0000
0000
0000
0000
0000
0000
0000
0000
0000
0000
0000
0000
0000
0000
0030
0000
0000
0000
0000
0000
0000
0000
0000
0000
0000
0000
0000
0000
0000
0000
0000
0000
0000
0000
0000
0000
0000
0000
0000
0000
0000
0000
0000
0000
0000
0200
0000
0000
0000
0000
0000
0000
0000
0000
0000
0000
0000
0000
0000
0000
0000
0000
0000
0000
0000
0000
0000
0000
0000
0000
0000
0000
0000
0000
0000
0000
0000
0000
0000
0000
0000
0300
0000
0000
0000
0000
0000
0000
0000
0000
0000
0000
0000
0000
0000
0000
0000
0000
0000
0000
0000
0000
0000
0000
0000
0000
0000
0000
0000
0000
0000
0000
0000
0020
0000
0000
0000
0000
0000
0000
0000
0000
0000
0000
0000
0000
0000
0000
0000
0000
0000
0000
0000
0000
0000
0000
0000
0000
0000
0000
0000
0000
0000
0000
0000
0000
0000
0000
0000
0000
0000
0000
0000
0030
0000
0000
0000
0000
0000
0000
0000
0000
0000
0000
0000
0000
0000
0000
0000
0000
0000
0000
0000
,
0000
0000
0000
2000
0000
0000
0000
0000
0000
0000
0000
0000
0000
0000
0000
0000
3000
0000
0000
0000
0000
0000
0000
0000
0002
0000
0000
0000
0000
0000
0000
0000
0000
0000
0000
0000
0000
0000
0000
0000
0003
0000
0000
0000
0000
0000
0000
0000
,
2002
0000
0000
3003
0000
0000
0000
0000
;
