#TITLE:Feldschlacht III;
#SUBTITLE:;
#ARTIST:Masashi Hamauzu;
#TITLETRANSLIT:;
#SUBTITLETRANSLIT:;
#ARTISTTRANSLIT:;
#CREDIT:;
#BANNER:feldschlachtIII.png;
#BACKGROUND:feldschlachtIII-bg.png;
#LYRICSPATH:;
#CDTITLE:Kil.png;
#MUSIC:FeldschlachtIII.mp3;
#OFFSET:-0.440;
#SAMPLESTART:12.640;
#SAMPLELENGTH:16.680;
#SELECTABLE:YES;
#BPMS:0.000=154.000;
#STOPS:;
#BGCHANGES:;
// cache tags:
#FIRSTBEAT:0.000;
#LASTBEAT:237.250;
#SONGFILENAME:Songs/Community Keyboard Megapack - Volume 2/(Kil) Feldschlacht III/FeldschlachtIII.sm;
#HASMUSIC:1;
#HASBANNER:1;
#MUSICLENGTH:99.448;
// end cache tags

//---------------dance-single - ----------------
#NOTES:
     dance-single:
     :
     Hard:
     11:
     1.000,1.000,1.000,0.704,0.985,640.000,209.000,70.000,0.000,24.000:
0010
1000
0010
1000
0001
0010
0100
0001
0010
1000
0010
1000
0001
0010
0100
0001
,
0010
1000
0010
1000
0001
0010
0100
0001
0010
1000
0010
1000
0001
0010
0100
0001
,
0100
1000
0010
1000
0001
0100
0001
0010
0100
1000
0010
1000
0001
0100
0001
0010
,
0100
1000
0010
1000
0001
0100
0001
0010
0100
0010
1001
0100
0010
0001
0110
0000
,
1100
0000
0010
0000
0001
0000
1100
0000
0010
0000
0001
0000
1100
0000
0011
0100
,
0001
0010
1100
0001
0010
0000
1000
0000
1100
0000
0001
0000
1010
0000
1101
0000
,
1010
0000
0101
0000
1010
0000
1100
0000
0010
0000
0001
0000
1100
0000
0010
0001
,
0100
0010
1100
0001
0010
0000
0100
0000
1101
0010
0000
0010
0101
1000
0010
0000
,
1101
0000
1000
0001
0000
1001
1010
0101
,
1010
0000
0001
0010
0100
0000
1010
0000
0101
0000
1000
0000
0100
0010
1001
0000
,
0011
1000
0100
0010
1001
0000
0000
0000
0101
0000
0010
0000
0101
0000
0110
0000
,
1010
0000
0100
0000
0101
0000
1010
0000
1010
0000
1001
0000
1101
0010
0100
0001
,
1010
0100
1000
0000
0111
0000
0001
0000
0000
0000
1001
0000
1010
0000
0101
0000
,
1010
0100
1010
0001
0110
1000
0101
0010
1001
0000
0010
0000
1100
0010
0001
0000
,
1001
0000
0000
0000
1010
0000
0100
0000
1001
0100
0010
0000
0011
0000
1010
0000
,
1010
0000
0000
0000
0101
0000
1010
0000
1010
0000
0000
0000
1001
0010
0000
0000
,
2010
3000
0012
1003
0200
1300
0021
0130
,
2100
0000
3010
0000
0021
0000
0130
0000
2001
0010
3100
0000
0201
1300
0020
0030
,
1002
0003
0201
1300
0020
0130
2001
3010
,
1200
1300
0012
1003
0201
0310
1001
0011
,
0111
1100
0101
1011
1010
0011
0101
0110
,
2220
0000
0000
0000
0000
0000
3330
0000
1000
0000
0001
0010
1000
0100
0010
0000
,
1000
0000
0000
0000
0000
0000
0000
0000
0020
0030
0000
0000
0000
0000
0000
0000
1011
0000
0000
0000
0000
0000
0000
0000
0210
0300
0000
0000
0000
0000
0000
0000
0000
0000
0000
0000
0000
0000
0000
0000
0020
0030
0000
0000
0000
0000
0000
0000
0001
0000
0000
0000
0000
0000
0000
0000
1200
0300
0000
0000
0010
0000
0000
0000
,
1000
0000
0000
0000
0100
0000
0000
0000
0020
0030
0000
0000
0100
0000
0000
0000
1011
0000
0000
0000
0000
0000
0000
0000
0200
0300
0000
0000
0000
0000
0000
0000
1000
0000
0000
0000
0000
0000
0000
0000
0120
0030
0000
0000
1000
0000
0000
0000
0001
0000
0000
0000
0001
0000
0000
0000
0200
0300
0000
0000
0000
0000
0000
0000
,
1000
0000
0000
0000
0000
0000
0000
0000
0020
0030
0000
0000
0000
0000
0000
0000
1011
0000
0000
0000
0000
0000
0000
0000
0210
0300
0000
0000
0000
0000
0000
0000
0000
0000
0000
0000
0000
0000
0000
0000
1020
0030
0000
0000
0000
0000
0000
0000
0101
0000
0000
0000
0000
0000
0000
0000
1200
0300
0000
0000
0010
0000
0000
0000
,
1000
0000
0000
0000
0100
0000
0000
0000
0020
0030
0000
0000
0100
0000
0000
0000
1011
0000
0000
0000
0000
0000
0000
0000
0200
0300
0000
0000
0000
0000
0000
0000
1000
0000
0000
0000
0000
0000
0000
0000
0120
0030
0000
0000
1000
0000
0000
0000
0001
0000
0000
0000
0001
0000
0000
0000
0200
0300
0000
0000
0000
0000
0000
0000
,
1000
0000
0000
0000
0000
0000
0000
0000
0020
0030
0000
0000
0000
0000
0000
0000
1011
0000
0000
0000
0000
0000
0000
0000
0210
0300
0000
0000
0000
0000
0000
0000
0000
0000
0000
0000
0000
0000
0000
0000
0020
0030
0000
0000
0000
0000
0000
0000
0001
0000
0000
0000
0000
0000
0000
0000
1200
0300
0000
0000
0010
0000
0000
0000
,
1000
0000
0000
0000
0100
0000
0000
0000
0020
0030
0000
0000
0100
0000
0000
0000
1011
0000
0000
0000
0000
0000
0000
0000
0200
0300
0000
0000
0000
0000
0000
0000
1000
0000
0000
0000
0000
0000
0000
0000
1020
0030
0000
0000
0100
0000
0000
0000
0001
0000
0000
0000
0001
0000
0000
0000
0200
0300
0000
0000
0000
0000
0000
0000
,
1000
0000
0000
0000
0000
0000
0000
0000
0020
0030
0000
0000
0000
0000
0000
0000
1011
0000
0000
0000
0000
0000
0000
0000
0210
0300
0000
0000
0000
0000
0000
0000
0000
0000
0000
0000
0000
0000
0000
0000
1020
0030
0000
0000
0000
0000
0000
0000
0101
0000
0000
0000
0000
0000
0000
0000
1200
0300
0000
0000
0010
0000
0000
0000
,
1000
0000
0000
0000
0100
0000
0000
0000
0020
0030
0000
0000
0100
0000
0000
0000
1011
0000
0000
0000
0000
0000
0000
0000
0200
0300
0000
0000
0000
0000
0000
0000
1000
0000
0000
0000
0000
0000
0000
0000
0120
0030
0000
0000
1000
0000
0000
0000
0011
0000
0000
0000
0000
0000
0000
0000
0210
0300
0000
0000
0000
0000
0000
0000
,
1000
0100
1000
0100
0011
0100
1000
0100
1000
0010
1000
0100
0011
0100
1000
0010
,
1000
0100
1000
0100
0011
1000
0100
1000
0100
1000
0100
1000
0011
1001
0100
0010
,
1000
0100
1000
0100
0011
0100
1000
0100
1000
0010
1000
0100
0011
0100
1000
0010
,
1000
0100
1000
0100
0011
1000
0100
1000
0100
1000
0100
1000
0011
1001
0100
0010
,
1000
0100
0010
1000
0011
1000
0100
0010
0100
1000
0100
1000
0011
1000
0100
1000
,
0100
0010
0100
1000
0011
1000
0100
0010
0100
1000
0100
1000
0011
1001
0100
1000
,
0100
0010
0100
1000
0011
1000
0100
0010
0100
1000
0100
1000
0011
1000
0100
1000
,
0100
0010
1000
0100
0011
0100
1000
0100
0011
1000
0011
0100
0011
0010
0001
0000
,
1000
0100
1000
0100
0010
1000
0001
0010
1000
0100
1000
0100
0010
1000
0001
0010
,
1000
0100
1000
0100
0010
1000
0001
0010
1000
0100
1000
0100
0010
1000
0001
0010
,
0001
0100
1000
0100
0010
0001
0010
1000
0001
0100
1000
0100
0010
0001
0010
1000
,
0001
0100
1000
0100
0010
0001
0010
1000
0001
1000
0110
0001
1000
0010
1001
0000
,
0101
0000
1000
0000
0010
0000
0101
0000
1000
0000
0010
0000
0101
0000
1010
0001
,
0010
1000
0101
0010
1000
0000
0100
0000
0101
0000
0010
0000
1100
0000
0111
0000
,
1100
0000
0011
0000
1100
0000
0101
0000
1000
0000
0010
0000
0101
0000
0010
1000
,
0001
0010
0101
1000
0001
0000
0100
0000
1011
0100
0000
0100
1001
0100
0010
0000
,
1101
0000
0100
0010
0000
0110
1100
0011
,
1100
0000
0001
1000
0010
0000
1100
0000
0011
0000
0100
0000
0001
1000
0110
0000
,
1010
0100
0001
1000
0110
0000
0000
0000
0011
0000
1000
0000
0011
0000
1001
0000
,
1100
0000
0001
0000
0011
0000
1100
0000
1100
0000
0110
0000
0111
1000
0001
0010
,
1100
0001
0100
0000
1011
0000
0010
0000
0000
0000
1100
0000
1010
0000
0101
0000
,
1010
0100
0010
0001
1010
0100
0010
0001
1001
0000
0010
0000
0101
1000
0010
0000
,
0110
0000
0000
0000
1100
0000
0001
0000
0011
0100
0001
0000
1010
0000
1100
0000
,
1100
0000
0000
0000
0011
0000
1100
0000
1100
0000
0000
0000
1001
0010
0000
0000
,
2010
3000
0012
1003
0200
1300
0021
0130
,
2100
0000
3010
0000
0021
0000
0130
0000
2001
0010
3100
0000
0201
1300
0020
0030
,
1002
0003
0201
1300
0020
0130
2001
3010
,
1200
1300
0012
1003
0201
0310
1001
0011
,
0111
1100
0101
1011
1010
0011
0101
0110
,
2220
0000
0000
0000
0000
0000
0000
0000
3000
0300
0030
0000
0000
0000
0000
0000
0000
0000
0000
0000
0000
0000
0000
0000
0000
0000
0000
0000
0000
0000
0000
0000
;

//---------------pump-double - ----------------
#NOTES:
     pump-double:
     :
     Easy:
     1:
     0.000,0.000,0.000,0.000,0.000,0.000,0.000,0.000,0.000,0.000:
0000000000
0000000000
0000000000
0000000000
;
