#TITLE:Seymour Battle;
#SUBTITLE:[Final Fantasy X OST];
#ARTIST:植松伸夫;
#TITLETRANSLIT:;
#SUBTITLETRANSLIT:;
#ARTISTTRANSLIT:Nobuo Uematsu;
#CREDIT:;
#BANNER:seymour.png;
#BACKGROUND:seymour-bg.png;
#LYRICSPATH:;
#CDTITLE:!DOD5th.png;
#MUSIC:seymour.ogg;
#OFFSET:0.000;
#SAMPLESTART:74.660;
#SAMPLELENGTH:28.460;
#SELECTABLE:YES;
#BPMS:0.000=135.000,48.000=270.000;
#STOPS:;
#BGCHANGES:;
// cache tags:
#FIRSTBEAT:16.000;
#LASTBEAT:784.000;
#SONGFILENAME:Songs/toune 2/Seymour/seymour.sm;
#HASMUSIC:1;
#HASBANNER:1;
#MUSICLENGTH:195.996;
// end cache tags

//---------------dance-single - MANIAC----------------
#NOTES:
     dance-single:
     MANIAC:
     Hard:
     9:
     0.746,0.900,0.276,0.408,0.000,889.000,54.000,80.000,0.000,6.000:
0000
0000
0000
0000
,
0000
0000
0000
0000
,
0000
0000
0000
0000
,
0000
0000
0000
0000
,
2000
0000
0000
0000
,
0020
0000
0000
0000
,
3200
0000
0000
0000
,
0032
0000
0000
0000
,
2300
0000
0000
0000
,
0023
0000
3200
0000
,
0032
0000
0000
0000
,
0000
0000
0000
0303
,
0001
0000
0100
0000
0010
0000
1000
0010
,
0000
0010
0000
0100
0010
0000
1000
0000
,
0100
0000
1000
0000
0010
0000
1000
0010
,
0000
0100
0000
0001
0100
0000
0000
0000
,
0010
0000
1000
0000
0001
0000
0100
0010
,
0000
0010
0000
1000
0001
0000
1000
0000
,
0100
0000
1000
0000
0010
0000
0100
0001
,
0000
0001
0000
0100
0010
0000
0000
0000
,
1000
0010
0000
0100
0000
0001
0000
0100
,
0000
0010
1000
0000
2200
0000
3300
0000
,
1000
0001
0000
0100
0000
0010
0000
1000
,
0000
0010
0100
0000
0202
0000
0303
0000
,
0001
0100
0000
0010
0000
1000
0000
0010
,
0000
0100
0010
0000
0220
0000
0330
0000
,
0010
1000
0010
1000
0010
0100
0010
0100
,
0001
0100
0001
0100
0001
1000
0001
1000
,
0001
0100
0000
0110
0000
1010
0000
1010
,
0000
1000
0001
0000
2002
0000
0000
3003
,
1000
0010
0000
0110
0000
0101
0000
1001
,
0000
1000
0010
0000
0220
0000
0000
0330
,
0010
1000
0000
1010
0000
0011
0000
1001
,
0000
1000
0001
0000
2002
0000
0000
3003
,
0001
0100
0001
0100
0010
1000
0010
1000
,
0001
1000
0001
1000
0010
0100
0010
0100
,
0000
0100
0010
1000
0001
0100
0000
0100
,
0001
0000
0001
0100
0000
0100
0001
1000
,
0010
0000
0010
0100
0000
0100
0010
1000
,
0001
0000
0100
0010
0000
0100
0001
0100
,
2000
0000
0000
0000
0000
0000
3010
0100
,
0000
0001
0000
1000
0010
0000
0100
0000
,
0002
0000
0000
0000
0000
0000
1003
0010
,
0000
0100
0000
0001
2002
0000
0000
3003
,
0000
0010
0100
0010
1000
0001
1000
0010
,
0100
0001
0000
0100
0001
0100
0010
1000
,
0001
0100
0000
0101
0000
0000
0100
0010
,
1000
0010
0000
1010
0000
0100
0001
0010
,
0002
0000
2003
0000
,
3020
0000
0230
0000
,
0302
0100
0203
0010
,
0320
1000
2030
0001
,
0001
0000
0001
0000
,
0001
0000
0000
0000
3001
0100
0010
1000
,
0002
0000
1000
0000
,
1000
0000
1000
0003
,
1000
0010
0100
0001
0010
0100
1000
0000
,
0001
0100
0010
1000
0100
0010
0001
0000
,
1000
0100
0010
0001
0100
0010
1000
0000
,
0001
0010
0100
1000
0010
0100
0001
0000
,
1000
0000
0010
0000
0100
0000
0001
0100
,
0000
0100
0010
0000
1000
0000
1001
0000
,
1000
0000
0001
0000
0010
0000
0001
0100
,
0000
0100
0001
0000
0100
0000
0110
0000
,
0010
1000
0001
0100
0010
1000
0010
0000
,
0100
0001
1000
0010
1000
0001
0100
0000
,
0010
1000
0100
1000
0001
1000
0100
0000
,
1000
0010
0100
0010
1000
0100
1000
0000
,
0001
0000
0100
0000
0010
0000
1000
0010
,
0000
0010
0100
0000
0101
0000
0110
0000
,
0010
0000
1000
0000
0010
0000
0100
0001
,
0000
0001
0100
0000
0110
0000
1001
0000
,
1000
0000
0010
0000
0100
0001
0000
0001
,
0100
0000
0100
0010
0000
0010
1000
0000
,
1000
0000
0010
0100
0000
0100
0001
0000
,
1000
0000
1000
0010
0000
0010
1000
0000
,
0100
0000
1000
0000
0010
0100
0000
0100
,
0001
0000
0001
1000
0000
1000
0100
0000
,
1000
0000
0010
0100
0000
0100
0001
0000
,
0100
0000
0100
0010
0000
0010
1000
0000
,
0010
0000
0100
0000
0001
0100
0000
0100
,
0010
0000
0010
1000
0000
1000
0100
0000
,
1000
0000
0001
0100
0000
0100
0010
0000
,
0100
0000
0001
1000
0000
1000
0100
0000
,
1000
0000
0001
0000
1000
0100
0000
0100
,
1000
0000
1000
0001
0000
0001
0100
0000
,
0010
0000
1000
0001
0000
0001
0100
0000
,
0010
0000
1000
0100
0000
0100
1000
0000
,
0010
0000
0100
0000
0001
0100
0000
0100
,
0010
0000
0010
1000
0000
1000
0010
0100
,
0001
0000
0100
0010
0000
1000
0010
0100
,
0010
0000
1000
0010
0000
0100
0001
0100
,
0010
0000
1000
0000
0010
0100
0000
0100
,
0001
0000
0001
0100
0000
0100
0010
1000
,
0100
0000
1000
0010
0000
1000
0010
0100
,
0001
0000
0100
0001
0000
0100
0001
0100
,
0010
0000
1000
0000
0001
0100
0000
0100
,
0010
0000
0010
0100
0000
0100
0001
1000
,
0010
0000
1000
0001
0000
0001
0100
0001
,
0010
0000
0001
1000
0000
0100
1000
0010
,
0100
0001
1000
0010
0100
0001
0100
0010
,
1000
0010
0100
0001
0100
0010
1000
0010
,
0100
0001
1000
0010
1000
0100
1000
0001
,
0100
0010
1000
0010
0100
0001
0010
0100
,
2000
0000
0010
0000
0010
0000
0001
0001
,
0000
0100
0100
0000
0010
0000
3100
0000
,
0002
0100
0100
0003
,
2000
0010
0010
3000
,
0200
0000
0010
0000
0010
0000
0001
0001
,
0000
0010
0010
0000
0001
0000
0310
0000
,
2000
0000
0001
0000
0001
0000
0010
0010
,
0000
0001
0001
0000
0100
0000
3001
0000
,
0020
0000
1000
0000
1000
0000
0100
0100
,
0000
1000
1000
0000
0100
0000
0130
0000
,
0002
1000
1000
0003
,
2000
0001
0001
3000
,
0002
0000
1000
0000
1000
0000
0100
0100
,
0000
1000
1000
0000
0010
0000
0103
0000
,
0020
0000
1000
0000
1000
0000
0100
0100
,
0000
1000
1000
0000
0001
0000
1030
0000
,
0001
0000
0100
0000
0010
0000
1000
0010
,
0000
0010
1000
0000
1010
0000
0101
0000
,
0001
0000
1000
0000
0010
0000
0100
0001
,
0000
0001
0100
0000
0110
0000
1001
0000
,
1000
0000
0010
0000
0100
0000
0001
0100
,
0000
0100
0010
0000
1010
0000
1001
0000
,
0001
0000
0100
0000
0010
0000
1000
0010
,
0000
0010
0100
0000
0101
0000
1001
0000
,
1001
0000
1000
0000
0010
0000
0100
0001
,
0000
0001
0100
0000
0010
0000
1000
0000
,
0002
0103
2000
3010
,
0002
0103
2000
3010
,
0100
1000
0100
0010
0001
1000
0010
0100
,
0001
0100
0010
0100
0010
0001
0010
0100
,
1000
0010
0100
0001
0100
0010
1000
0010
,
0100
0010
0100
1000
0100
0001
0010
0001
,
1000
0010
0100
0010
1000
0001
0100
0010
,
0100
0001
1000
0010
0100
0001
0100
0001
,
1000
0001
1000
0001
1000
0001
1000
0001
,
1000
0001
1000
0001
1000
0001
1000
0001
,
2002
0000
0000
3003
,
0000
0000
0000
0000
,
1000
0000
0001
0100
0000
0100
0010
0000
,
0010
1000
0000
1000
0001
0000
1001
0000
,
0220
0000
0000
0330
,
0000
0000
0000
0000
,
0010
0100
0010
0100
0010
0100
0010
0100
,
0010
1000
0001
1000
0001
0100
0001
1000
,
0010
0000
0100
0000
0000
0010
0000
0000
,
0100
0000
0001
1000
0000
0000
1000
0000
,
0001
0100
0000
0000
0010
0000
1000
0000
,
0010
0100
0000
0000
0110
0000
1001
0000
,
1000
0010
0000
0000
0100
0000
0001
0100
,
0000
0000
0010
0000
1000
0010
0000
0000
,
0100
0000
0001
0000
1000
0010
0000
0000
,
1010
0000
0101
0000
1000
0010
0000
0000
,
0100
0000
0001
0100
0000
0000
0010
0000
,
1000
0010
0000
0000
1000
0000
0010
0000
,
0100
0001
1000
0000
1001
0000
0110
0000
,
0010
1000
0000
0000
0010
0000
0100
0001
,
0000
0000
0001
0000
0100
0010
0000
0000
,
1000
0000
0010
0000
0100
0001
1000
0000
,
0002
0100
0203
0010
,
0320
1000
2030
0100
,
3200
1000
2300
0001
,
3002
0100
0203
0010
,
0020
0000
0000
0330
,
0000
0000
0010
0000
1000
0010
0000
0000
,
0010
0000
1000
0000
0010
0100
0001
0000
,
2000
0100
3200
1000
,
2300
0010
3020
0100
,
0230
0001
0302
1000
,
2003
0010
3020
0100
,
0200
0000
0000
0330
,
0000
0000
0100
0000
0010
1000
0000
0000
,
0010
0000
0100
0000
0001
1000
0010
0000
,
0200
0010
0320
1000
,
2030
0001
3002
0100
,
0203
0010
0320
1000
,
2030
0001
3002
1000
,
2000
0000
0000
3003
,
0000
0000
0001
0000
0100
0010
0000
0000
,
1000
0000
0010
0000
0100
0001
1000
0000
,
1010
0010
0110
0100
,
0101
0001
0011
0010
,
0110
0100
1100
1000
,
1010
0010
1010
1000
,
1001
0000
1000
0000
0010
0000
0100
0001
,
0000
0001
0100
0010
1000
0000
0101
0000
,
0100
0000
0001
0000
1000
0000
0010
1000
,
0000
1000
0010
0100
0001
0000
1010
0000
,
1000
0001
0100
0010
1000
0001
0100
0000
,
0010
1000
0001
0100
0010
1000
0010
0000
,
1000
0001
0100
0010
0100
0001
0100
0000
,
1000
0001
0100
0001
1000
0010
1000
0001
,
2002
0000
0000
0000
,
3003
0000
0000
0000
;

//---------------dance-single - TRICKY----------------
#NOTES:
     dance-single:
     TRICKY:
     Medium:
     7:
     0.469,0.650,0.041,0.398,0.000,558.000,8.000,78.000,0.000,0.000:
0000
0000
0000
0000
,
0000
0000
0000
0000
,
0000
0000
0000
0000
,
0000
0000
0000
0000
,
2000
0000
0000
0000
,
3020
0000
0000
0000
,
0230
0000
0000
0000
,
0302
0000
0000
0000
,
2003
0000
0000
0000
,
3020
0000
2030
0000
,
0002
0000
0000
0000
,
0000
0000
0000
3003
,
0001
0100
0010
1000
,
0010
0100
0001
1000
,
0010
0100
0001
1000
,
0010
1000
0001
0000
,
0010
0001
0100
0010
,
0100
0001
1000
0001
,
0100
0010
1000
0010
,
0100
0001
1000
0000
,
1000
0010
0000
0100
0000
0001
0000
0100
,
0000
0010
1000
0000
0200
0000
0300
0000
,
1000
0001
0000
0100
0000
0010
0000
1000
,
0000
0010
0100
0000
0002
0000
0003
0000
,
0001
0100
0000
0010
0000
1000
0000
0010
,
0000
0100
0010
0000
0200
0000
0300
0000
,
0010
0010
0100
0100
,
0001
0001
1000
1000
,
0010
1000
0000
0001
0000
0100
0000
0010
,
0000
1000
0001
0000
2002
0000
0000
3003
,
1000
0010
0000
0100
0000
0001
0000
1000
,
0000
0010
0100
0000
0220
0000
0000
0330
,
0010
1000
0000
0010
0000
0100
0000
0001
,
0000
1000
0001
0000
2002
0000
0000
3003
,
0001
0001
0100
0100
,
0010
0010
1000
1000
,
0100
1000
0001
0100
,
0001
1000
0010
0100
,
0001
1000
0010
0100
,
0001
0100
1000
0100
,
0002
0000
0000
0003
,
0100
0000
0100
0000
,
2000
0000
0000
3000
,
0010
0000
0000
0000
2002
0000
0000
3003
,
0000
0100
1000
0100
,
0001
0100
0010
1000
,
0001
0000
0000
0002
0000
0000
0000
0003
,
1000
0000
0000
2000
0000
0000
0000
3000
,
0002
0003
0200
0300
,
0020
0030
2000
3000
,
0002
0003
0020
0030
,
0200
0300
2000
3000
,
2002
0000
0000
0000
,
0000
0000
0000
3003
,
0220
0000
0000
0000
,
0000
0000
0000
0330
,
1000
0100
0010
0001
,
1000
0100
0010
0001
,
1000
0100
0010
0001
,
1000
0100
0010
0001
,
1000
0000
0010
0000
0100
0000
0001
0100
,
0000
0100
0010
0000
1000
0000
0001
0000
,
1000
0000
0001
0000
0010
0000
0001
0100
,
0000
0100
0001
0000
0100
0000
0010
0000
,
0100
0001
1000
0010
,
0100
0001
1000
0010
,
0100
0001
1000
0010
,
0100
0001
1000
0010
,
0100
0100
0010
0010
,
1000
0010
0100
0001
,
1000
1000
0001
0001
,
0010
0001
1000
0100
,
1000
0000
1000
0000
,
0001
0000
0001
0000
,
1000
0010
1000
0000
,
0001
1000
0001
0000
,
0100
0000
0100
0000
,
0010
0000
0010
0000
,
0100
0001
0100
0000
,
0010
1000
0010
0000
,
0100
0000
0001
0000
,
0100
0000
0001
0000
,
0100
0001
0100
0000
,
0001
0100
0001
0000
,
1000
0000
0010
0000
,
1000
0000
0010
0000
,
1000
0010
1000
0000
,
0010
1000
0010
0000
,
0100
0000
0010
0000
,
1000
0010
1000
0010
,
0100
0000
0001
0000
,
0010
0001
0010
0001
,
0100
0000
0010
0000
,
1000
0010
1000
0010
,
0100
0000
0010
0000
,
0100
0010
0100
0010
,
1000
0001
1000
0000
,
0010
0100
0010
0000
,
0100
0001
0100
0000
,
0001
1000
0001
0000
,
0100
1000
0100
0001
,
0100
0010
1000
0010
,
0100
0001
0100
0010
,
1000
0001
0010
0100
,
2000
0000
0001
0000
,
0001
0000
0001
3000
,
0002
0000
0100
0003
,
2000
0000
0010
3000
,
0200
0000
0010
0000
,
0010
0000
0010
0300
,
2000
0000
0001
0000
,
0001
0000
0001
3000
,
0020
0000
1000
0000
,
1000
0000
1000
0030
,
0002
0000
1000
0003
,
2000
0000
0001
3000
,
0002
0000
1000
0000
,
1000
0000
1000
0003
,
0020
0000
0100
0000
,
0100
0000
0100
0030
,
0001
0000
0100
0000
0010
0000
1000
0010
,
0000
0010
1000
0000
0010
0000
0100
0000
,
0001
1000
0010
0000
,
0100
0010
1000
0000
,
1000
0000
0010
0000
0100
0000
0001
0100
,
0000
0100
0010
0000
1000
0000
0001
0000
,
1000
0001
0100
0000
,
0100
0010
1000
0000
,
0001
0000
1000
0000
0010
0000
0100
0001
,
0000
0001
0100
0000
0010
0000
1000
0000
,
0002
0003
2000
3000
,
0002
0003
2000
3000
,
0010
0100
0001
1000
,
0001
0010
1000
0010
,
0001
0100
0010
1000
,
0100
1000
0100
0001
,
0100
1000
0001
0100
,
0010
1000
0010
0100
,
0001
1000
0001
1000
,
0001
1000
0001
1000
,
1001
0000
0001
0000
,
1000
0000
0001
0000
,
1000
0000
0000
0100
0000
0000
0010
0000
,
0000
0001
0000
0000
0001
0000
1000
0000
,
0010
0000
0100
0000
,
0001
0000
1000
0000
,
0010
0100
0010
0100
,
0010
1000
0001
0100
,
0010
0000
0100
0000
0000
0010
0000
0000
,
0100
0000
0000
0010
0000
0000
0100
0000
,
0000
0010
0000
0000
0100
0000
0010
0000
,
0100
0000
0001
1000
,
0000
0001
0000
0000
1000
0000
0000
0001
,
0000
0000
1000
0000
0000
0001
0000
0000
,
1000
0001
1000
0000
,
0010
0000
1000
0000
0000
0010
0000
0000
,
1000
0000
0000
0010
0000
0000
1000
0000
,
0000
0010
0000
0000
1000
0000
0010
0000
,
0100
0000
0001
0100
,
0000
0001
0000
0000
0100
0000
0000
0001
,
0000
0000
0100
0000
0000
0001
0000
0000
,
0100
0001
0100
0000
,
0002
0000
0203
0000
,
0320
0000
2030
0000
,
3200
0000
2300
0000
,
3002
0000
0203
0000
,
0020
0000
0000
0000
,
0000
0000
0000
0000
,
0000
0000
0000
0330
,
2000
0000
3200
0000
,
2300
0000
3020
0000
,
0230
0000
0302
0000
,
2003
0000
3020
0000
,
0200
0000
0000
0000
,
0000
0000
0000
0000
,
0000
0000
0000
0330
,
0200
0000
0320
0000
,
2030
0000
3002
0000
,
0203
0000
0320
0000
,
2030
0000
3002
0000
,
2000
0000
0000
0000
,
0000
0000
0000
0000
,
0000
0000
0000
3003
,
1000
0010
0100
0001
,
0100
0010
1000
0001
,
0100
0010
1000
0001
,
1000
0010
0100
0010
,
1000
0000
0010
0000
0100
0000
0100
0001
,
0000
0001
0100
0000
0010
0000
1000
0000
,
0010
0000
0100
0000
0001
0000
1000
0010
,
0000
0010
0100
0000
0001
0000
1000
0000
,
1000
0001
1000
0000
1000
0001
1000
0000
,
0001
1000
0001
0000
0001
1000
0001
0000
,
0100
0010
0100
0000
0100
0010
0100
0000
,
0010
0100
0010
0000
0010
0100
0010
0000
,
0220
0000
0000
0000
,
0330
0000
0000
0000
;

//---------------dance-single - BASIC----------------
#NOTES:
     dance-single:
     BASIC:
     Easy:
     3:
     0.197,0.350,0.092,0.071,0.000,238.000,18.000,14.000,0.000,0.000:
0000
0000
0000
0000
,
0000
0000
0000
0000
,
0000
0000
0000
0000
,
0000
0000
0000
0000
,
1000
0000
0000
0000
,
1000
0000
0000
0000
,
0001
0000
0000
0000
,
0001
0000
0000
0000
,
0100
0000
0000
0000
,
0100
0000
0010
0000
,
0110
0000
0000
0000
,
0000
0000
0000
0000
,
0001
0000
0001
0000
,
1000
0000
1000
0000
,
0010
0000
0010
0000
,
0100
0000
0100
0000
,
0010
0000
0001
0000
,
0010
0000
1000
0000
,
0100
0000
0001
0000
,
0100
0000
1000
0000
,
0100
0000
0000
0000
,
0100
0000
0100
0000
,
0010
0000
0000
0000
,
0010
0000
0010
0000
,
1000
0000
0000
0000
,
0001
0000
1001
0000
,
1000
0000
0100
0000
,
0010
0000
0001
0000
,
1000
0000
0000
0000
,
1000
0000
0001
0000
,
0100
0000
0000
0000
,
0010
0000
0100
0000
,
0001
0000
0000
0000
,
1000
0000
1001
0000
,
0001
0000
0100
0000
,
0010
0000
1000
0000
,
0100
0000
0000
0000
,
0001
0000
0000
0000
,
0010
0000
0000
0000
,
0001
0000
0000
0000
,
1001
0000
0000
0000
,
0000
0000
0000
0000
,
1001
0000
0000
0000
,
0000
0000
0000
0000
,
0100
0000
0000
0000
,
0100
0000
0000
0000
,
0010
0000
0000
0000
,
0010
0000
0000
0000
,
1000
0000
0100
0000
,
0010
0000
0001
0000
,
0001
0000
0010
0000
,
0100
0000
1000
0000
,
1010
0000
0000
0000
,
0000
0000
0000
0000
,
0101
0000
0000
0000
,
0000
0000
0000
0000
,
1000
0000
0010
0000
,
1000
0000
0010
0000
,
0100
0000
0001
0000
,
0100
0000
0001
0000
,
1000
0000
0000
0000
,
0001
0000
0000
0000
,
0100
0000
0000
0000
,
0010
0000
0000
0000
,
0100
0000
0001
0000
,
0100
0000
0001
0000
,
1000
0000
0010
0000
,
1000
0000
0010
0000
,
1000
0000
0000
0000
,
0010
0000
0000
0000
,
0100
0000
0000
0000
,
0001
0000
0000
0000
,
1000
0000
0000
0000
,
0000
0000
0000
0000
,
0100
0000
0000
0000
,
0010
0000
0000
0000
,
0100
0000
0000
0000
,
0000
0000
0000
0000
,
0010
0000
0000
0000
,
0000
0000
0000
0000
,
0100
0000
0000
0000
,
0000
0000
0000
0000
,
0001
0000
0000
0000
,
1000
0000
0000
0000
,
0001
0000
0000
0000
,
0000
0000
0000
0000
,
1000
0000
0000
0000
,
0000
0000
0000
0000
,
0001
0000
0000
0000
,
0000
0000
0000
0000
,
0100
0000
0000
0000
,
0001
0000
0000
0000
,
1000
0000
0000
0000
,
0000
0000
0000
0000
,
0100
0000
0000
0000
,
0000
0000
0000
0000
,
1000
0000
0000
0000
,
0000
0000
0000
0000
,
0100
0000
0000
0000
,
1000
0000
0000
0000
,
2002
0000
0000
0000
,
0000
0000
0000
0000
,
0000
0000
0000
0000
,
0000
0000
0000
3003
,
0001
0000
0000
0000
,
0000
0000
0000
0000
,
0100
0000
0000
0000
,
0010
0000
0000
0000
,
1000
0000
0000
0000
,
0000
0000
0000
0000
,
1001
0000
0000
0000
,
0000
0000
1000
0000
,
0010
0000
0000
0000
,
0000
0000
0000
0000
,
0100
0000
0000
0000
,
0010
0000
0000
0000
,
0100
0000
0000
0000
,
0000
0000
0000
0000
,
0110
0000
0000
0000
,
0000
0000
0000
0000
,
0001
0000
0010
0000
,
0100
0000
0010
0000
,
1000
0000
0010
0000
,
0100
0000
0001
0000
,
1000
0000
0010
0000
,
0100
0000
0010
0000
,
0100
0000
0001
0000
,
1000
0000
0001
0000
,
0100
0000
0000
0000
,
1000
0000
0000
0000
,
0100
0000
0000
0000
,
0001
0000
0000
0000
,
2002
0000
0000
0000
,
0000
0000
0000
0000
,
0000
0000
0000
0000
,
0000
0000
3003
0000
,
0220
0000
0000
0000
,
0000
0000
0000
0000
,
0000
0000
0000
0000
,
0000
0000
0330
0000
,
1001
0000
0000
0000
,
0000
0000
0000
0000
,
1000
0000
0000
0000
,
0001
0000
0000
0000
,
1001
0000
0000
0000
,
0000
0000
0000
0000
,
0010
0000
0100
0000
,
0001
0000
1000
0000
,
0001
0000
0100
0000
,
0010
0000
1000
0000
,
0001
0000
0100
0000
,
0010
0000
1000
0000
,
0001
0000
0100
0000
,
0010
0000
1000
0000
,
0001
0000
1000
0000
,
0010
0000
0100
0000
,
0001
0000
1000
0000
,
0010
0000
0100
0000
,
0010
0000
0100
0000
,
0001
0000
1000
0000
,
0010
0000
0100
0000
,
0001
0000
1000
0000
,
0001
0000
0100
0000
,
0010
0000
1000
0000
,
0100
0000
1000
0000
,
0001
0000
0100
0000
,
2020
0000
0000
0000
,
0000
0000
0000
0000
,
0000
0000
0000
3030
,
1000
0000
0100
0000
,
1000
0000
0010
0000
,
0100
0000
0001
0000
,
1000
0000
0010
0000
,
0202
0000
0000
0000
,
0000
0000
0000
0000
,
0000
0000
0000
0303
,
0100
0000
0010
0000
,
1000
0000
0001
0000
,
0100
0000
0010
0000
,
1000
0000
0001
0000
,
2002
0000
0000
0000
,
0000
0000
0000
0000
,
0000
0000
0000
3003
,
1000
0000
0100
0000
,
0010
0000
0001
0000
,
0100
0000
0010
0000
,
1000
0000
0001
0000
,
1000
0000
0100
0000
,
0010
0000
0001
0000
,
0100
0000
0010
0000
,
1000
0000
0001
0000
,
1000
1000
1000
0000
,
0001
0001
0001
0000
,
0100
0100
0100
0000
,
0010
0010
0010
0000
,
2002
0000
0000
0000
,
3003
0000
0000
0000
;
