#TITLE:Red Zone;
#SUBTITLE:;
#ARTIST:Tatsh & Naoki;
#TITLETRANSLIT:;
#SUBTITLETRANSLIT:;
#ARTISTTRANSLIT:;
#CREDIT:;
#BANNER:redzone-banner.png;
#BACKGROUND:redzone-bg.png;
#LYRICSPATH:;
#CDTITLE:cynic.png;
#MUSIC:1-35 RED ZONE.mp3;
#OFFSET:-0.400;
#SAMPLESTART:36.364;
#SAMPLELENGTH:11.980;
#SELECTABLE:YES;
#DISPLAYBPM:165.000;
#BPMS:0.000=165.000,240.000=200.000,240.250=220.000,240.500=250.000,240.750=280.000,241.000=309.999,241.250=339.999,241.500=369.999,241.750=399.998,242.000=449.997,242.250=499.997,242.500=549.996,242.750=599.995,243.000=700.004,243.250=745.003,247.500=600.005,247.750=499.997,248.000=399.998,248.250=359.998,248.500=319.998,248.750=279.998,249.000=239.999,249.250=209.998,249.500=179.998,249.750=164.998;
#STOPS:;
#BGCHANGES:;
// cache tags:
#FIRSTBEAT:12.000;
#LASTBEAT:292.000;
#SONGFILENAME:Songs/Community Keyboard Megapack - Volume 3/(cynic) redzone/redzone.sm;
#HASMUSIC:1;
#HASBANNER:1;
#MUSICLENGTH:107.710;
// end cache tags

//---------------dance-single - ----------------
#NOTES:
     dance-single:
     :
     Challenge:
     11:
     1.000,1.000,0.650,0.325,1.000,879.000,70.000,35.000,0.000,0.000:
0000
0000
0000
0000
,
0000
0000
0000
0000
,
0000
0000
0000
0000
,
1000
0001
1000
0001
0010
0000
0100
1000
0000
0001
1000
0000
0010
0100
0010
0100
,
0001
0010
0100
1000
0001
0010
0100
1000
0001
0100
0010
1000
0001
1000
0010
0000
,
0100
0001
1000
0010
0100
0010
1000
0001
0010
0100
0010
0001
2000
0100
0000
3100
,
1000
0001
0100
0010
1000
0001
0010
1000
0010
0001
0100
0010
1000
0001
0100
0000
,
0010
0000
0000
0100
0000
0000
0001
0000
0000
0100
0000
0000
1000
0000
0000
0100
0000
0000
0001
0000
0000
1000
0000
0000
0100
0000
0000
0000
0000
0000
0011
0000
0000
0000
0000
0000
0002
0000
0000
0000
0010
0000
0000
0000
1000
0003
0000
0000
,
0100
0010
1000
0001
0010
1000
0010
0100
1000
0001
0100
0010
1000
0001
0010
0000
,
0100
1000
0001
0100
1000
0100
0001
0100
0010
0001
0010
1000
0001
0010
0100
1000
,
0001
0100
0010
1000
0001
0010
1000
0010
0100
1000
0010
0100
0001
1000
0001
0010
,
0000
0011
0000
0001
0020
0000
0130
1000
0000
0001
0100
0010
1000
0001
0010
0100
,
1000
0000
0010
1000
1100
0000
0100
0010
0000
0001
0100
0010
1000
0100
0010
0100
,
1000
0000
0011
0000
0001
0100
1010
0000
1000
0000
0011
0000
0101
0000
0100
0010
,
1000
0001
0010
1000
0010
0100
0001
0100
1000
0001
0100
0010
1000
0010
0100
0000
,
0010
0001
0010
1000
0010
0100
1000
0100
0001
1000
0001
0010
0100
1000
0001
0010
,
0001
0000
0100
0001
0011
0000
0010
0100
0000
1000
0010
0100
0001
0010
0100
0010
,
0001
0000
1100
0000
1000
0010
0101
0000
0001
0000
1100
0000
1010
0000
0010
0100
,
0001
1000
0100
0001
0100
0010
1000
0010
0001
1000
0010
0100
0001
0100
0010
0000
,
2010
0000
0000
0001
0000
0000
3100
0000
1000
0100
0010
0001
1000
0100
0010
0001
,
1100
0000
0100
1000
0010
0000
0100
0001
1000
1000
0100
0010
0000
0001
0100
0001
,
1000
0100
0010
0100
0001
0000
0100
1000
0001
0001
0100
0010
0000
0100
0001
0100
,
0010
0010
1000
0000
1010
0000
0101
0000
0001
0001
1000
0010
0000
0010
0100
0000
,
0001
1000
0100
1000
0001
0000
0100
1000
0100
0001
0020
0000
0030
0100
1000
0100
,
0011
0000
0010
0001
0100
0000
0010
1000
0001
0001
0010
0100
0000
1000
0010
1000
,
0001
0010
0100
0010
1000
0000
0010
0001
1000
1000
0010
0100
0000
0010
1000
0010
,
0100
0100
0001
0000
0101
0000
1010
0000
1000
1000
0001
0100
0000
0100
0010
0000
,
1000
0001
0010
0001
1000
0000
0010
0001
0010
1000
0200
0000
0300
0010
0001
0010
,
1100
0000
0100
1000
0001
0000
0100
0010
0000
1000
0010
0100
0001
0001
1010
0000
,
1000
0001
0020
0000
0031
1000
0010
0100
0002
0000
0103
0020
0000
1030
0100
0010
,
0001
0100
0010
0000
1010
0000
1000
0010
0000
0100
0001
1000
0100
0010
0001
0000
,
0100
0010
1000
0001
0010
1000
0010
0001
0010
0100
1000
0001
0100
0010
1000
0100
,
0011
0000
0010
0001
1000
0000
0010
0100
0000
0001
0100
0010
1000
0001
1000
0100
,
0010
0001
0010
0200
0000
1300
0001
0100
0010
2000
0000
3010
0100
0001
1000
0100
,
0020
0000
0100
0000
0031
0000
1000
0010
0100
0010
0000
0200
1000
0000
0010
0000
,
0301
0100
0010
1000
0000
0001
1000
0001
0010
0100
1000
0001
0100
0010
1000
0001
,
0110
0000
1000
0000
1010
0000
0101
0000
0001
0010
0000
0010
1100
0000
1000
0000
,
0101
0000
0101
0000
0001
1000
0100
0000
0011
0000
0001
1000
0010
0000
0101
0000
,
2002
0003
0100
3000
2001
0000
0100
3000
1020
0000
0100
0000
0130
0000
0102
0000
,
1000
0003
0102
0000
1000
0003
0102
0000
1000
0000
0013
0000
1100
0000
1000
0000
,
1001
0000
0001
0000
1010
0000
0010
0100
0001
1000
0100
0000
0011
0000
1000
0000
,
0101
0000
1001
0000
0001
0000
0011
0000
0010
0100
1000
0000
0011
0000
1100
0000
,
2010
0000
0001
3000
2010
0000
3001
0000
0011
0100
1000
0000
0010
0000
1010
0000
,
1000
0010
1000
0010
0100
0001
0100
0001
1000
0001
0010
0100
1000
0010
0100
0001
,
1000
0000
0001
0100
0010
0000
0100
0001
1000
1000
0100
0010
0000
0001
0100
0001
,
1000
0100
0010
0100
0001
0000
0100
1000
0001
0001
0100
0010
0000
0100
0001
0100
,
0010
0010
1000
0000
1010
0000
0101
0000
0001
0001
1000
0010
0000
0010
0100
0000
,
0001
1000
0100
1000
0001
0000
0100
1000
0100
0001
0020
0000
0030
0100
1000
0100
,
0011
0000
0010
0001
0100
0000
0010
1000
0001
0001
0010
0100
0000
1000
0010
1000
,
0001
0010
0100
0010
1000
0000
0010
0001
1000
1000
0010
0100
0000
0010
1000
0010
,
0100
0100
0001
0000
0101
0000
1010
0000
1000
1000
0001
0100
0000
0100
0010
0000
,
1000
0001
0010
0001
1000
0000
0010
0001
0010
1000
0200
0000
0300
0010
0001
0010
,
1100
0000
0100
1000
0001
0000
0100
0010
0000
1000
0010
0100
0001
0001
1010
0000
,
1000
0001
0020
0000
0031
1000
0010
0100
0002
0000
0103
0020
0000
1030
0100
0010
,
0001
0100
0010
0000
1010
0000
1000
0010
0000
0100
0001
1000
0100
0010
0001
0000
,
0100
0010
1000
0001
0010
1000
0010
0001
0010
0100
1000
0001
0100
0010
1000
0100
,
0011
0000
0010
0001
1000
0000
0010
0100
0000
0001
0100
0010
1000
0001
1000
0100
,
0010
0001
0010
0200
0000
1300
0001
0100
0010
2000
0000
3010
0100
0001
1000
0100
,
0020
0000
0100
0000
0031
0000
1000
0010
0100
0010
0000
0200
1000
0000
0010
0000
,
0301
0100
0010
1000
0000
0001
1000
0001
0010
0100
1000
0001
0100
0010
1000
0001
,
0220
0000
0000
0000
,
0000
0000
0000
0000
,
0000
0000
0000
0000
0330
0000
0000
0000
1000
0010
0100
0001
1000
0001
0010
0100
,
1000
0001
0100
0010
1000
0001
0100
0010
1000
0001
0010
0100
1000
0010
0100
0001
,
1000
0001
0010
0100
0010
0001
0100
0010
1000
0001
0100
0001
1000
0001
0100
0001
,
0010
0100
0010
0001
0010
0100
0010
0001
0100
0010
0100
0001
0100
0010
0100
0001
,
1000
0100
0010
0100
1000
0001
0100
0010
1000
0100
1000
0001
1000
0100
1000
0010
,
0100
0001
0100
0010
0100
0001
0100
1000
0100
0001
1000
0001
0010
0100
1000
0001
,
1000
0010
0100
0001
0100
1000
0100
0010
0001
0010
1000
0001
0010
1000
0010
0100
,
0001
0100
1000
0001
0100
0010
1000
0001
0010
0100
1000
0001
0100
0010
1000
0001
,
0010
0100
1000
0001
0100
0010
1000
0010
0101
0000
0001
1010
0000
1000
0011
0000
,
0001
0010
0100
1000
0001
0100
1010
0000
1100
0000
0100
0011
0000
0001
1010
0000
,
1000
0100
0010
0001
1100
0000
0011
0000
2200
0000
0000
0000
0000
0000
0000
0000
,
3300
0000
0000
0000
;

//---------------dance-single - ----------------
#NOTES:
     dance-single:
     :
     Hard:
     9:
     0.863,0.847,0.436,0.371,0.515,564.000,47.000,40.000,0.000,0.000:
0000
0000
0000
0000
,
0000
0000
0000
0000
,
0000
0000
0000
0000
,
1000
0000
1000
0000
0001
0000
0100
0010
0000
0010
0100
0000
0001
0000
1000
0100
,
0010
0000
0001
0000
0100
0000
0010
0000
1000
0000
0001
0000
0010
1000
0010
0000
,
0100
0000
1000
0000
0001
0000
0100
0000
1000
0000
0100
0000
0001
1000
0000
1000
,
0001
0000
0010
0000
1000
0000
0010
0000
0001
0000
0100
0000
0010
0001
0010
0000
,
1000
0000
0000
0010
0000
0000
0100
0000
0000
0001
0000
0000
1000
0000
0000
0100
0000
0000
0010
0000
0001
0000
1000
0000
,
0001
0000
0100
0000
0010
0000
1000
0000
0001
0000
0010
0000
0100
0001
0100
0000
,
1000
0001
0100
0010
1000
0010
0001
0010
,
0100
0001
1000
0001
0010
0100
1000
0001
,
0100
0010
0000
0010
1000
0000
0100
0020
0000
0000
0100
0000
0100
0030
0100
0000
,
1000
1010
0000
0101
0000
0011
0100
1010
,
0000
0000
1010
0000
0100
0000
0001
0000
1000
0010
1000
0000
0100
0000
0010
0000
,
0100
0000
0010
0001
0000
0000
0011
0000
0000
0010
0100
0000
1000
0001
0010
0000
,
0100
0000
1000
0001
0010
0000
0100
1000
0000
0001
0100
0000
0010
0000
1010
0000
,
1000
1010
0000
0101
0000
0011
1000
0101
,
0000
1010
0100
0011
0000
0011
0001
0100
,
0010
0000
1000
0010
0000
0000
0100
0000
0000
0001
0010
0000
0100
0000
1000
0000
,
0010
0000
0000
0000
2010
0000
0000
0001
0000
3000
0010
0000
0100
0000
0001
0000
,
0100
0010
0100
0000
0010
0000
1000
0000
0001
0000
0010
0100
0000
1000
0001
0000
,
0100
0000
0010
0000
1000
0000
0001
0000
0010
0100
1000
0002
0000
0000
0103
0000
,
0010
0000
1000
0000
0010
0000
0100
0000
0001
0100
0000
0010
1000
0000
0001
0000
,
0010
0000
0100
0000
1000
0000
0001
0000
0100
0000
0010
0000
1000
0010
1000
0000
,
0001
0000
0010
0000
0001
0000
1000
0000
0001
0100
0000
0010
1000
0000
0010
0000
,
0100
0000
0001
0000
1000
0000
0001
0000
0010
0100
1000
0002
0000
0000
0103
0000
,
0010
0000
1000
0000
0001
0000
0010
0000
0100
1000
0000
0001
0010
0000
0100
0000
,
1000
0100
1000
0000
0010
0000
0100
0000
0001
1000
0020
0000
0000
0030
0100
0000
,
0101
0000
0001
0000
0010
0000
0100
1000
0000
0010
0000
0100
0001
0000
0010
0000
,
0200
0000
0010
0000
0000
0001
0000
0000
0010
0000
0300
2000
0000
0000
3001
0000
,
0011
0000
0001
0000
0100
0000
0010
1000
0000
0100
0000
0010
0001
0000
0100
0000
,
1000
0000
0100
0000
0001
0000
0100
0010
0100
0000
0010
0000
0001
0000
0010
0000
,
1000
0000
0100
0000
0010
0000
0001
0100
0000
0010
0000
1000
0001
0000
0010
0100
,
1000
0002
0000
0100
0000
0003
0200
0000
0000
1000
0000
0000
0310
0000
0100
0000
,
0101
0000
0002
0000
0000
0000
1003
0000
1100
0000
0000
0100
0010
0000
0010
0000
,
0001
0000
0010
0000
1000
0000
0010
0000
0100
0000
0001
0200
0000
0000
1300
0000
,
2001
0000
0001
0000
0001
0000
0000
3000
1010
0000
0200
0000
0001
0000
0000
0000
,
0010
0000
0310
0000
1000
0000
0001
0000
0010
0000
0100
1000
0100
0000
0010
0000
,
0120
0000
0100
0030
0120
0000
0000
0000
0001
0030
0011
0000
0000
0000
2100
0000
,
0000
3000
1020
0000
1000
0030
0010
0000
0210
0000
0001
0000
0001
0000
0300
0000
,
1002
0000
1000
0000
1000
0000
0000
0003
0101
0000
0020
0000
1000
0000
0000
0000
,
0100
0000
0130
0000
0001
0000
1000
0000
0100
0000
0010
0001
0010
0000
0100
0000
,
0210
0000
0010
0300
0210
0000
0000
0000
1000
0300
1100
0000
0000
0000
0012
0000
,
0000
0003
0201
0000
0001
0300
0100
0000
0120
0000
1000
0000
1030
0000
0100
0000
,
0010
0100
0010
0000
0100
0000
0001
0000
1000
0000
0100
0010
0000
0001
1000
0000
,
0010
0000
0100
0000
0001
0000
1000
0000
0100
0010
0001
2000
0000
0000
3010
0000
,
0100
0000
0001
0000
0100
0000
0010
0000
1000
0010
0000
0100
0001
0000
1000
0000
,
0100
0000
0010
0000
0001
0000
1000
0000
0010
0000
0100
0000
0001
0100
0001
0000
,
1000
0000
0100
0000
1000
0000
0001
0000
1000
0010
0000
0100
0001
0000
0100
0000
,
0010
0000
1000
0000
0001
0000
1000
0000
0100
0010
0001
2000
0000
0000
3010
0000
,
0100
0000
0001
0000
1000
0000
0100
0000
0010
0001
0000
1000
0100
0000
0010
0000
,
0001
0010
0001
0000
0100
0000
0010
0000
1000
0001
0200
0000
0000
0300
0010
0000
,
1010
0000
1000
0000
0100
0000
0010
0001
0000
0100
0000
0010
1000
0000
0100
0000
,
0020
0000
0100
0000
0000
1000
0000
0000
0100
0000
0030
0002
0000
0000
1003
0000
,
1100
0000
1000
0000
0010
0000
0100
0001
0000
0010
0000
0100
1000
0000
0010
0000
,
0001
0000
0010
0000
1000
0000
0010
0100
0010
0000
0100
0000
1000
0000
0100
0000
,
0001
0000
0010
0000
0100
0000
1000
0010
0000
0100
0000
0001
1000
0000
0100
0010
,
0001
2000
0000
0010
0000
3000
0020
0000
0000
0001
0000
0000
0130
0000
0010
0000
,
1010
0000
2000
0000
0000
0000
3001
0000
0011
0000
0000
0010
0100
0000
0100
0000
,
1000
0000
0100
0000
0001
0000
0100
0000
0010
0000
1000
0020
0000
0000
0032
0000
,
2000
0000
0000
0000
,
0000
0000
0000
0000
,
0000
3003
0000
0000
0110
0100
0010
1000
,
0001
0010
0001
0000
0100
0000
0010
0000
1000
0000
0001
0000
0010
0000
0100
0000
,
1000
0100
1000
0000
0010
0000
0100
0001
1000
0000
0001
0000
0010
0000
0100
0000
,
1000
0000
0001
0000
0100
0001
0100
0000
0010
0000
1000
0000
0001
0000
0010
0000
,
0100
0000
1000
0000
0001
1000
0001
1000
0001
0000
0100
0000
0010
0000
1000
0010
,
0100
0000
0010
0000
1000
0000
0001
0100
0010
0000
1000
0000
0001
0000
0010
0000
,
0100
1000
0100
0000
0010
0000
0001
0000
0100
0000
0010
0000
1000
0010
1000
0000
,
0001
0000
0100
0000
0010
1000
0010
0000
0100
0000
0001
0000
0010
0001
0010
0000
,
0100
0000
1000
0000
0001
0010
0001
1000
0100
0000
0000
0011
0000
0000
2100
0000
,
0000
3100
1000
0000
0010
0000
1000
0000
0101
0000
0000
1010
0000
0000
0201
0000
,
0000
0301
0100
0000
0010
0000
0110
0000
2002
0000
0000
0000
0000
0000
0000
0000
,
3003
0000
0000
0000
;
