#TITLE:The Storm;
#SUBTITLE:;
#ARTIST:Yanni;
#TITLETRANSLIT:;
#SUBTITLETRANSLIT:;
#ARTISTTRANSLIT:;
#CREDIT:ChaosUnown;
#BANNER:storm-bn.png;
#BACKGROUND:storm.png;
#LYRICSPATH:;
#CDTITLE:chaosunownCD.png;
#MUSIC:storm.ogg;
#OFFSET:-0.468;
#SAMPLESTART:58.220;
#SAMPLELENGTH:12.000;
#SELECTABLE:YES;
#BPMS:0.000=160.000;
#STOPS:;
#BGCHANGES:;
// cache tags:
#FIRSTBEAT:1.625;
#LASTBEAT:316.000;
#SONGFILENAME:Songs/Omnifarious/(ChaosUnown) The Storm/storm.sm;
#HASMUSIC:1;
#HASBANNER:1;
#MUSICLENGTH:123.883;
// end cache tags

//---------------dance-single - P. Mason----------------
#NOTES:
     dance-single:
     P. Mason:
     Challenge:
     12:
     1.000,1.000,0.016,0.387,1.000,867.000,2.000,48.000,46.000,0.000:

0000
0000
0000
0000
0000
0000
0000
0000
0000
0000
0000
0000
0000
000M
0000
0000
0000
0000
0000
0000
0000
0M00
0000
0000
0000
0000
0000
0000
0000
00M0
0000
0000
,
0000
0000
0000
0000
0000
0000
0000
0000
0000
0000
0000
0000
0000
0000
0000
0000
0000
0000
0000
0000
0000
0000
0000
0000
M000
0000
0000
0000
0000
0000
0000
0M00
,
0000
0000
0000
00M0
0000
0000
0000
0000
0000
0000
0000
0000
0000
0000
0000
0000
,
0000
0000
000M
0000
0000
0000
0000
0000
0000
0M00
0000
0000
0000
0000
0000
0000
00M0
0000
0000
0000
0000
0000
0000
0000
0000
0000
0000
0000
0000
0000
0000
0000
,
0000
0000
0000
0000
0000
0000
0000
0000
0000
0000
0000
0000
0000
0000
M000
0000
0000
0000
0000
0000
0000
000M
0000
0000
0000
0000
0000
0000
0000
00M0
0000
0000
,
0000
0000
0000
0000
,
0000
0M00
0000
0000
0000
0000
0000
0000
0000
0000
0000
0000
0000
0000
0000
0000
,
0000
0000
0000
0000
,
1000
1000
1000
1000
,
0100
0100
0100
0100
,
0010
0010
0001
0001
0100
0100
0010
0010
,
1000
0001
1000
0001
0100
0001
0100
0001
0100
0010
0100
0010
1000
0001
1000
0001
,
0M10
0000
0000
0000
,
0MM1
1000
0010
1000
0010
1000
0001
1000
0100
0010
0001
0010
0001
0010
0100
0010
,
0001
1000
0010
1000
0010
1000
0100
1000
0001
0010
0100
0010
0100
0010
0001
0010
,
0100
1000
0001
1000
0001
1000
0100
1000
0001
0100
0010
0100
0001
0100
0010
0100
,
0001
1000
0100
1000
0100
1000
0001
1000
0010
0100
0001
0100
0001
0100
0010
1000
,
0001
0010
0100
0010
0100
0010
0001
1000
0010
0100
0001
0100
0010
0100
0001
0100
,
0010
1000
0001
1000
0001
1000
0100
1000
0010
0100
0001
0100
0001
0100
0010
1000
,
0001
0010
0100
0010
0001
0010
0100
0010
0001
1000
0010
1000
0010
1000
0001
1000
,
0100
0010
0001
0010
0001
0010
0100
0010
0001
1000
0010
1000
0001
1000
0010
1000
,
0001
0000
0000
0100
0000
0000
0010
0000
0000
0100
0000
0000
0010
0000
0000
0100
0000
0000
0001
0000
0000
1000
0000
0000
0001
0000
0000
1000
0000
0100
0000
1000
0000
0100
0000
0000
0010
0000
0000
0001
0000
0000
1000
0000
0000
0010
0000
0000
,
0100
0001
1000
0001
1000
0001
0010
0001
0100
0010
1000
0010
1000
0010
0100
0010
,
1M00
0001
0010
0001
0010
0001
1000
0001
0100
0010
1000
0010
1000
0010
0100
0001
,
1000
0100
0010
0100
0010
0100
1000
0001
0100
0010
1000
0010
1000
0010
0100
0001
,
1000
0001
0010
0001
0010
0001
1000
0001
0100
0010
0100
0010
0100
0010
1000
0001
,
0010
0100
1000
0100
1000
0100
0010
0001
1000
0010
0100
0010
0100
0010
1000
0001
,
10M0
0100
0010
0001
1000
0010
0100
0001
1000
0100
0010
0100
1000
0001
0100
0010
,
1000
0001
0010
0100
0010
0001
1000
0010
1000
0001
0010
0100
1000
0001
0010
0001
,
1M00
0010
0100
0001
1000
0100
1000
0001
0100
0001
1000
0010
1000
0001
0100
0001
,
0010
0100
0010
0001
1000
0001
1000
0010
1000
0001
0010
0001
1000
0100
0010
0001
,
1M00
0010
0000
0010
0100
0000
0001
1000
0100
1000
0000
1000
0001
0000
0100
0010
,
1000
0010
0000
0010
0100
0000
0001
1000
0100
0010
0000
0010
0100
0000
1000
0001
,
0100
0010
0000
0010
1000
0000
0100
0010
0001
0010
0000
0010
0100
0000
1000
0001
,
0100
0010
0000
0010
1000
0000
0100
0010
0100
1000
0000
1000
0001
0000
0100
0001
,
1000
0100
0000
0100
0010
0000
0001
1000
0010
1000
0000
1000
0100
0000
0010
0001
,
1000
0010
0000
0010
0100
0000
0001
1000
0001
0010
0000
0010
0100
0000
1000
0001
,
1000
0010
0100
0000
0001
0100
0000
0100
0000
0001
0100
0000
0001
0100
0000
0100
,
0000
0001
1000
0000
0001
1000
0000
1000
0000
0001
0100
0000
0010
0100
0010
0000
,
2000
0000
0000
0000
0000
3200
0000
0320
,
0000
0031
1000
0100
2000
0000
0000
0000
3001
0000
0100
0000
0010
0000
1000
0001
,
1000
0000
0000
0000
0000
0000
0100
0000
0000
0010
0000
0000
0001
0000
1000
0000
0001
0000
1000
0000
0000
0010
0000
0000
0200
0000
0000
0000
0000
0000
0302
0000
0000
0000
0000
0000
0023
0000
0000
0000
0000
0000
0000
0000
0000
0230
0000
0000
,
0000
0304
0000
0000
0000
0000
0000
0000
,
0103
0000
1000
0001
0100
0000
0020
0000
0000
2030
0000
0000
3200
0000
0320
0000
,
0230
0000
0000
0000
0000
0000
0000
0000
0000
0000
0000
0000
0000
0000
0000
0000
0000
0000
0000
0000
0000
0000
0000
0000
1300
0000
0000
0000
0000
0000
0000
0000
0001
0000
0000
0000
0000
0000
0000
0000
1000
0000
0000
0000
0000
0000
0000
0000
0020
0000
0000
0000
0000
0000
0000
0000
0000
0000
0000
0000
0000
0000
0000
0000
0000
0000
0000
0000
0000
0000
0000
0000
0000
0000
0000
0000
0000
0000
0000
0000
0000
0000
0000
0000
2030
0000
0000
0000
0000
0000
0000
0000
0000
0000
0000
0000
0000
0000
0000
0000
0000
0000
0000
0000
0000
0000
0000
0000
3020
0000
0000
0000
0000
0000
0000
0000
0000
0000
0000
0000
0000
0000
0000
0000
0000
0000
0000
0000
0000
0000
0000
0000
0000
0000
0000
0000
0000
0000
0130
0000
0000
0000
0000
0000
0000
0000
0000
0000
0000
0000
0000
0000
0000
0000
0000
0000
0010
0000
0000
0000
0000
0000
0000
0000
0000
0000
0000
0000
1000
0000
0000
0000
0000
0000
0000
0000
0000
0000
0000
0000
0001
0000
0000
0000
0000
0000
0000
0000
0000
0000
0000
0000
,
0020
0000
0000
0000
0000
0000
0000
0000
0000
0000
0000
0000
0000
0000
0000
0000
0000
0000
0230
0000
0000
0000
0000
0000
0000
0000
0000
0000
0000
0000
0000
0000
0000
0000
0000
0000
2300
0000
0000
0000
0000
0000
0000
0000
0000
0000
0000
0000
0000
0000
0000
0000
0000
0000
0000
0000
0000
0000
0000
0000
0000
0000
0000
0000
0000
0000
0000
0000
0000
0000
0000
0000
3001
0000
0000
0000
0000
0000
0000
0000
0100
0000
0000
0000
0000
0000
0000
0000
0001
0000
0000
0000
0000
0000
0000
0000
2000
0000
0000
0000
0000
0000
0000
0000
0000
0000
0000
0000
0000
0000
0000
0000
0000
0000
0000
0000
0000
0000
0000
0000
3001
0000
0000
0000
0000
0000
0000
0000
0100
0000
0000
0000
0000
0000
0000
0000
0001
0000
0000
0000
0000
0000
0000
0000
2000
0000
0000
0000
0000
0000
0000
0000
0000
0000
0000
0000
0000
0000
0000
0000
0000
0000
0000
0000
0000
0000
0000
0000
0000
0000
0000
0000
0000
0000
0000
0000
0000
0000
0000
0000
0000
0000
0000
0000
0000
0000
0000
0000
0000
0000
0000
0000
,
3100
0000
0010
0001
1000
0000
0010
0000
0100
0000
0001
0010
0100
1000
0001
0100
,
M020
0000
0000
2030
0000
0000
3002
0000
0023
0000
0000
0000
0032
0000
0023
0000
,
0032
0000
0000
0023
0000
0000
0230
0000
0000
0000
0300
0000
1000
0000
0010
0100
,
0001
0000
0000
0200
0000
0000
2300
0000
0000
0000
3200
0000
0302
0000
0023
0000
,
0032
0000
0000
0023
0000
0000
0230
0000
0000
0000
0000
0300
0000
0000
0000
0000
0000
0000
0000
0000
0020
0000
0000
0000
0000
0000
0000
0000
0032
0000
0000
0000
,
2003
0000
0000
3010
0200
0000
0000
0301
0020
0000
0000
0031
1000
0100
0010
0001
,
1000
0010
0100
0001
1000
0010
0100
0010
1000
0001
0010
0100
1000
0001
0100
0010
,
1000
0001
0020
0000
0000
0000
0000
0000
0000
0000
0032
0000
0000
2003
0000
0000
,
3040
0000
0000
0000
0000
0000
0030
0000
0000
0000
0000
0000
0000
0020
0000
0000
,
1030
0100
0010
0100
1000
0001
0100
0001
1000
0010
0100
0010
1000
0001
0010
0001
,
2000
0M00
00M0
000M
0M00
00M0
000M
0M00
00M0
000M
0M00
00M0
000M
0M00
00M0
000M
0M00
00M0
000M
0M00
00M0
000M
0M00
00M0
,
3001
0100
0001
0100
0001
0100
0001
0100
0010
1000
0001
1000
0001
1000
0001
1000
,
0100
0010
0001
0010
0001
0010
0001
0010
0100
1000
0010
1000
0010
1000
0010
1000
,
0001
0010
0100
0010
0100
0010
0100
0010
0001
1000
0010
1000
0010
1000
0010
1000
,
0100
0000
0000
0010
0000
0000
0001
0000
0000
0010
0000
0000
0001
0000
0000
0010
0000
0000
0001
0000
0000
0010
0000
0000
0100
0000
0000
1000
0000
0001
0000
1000
0000
0001
0000
0000
0100
0000
0000
0010
0000
0000
1000
0000
0000
0001
0000
0000
,
0010
0001
1000
0010
0100
0010
1000
0001
0010
0100
1000
0001
0100
0010
0100
0010
,
1000
0001
0010
0100
0010
0001
1000
0010
1000
0001
0010
0100
1000
0001
1000
0001
,
1000
0010
0100
0001
0100
0010
1000
0001
0010
0100
0010
0001
1000
0010
1000
0010
,
0100
0001
1000
0100
0010
0001
1000
0010
1000
0001
0010
0100
1000
0001
1000
0001
,
1000
0010
0100
0001
0100
0010
1000
0001
0010
0100
0010
0001
1000
0010
1000
0010
,
0100
0000
0000
0001
0000
0000
0100
0000
0000
0001
0000
0000
1000
0000
0000
0100
0000
0000
1000
0000
0000
0100
0000
0000
0010
0000
0000
0100
0000
1000
0000
0100
0000
1000
0000
0000
0001
0000
0000
0100
0000
0000
0010
0000
0000
0100
0000
0000
,
0001
1000
0100
0010
0001
1000
0001
0100
0010
1000
0100
0010
0001
0000
0000
0000
,
1000
0000
0000
0100
0000
0000
0010
0000
0000
0001
0000
0000
1000
0000
0000
0010
0000
0000
1000
0000
0000
0001
0000
0000
0010
0000
0000
0100
0000
0010
0000
0100
0000
0010
0000
0000
0001
0000
0000
1000
0000
0000
0000
0000
0000
0000
0000
0000
,
0010
0100
0001
1000
0100
0010
0001
1000
0010
1000
0001
0010
0100
0000
0000
0000
,
1000
0100
0010
0001
1000
0010
0100
0001
0100
0010
1000
0001
0010
0000
0000
0000
,
0100
0000
0000
1000
0000
0000
0001
0000
0000
0100
0000
0000
0010
0000
0000
1000
0000
0000
0001
0000
0000
0010
0000
0000
0001
0000
0000
1000
0000
0100
0000
1000
0000
0100
0000
0000
0010
0000
0000
0001
0000
0000
0000
0000
0000
0000
0000
0000
,
1M00
0001
1000
0001
1000
0100
1000
0100
0010
0001
0010
0001
1000
0010
1000
0010
,
0100
0001
1000
0100
0010
0001
1000
0010
0100
0001
0010
0100
1000
0100
1000
0001
,
0100
0010
1000
0001
0010
0100
0010
0001
1000
0010
1000
0001
0010
0100
1000
0001
,
0100
0000
0000
0100
0000
0000
0100
0000
0100
0000
0000
0100
0000
0000
0100
0000
,
0110
0000
0000
0010
0000
0000
0010
0000
0010
0000
0000
0010
0000
0000
0010
0000
,
1000
0000
0000
1000
0000
0000
1000
0000
1000
0000
0000
1000
0000
0000
1000
0000
,
0001
0010
0001
0010
0100
1000
0100
1000
0001
0100
0001
0100
0010
0100
0010
1000
,
0M01
0000
0000
0000
;
