#TITLE:The Flame Of Youth;
#SUBTITLE:;
#ARTIST:Dragonforce;
#TITLETRANSLIT:;
#SUBTITLETRANSLIT:;
#ARTISTTRANSLIT:;
#CREDIT:;
#BANNER:(cerdo_claro)the flame of youth-bn.PNG;
#BACKGROUND:(cerdo_claro)the flame of youth-bg.PNG;
#LYRICSPATH:;
#CDTITLE:cdtitle.png;
#MUSIC:(cerdo_claro)the flame of youth.mp3;
#OFFSET:0.874;
#SAMPLESTART:134.204;
#SAMPLELENGTH:28.220;
#SELECTABLE:YES;
#BPMS:0.000=200.000,1078.000=100.000,1082.000=200.000,1162.000=100.000,1176.000=400.000,1184.000=200.000,1280.000=195.000,1285.000=203.000,1294.000=200.000;
#STOPS:;
#BGCHANGES:;
// cache tags:
#FIRSTBEAT:3.625;
#LASTBEAT:1316.125;
#SONGFILENAME:Songs/toune 3/(cerdo_claro) The flame of youth/(cerdo_claro)the flame of youth.sm;
#HASMUSIC:1;
#HASBANNER:1;
#MUSICLENGTH:401.235;
// end cache tags

//---------------dance-single - Blank----------------
#NOTES:
     dance-single:
     Blank:
     Hard:
     14:
     1.000,1.000,1.000,0.234,1.000,3399.000,888.000,94.000,90.000,32.000:
0000
0000
0000
0000
0000
0000
0000
0000
0000
0000
0000
0000
0000
0000
0000
0000
0000
0000
0000
0000
0000
0000
0000
0000
0000
0000
0000
0000
0000
2200
0000
0000
,
0000
0000
0000
0000
,
3311
1000
0010
0001
1000
0100
0001
1000
,
0010
0001
1000
0101
0101
1000
0010
0001
,
1000
0010
0001
1000
0100
0001
1000
0010
,
0101
1000
0010
0001
1000
0010
0001
1000
,
0100
0001
1000
0011
0011
1000
0010
0001
,
1000
0000
0100
0000
0001
0000
0011
0000
0000
0000
0000
0110
0000
0000
0000
0000
,
1100
0001
0010
1000
0001
0100
1000
0001
,
0010
1000
0001
1100
1100
0001
0100
1000
,
0001
0010
1000
0001
0010
1000
0001
0100
,
1001
0001
0010
1000
0001
0010
1000
0001
,
0100
1000
0001
1100
1100
0001
0100
1000
,
0001
0000
0000
0000
0000
0000
0010
0000
0000
0000
0000
0000
0011
0000
0000
1000
0000
0000
0010
0000
0001
0000
0000
0000
1000
0000
0000
0000
0010
0000
0000
0000
0100
0000
0000
0000
0001
0000
0000
0000
1000
0000
0000
0000
0010
0000
0000
0000
,
0101
0110
1001
1010
0000
0011
0011
0000
,
1100
0000
0110
0000
1100
1010
0011
1001
,
0000
0110
0110
0000
1100
0000
0011
0000
,
1100
0110
0011
1001
0000
1100
1010
0000
,
0110
0000
0101
0000
0101
0110
1001
1010
,
0000
0011
0011
0000
1100
0000
0110
0000
,
1100
1010
0011
1001
0000
0110
0110
0000
,
1100
0000
0012
0000
1103
0110
0011
1001
,
0000
1100
1010
0000
0110
0000
0012
0000
,
1103
0110
0011
1000
0010
0001
1000
0010
,
0001
0000
1000
0000
0100
0000
0001
0000
0001
0010
0100
1000
0001
0000
0100
0000
,
1000
0000
0000
0001
0000
0000
0010
0000
0000
1000
0000
0000
0001
0000
0000
1000
0000
0000
0001
0000
1000
0000
0010
0000
,
2100
0010
0001
0100
0010
0100
0001
0000
,
3011
0000
1000
0000
0010
0000
0102
0000
0000
1000
0000
0000
0010
0000
0000
0100
0000
0000
1000
0000
0000
0010
0000
0000
,
0103
0100
2000
0000
0001
0001
3010
1000
,
0011
0100
1010
0001
0100
1000
0001
0010
,
1000
0001
0100
1000
0001
1000
0001
0010
,
0001
0000
0100
0000
0010
0000
0100
0000
1000
0000
0100
0010
0001
1000
0100
0010
,
0101
1000
0010
0001
1000
0100
0001
1000
,
0010
0000
0001
0000
1000
0010
0100
0010
0101
0000
1000
0000
0010
0000
0001
0000
,
1000
0010
0100
0010
0101
0000
1000
0000
0010
0000
0001
0000
1000
0000
0010
0000
,
0001
0010
1000
0001
0010
1000
0010
0001
,
1000
0000
0000
0100
0000
0000
0001
0000
0000
0100
0000
0000
1000
0100
0010
0001
0010
0100
1000
0010
0100
0001
1000
0001
,
0010
0000
0000
0100
0000
0000
1000
0000
0000
0010
0000
0000
0100
0000
0000
0001
0000
0000
1000
0000
0000
0010
0000
0000
0100
0000
0000
0001
0000
0000
1000
0000
0000
0010
0000
0000
0100
0000
0001
0000
0010
0000
0100
0000
1000
0000
0001
0000
,
2200
0000
0000
0000
,
0000
0000
0000
3300
0011
0000
0011
1010
,
1001
0000
0011
0110
0000
0011
0110
1001
,
2020
0000
3131
0000
0110
0000
0011
0110
,
1001
0000
0011
0101
0000
0110
0101
1010
,
2002
0000
0010
0000
3113
0000
1000
0000
0011
0100
1000
0010
0001
0100
1000
0010
,
0001
1000
0100
0001
0010
0100
1000
0001
0010
0100
1000
0010
0001
0100
1000
0010
,
0100
0001
1000
0100
1000
0001
1000
0001
0110
0000
1100
0000
0011
0000
0110
0000
,
0000
1100
0110
0011
1100
0110
0110
2002
,
0000
0000
0100
0000
3103
0000
0100
0000
0001
1000
0010
0001
1000
0010
0001
1000
,
0100
0010
0001
1000
0001
0100
1000
0010
0100
0001
1000
0010
0001
1000
0010
0100
,
0011
0000
0000
0000
0110
0000
0000
0000
2000
0010
0100
3001
0100
1000
0010
0001
,
1000
0001
1000
0100
0010
0001
1000
0010
0001
0100
1000
0010
0100
0001
1000
0010
,
0101
0000
0000
0000
0000
0000
1010
0000
0000
0000
0000
0000
0001
0010
0100
1000
0100
0010
0001
0010
0100
1000
0100
0010
,
0001
1000
0001
0100
0010
0100
0001
1000
0001
0100
0010
0100
0001
0010
0001
1000
0001
0010
0001
1000
0001
0010
0001
0100
,
0001
0000
0010
0000
0100
0000
1000
0000
0100
0000
0010
0000
0001
0000
0010
0000
0100
0000
1000
0000
0100
0000
0010
0000
0001
0000
0000
0010
0000
0000
0100
0000
0000
1000
0000
0000
0010
0000
0000
0100
0000
0000
0001
0000
0000
1000
0000
0000
,
0010
0000
0000
0001
0000
0000
0100
0000
0000
1000
0000
0000
0010
0000
0000
0100
0000
0000
0001
0000
0000
1000
0000
0000
0001
0000
0010
0000
0100
0000
1000
0000
0100
0000
0010
0000
0001
0000
0100
0000
0010
0000
1000
0000
0001
0000
1000
0000
,
0010
0000
0100
0000
0010
0000
1000
0000
0001
0000
0100
0000
0010
0000
1000
0000
0010
0000
0100
0000
0001
0000
1000
0000
0011
0000
0000
0000
0000
0000
0000
0000
0000
0001
0000
0000
0000
0000
0000
0010
0000
0000
0000
0000
0000
1000
0000
0000
,
0000
0000
0000
0001
0000
0010
0000
1000
0000
0000
0000
0010
0000
0100
0000
2002
,
0000
3003
0000
0110
0000
0000
0000
0110
0000
0000
0000
0000
0001
0000
0010
0000
,
1000
0000
0001
0010
1000
0000
0001
0100
,
1001
0100
0010
0001
1010
0000
0000
0000
0011
1000
0011
0000
0011
0000
0011
0000
,
0011
0000
0011
0000
0011
0000
0011
0100
1010
0000
1010
0000
1010
0000
1010
0000
,
1010
0000
1010
0000
1010
0000
1010
0001
0110
0000
0110
0000
0110
0000
0110
0000
,
0110
0000
0110
0000
0110
0000
0110
0000
0001
1000
0001
2000
0000
3000
0001
1000
,
0001
1000
0001
2000
0000
3000
0000
0000
0110
0000
0000
0000
0001
0000
0000
0000
,
0001
0001
0001
0001
,
0001
0011
0011
0001
,
0001
0001
0001
0001
,
0001
0000
0011
0000
0011
0110
1100
0011
,
0110
1100
1100
0110
1001
1100
0110
0011
,
1100
0000
0000
0000
0000
0000
0110
0000
0000
0000
0000
0000
0011
0000
0000
0000
0000
0000
1100
0000
0000
0000
0000
0000
0001
0000
0010
0000
0100
0000
1000
0000
0000
0100
0000
0000
0010
0000
0000
0001
0000
0000
1000
0000
0000
0010
0000
0000
,
0001
1000
0010
0000
1001
0000
0110
0000
1000
0001
1000
0002
0000
0000
0000
0003
,
1000
0001
1000
0002
0000
0000
0000
0000
1013
0000
0100
0000
0011
0000
0110
0000
,
1001
0010
0110
1001
0110
1001
0010
1001
,
0100
1010
1001
0100
0011
1000
0011
0110
,
1001
0100
0011
1001
0110
0101
0000
0210
,
0000
0000
0000
0000
0311
1000
0110
1001
,
0110
0001
1001
1010
0110
0101
1000
0011
,
0100
0000
0000
1010
0000
0000
0101
0000
0000
0000
0000
0000
0110
0000
0000
0000
1100
0000
0000
0000
0011
0000
0000
0000
,
0110
0000
0000
0000
0000
0000
0000
0000
0011
0000
0000
0000
0000
0000
0000
0000
1100
0000
0000
0000
0000
0000
0000
0000
1001
0000
0000
1000
0000
0000
0001
0000
0000
1000
0000
0000
0001
0000
0000
1000
0000
0000
0001
0000
0000
1000
0000
0000
,
0001
1000
0001
1000
0001
1000
0001
1000
0011
1000
0010
0100
0001
1000
0010
0001
,
1000
0010
1000
0001
0100
0001
0010
0001
0100
0010
0001
1000
0010
0100
0001
1000
,
0100
0010
0001
1000
0010
0100
0001
1000
0011
1000
0010
0100
0001
0010
0100
0010
,
0001
1000
0010
0100
0001
1000
0001
0100
0010
0001
1000
0010
0100
0001
0100
0001
,
0010
0001
1000
0010
0001
1000
0100
0001
1100
0001
0010
0100
0001
1000
0010
0100
,
0001
1000
0010
0100
0001
0010
1000
0001
0100
1000
0001
0010
1100
0000
0000
0000
,
0101
0000
0001
0100
1010
0100
0001
1000
0011
1000
0001
1000
0001
1000
0011
0100
,
0010
0100
0010
0100
0011
1000
0100
1000
0011
0100
0010
0100
0011
0100
1001
0010
,
0100
0010
0100
0010
0101
0010
1000
0001
0110
1000
0001
0100
1010
0001
0110
1000
,
0001
0000
0000
0100
0000
0000
0010
0000
0000
1000
0000
0000
0011
0000
0000
0100
0000
0000
0010
0000
0000
1000
0000
0000
0011
0000
0000
0000
1000
0000
0000
0000
0010
0000
0000
0000
0100
0000
0000
0000
0001
0000
0000
0000
1000
0000
0000
0000
,
0011
0000
0000
0000
0100
0000
0000
0000
1000
0000
0000
0000
0110
0000
0000
0000
0001
0000
0000
0000
1000
0000
0000
0000
0011
0000
0000
0100
0000
0000
0010
0000
0000
0100
0000
0000
0011
0000
0000
0100
0000
0000
1010
0000
0000
0001
0000
0000
,
0100
1000
0010
0100
0011
1000
0001
0010
1100
0010
0100
0010
1100
0001
0110
0001
,
1000
0010
0100
0001
1100
0010
0001
1000
0011
0100
0001
0100
1010
0001
0110
1000
,
0001
0000
0000
1000
0000
0000
0011
0000
0000
0100
0000
0000
0010
0000
0000
0100
0000
0000
0011
0000
0000
1000
0000
0000
0110
0000
0001
0000
0010
0000
0100
0000
1000
0000
0010
0000
0100
0000
0001
0000
1000
0000
0001
0000
1000
0000
0100
0000
,
0011
0000
0110
0000
2001
0001
0000
0110
,
3000
0011
2001
3100
,
0011
0000
0000
0000
1100
0000
0000
0000
0001
1000
0001
1000
0001
1000
0010
0100
,
0001
1000
0010
0100
0001
1000
0100
0010
0001
1000
0100
0010
0001
1000
0001
1000
,
0001
1000
0010
0100
0001
0010
1000
0010
1100
0000
0000
0000
1001
0000
0000
0000
,
0000
0110
0000
0000
0012
0000
0000
0003
,
1100
0000
0000
0000
0110
0000
0000
0000
0001
0010
0100
1000
0010
0100
0001
1000
,
0010
0000
0000
0100
0000
0000
0001
0000
0000
1000
0000
0000
0110
0000
0000
0000
0000
0000
0000
0000
0000
0000
0000
0000
1000
0000
0100
0000
0010
0000
0001
0000
0010
0000
0100
0000
1000
0000
0000
0100
0000
0000
0010
0000
0000
0001
0000
0000
,
1100
0000
0110
0000
0011
1000
0110
1001
,
0010
0100
0011
1000
0011
0100
1010
1001
,
0010
0100
1010
0100
0011
1000
0011
0110
,
0001
1000
0110
0001
1001
0100
0110
0110
,
0001
0000
1000
0000
1100
0000
0010
0000
1001
1000
0001
1000
0001
1000
0001
1000
,
0001
1000
0001
1000
0001
1000
0001
1000
0011
1000
0001
1000
0001
1000
0001
1000
,
0001
1000
0001
1000
0001
1000
0001
1000
0011
0000
0000
0100
0010
0100
1001
0000
,
0000
0000
0000
0100
0000
0000
0010
0000
0000
0100
0000
0000
1001
0000
0000
0000
0000
0000
0100
0000
0000
0000
0000
0000
0001
0000
0010
0000
0100
0000
1000
0000
0000
0010
0000
0000
0100
0000
0000
0001
0000
0000
1000
0000
0000
0010
0000
0000
,
0001
0000
0010
0000
0100
0000
1000
0000
0000
0010
0000
0000
0100
0000
0000
0001
0000
0000
1000
0000
0000
0010
0000
0000
1100
0000
0000
0000
0000
0000
0001
0000
0000
0000
0000
0000
0110
0000
0000
0000
0000
0000
1000
0000
0000
0000
0000
0000
,
0110
0001
0101
1000
0110
0001
1000
0011
,
0100
0001
1010
0010
0101
0010
0001
1010
,
0100
0000
0010
0000
0101
0000
1000
0000
0110
0000
0000
0000
0001
1000
0001
0000
,
1000
0001
1000
0010
0100
0001
1000
0010
0101
0000
0010
0000
1001
0000
0110
0000
,
1001
0010
0110
0001
1100
0010
1010
0101
,
0001
1000
0011
0100
1001
0001
0110
1010
,
0010
0000
0000
0000
0000
0000
0100
0000
0000
0000
0000
0000
0011
0000
0000
0000
0000
0000
0010
0000
0000
0000
0000
0000
1100
0000
0000
0001
0000
0000
1000
0000
0000
0000
0000
0000
0001
0000
0000
0000
0100
0000
0000
0000
0010
0000
0000
0000
,
1000
0000
0000
0000
0010
0000
0000
0000
0100
0000
0000
0000
0001
0000
0000
0000
1000
0000
0000
0000
0001
0000
0000
0000
1100
0000
0000
0010
0000
0000
0100
0000
0000
0010
0000
0000
0101
0000
0000
1000
0000
0000
0010
0000
0000
1000
0000
0000
,
0110
0001
1000
0001
0110
0001
0010
0001
1010
0100
0010
0100
0010
0100
1010
0001
,
0100
0001
0100
0001
0110
1000
0010
1000
0101
0010
0100
0010
0100
0010
1100
0001
,
0100
0010
1000
0010
0101
0010
1000
0001
0110
1000
0010
0100
0011
1000
0110
0001
,
1000
0010
0100
0010
0100
0001
1000
0010
0101
0000
1000
0000
0110
0000
1001
0000
,
0110
0000
0001
0000
0101
0000
0010
0001
1100
0000
0010
0000
1010
0000
0100
0000
,
0011
1000
1010
1000
1001
0010
0110
0011
,
1010
0001
1010
0100
0011
1000
0011
0100
,
0011
0000
1000
0000
0101
0000
0010
0000
1001
0100
0010
1000
0110
1000
0011
0100
,
0011
1000
0010
0100
0011
1000
0001
0010
1100
0001
1000
0010
1100
0001
1000
0010
,
0101
0010
1000
0010
0101
0010
1000
0010
1100
0001
1000
0001
1000
0001
1100
0010
,
0100
0001
1000
0010
0101
0000
0000
0000
0110
0000
0000
0000
0000
0000
1001
0000
,
0000
0000
1100
0000
0011
1100
1100
0110
,
0011
1100
0110
0011
1100
1100
0110
0011
,
1100
0110
0011
1100
0011
0000
0011
1010
,
1001
0000
0011
0110
0000
0011
0110
1001
,
2020
0000
3131
0000
0110
0000
0011
0110
,
1001
0000
0011
0101
0000
0110
0101
1010
,
2002
0000
0010
0000
3113
0000
1000
0000
0011
0100
1000
0010
0001
0100
1000
0010
,
0001
1000
0100
0001
0010
0100
1000
0001
0010
0100
1000
0010
0001
0100
1000
0010
,
0100
0001
1000
0100
1000
0001
1000
0001
0110
0000
1100
0000
0011
0000
0110
0000
,
0000
0000
1100
0000
0110
0000
0011
0000
1100
0010
0001
1000
0001
0100
2000
0001
,
0010
0000
0000
0001
0000
0000
0010
0000
0000
0001
0000
0000
3010
0000
0000
0000
0100
0000
0000
0000
1000
0000
0000
0000
0001
0000
0000
1000
0000
0000
0010
0000
0000
0001
0000
0000
1000
0000
0000
0010
0000
0000
0001
0000
0000
1000
0000
0000
,
0100
0010
0001
1000
0001
0100
1000
0010
0100
0001
1000
0010
0001
1000
0010
0100
,
0011
0000
0000
0000
0010
0010
0010
0010
2000
0010
0100
3001
0100
1000
0010
0001
,
1000
0001
1000
0100
0010
0001
1000
0010
0001
0100
1000
0010
0100
0001
1000
0010
,
0101
0000
0000
0000
0000
0000
1010
0000
0000
0000
0000
0000
0001
0010
0100
1000
0100
0010
0001
0010
0100
1000
0100
0010
,
0001
1000
0001
0100
0010
0100
0002
0000
0000
0000
0000
0000
1003
0010
0001
1000
0001
0010
0001
1000
0001
0010
0001
0100
,
0001
0000
0010
0000
0100
0000
1000
0000
0100
0000
0010
0000
0002
0000
0000
0000
0000
0000
0000
0000
0000
0000
0000
0000
1003
0000
0000
0100
0000
0000
0010
0000
0000
0001
0000
0000
0100
0000
0000
0010
0000
0000
1000
0000
0000
0001
0000
0000
,
0100
0000
0000
1000
0000
0000
0010
0000
0000
0001
0000
0000
0100
0000
0000
0010
0000
0000
1000
0000
0000
0001
0000
0000
1000
0000
0100
0000
0010
0000
0001
0000
0010
0000
0100
0000
1000
0000
0010
0000
0100
0000
0001
0000
1000
0000
0001
0000
,
0100
0010
0100
0001
1000
0010
0100
0001
0100
0010
1000
0001
1100
0000
0000
0001
0000
0000
1100
0000
0000
0110
0000
0000
,
1001
0010
1100
0110
1001
0100
0011
0110
,
1001
0100
1100
0000
1100
0001
1100
0110
,
1001
0010
1100
0110
1001
0010
0101
1010
,
1001
0000
0100
0000
0101
0000
1010
0000
1100
0001
0100
0010
1100
0001
0100
0010
,
0101
1000
0010
0100
0011
1000
0010
0100
1010
0100
1000
0010
0101
0010
1000
0100
,
0011
1000
0010
0100
1001
0010
0100
0001
1100
0010
0100
0001
0110
1000
0010
0100
,
1010
0000
0000
0100
0000
0000
0001
0000
0000
1000
0000
0000
0110
0000
0000
0000
0000
0000
0100
0000
0000
0000
0000
0000
1000
0000
0100
0000
0010
0000
0001
0000
0010
0000
0100
0000
1000
0000
0100
0000
0010
0000
0001
0000
0010
0000
0100
0000
,
1000
0100
0010
0001
0010
0100
1000
0100
0010
0001
0010
0100
1001
0000
0000
0010
0000
0000
1100
0000
0000
0110
0000
0000
,
1001
0100
0110
1001
0110
1001
0100
1001
,
0010
0101
1001
0010
1100
0001
1100
0110
,
1001
0010
1100
1001
0110
1010
0000
0120
,
0000
0000
0000
0000
1130
0001
0110
1001
,
0110
1000
1001
0101
0110
1010
0001
1100
,
0011
0000
0000
0000
0100
0000
0000
0000
0001
0000
0000
0000
1100
0000
0000
0000
0000
0000
0000
0000
0000
0000
0000
0000
1001
0000
0000
0001
0000
0000
1000
0000
0000
0001
0000
0000
1000
0000
0000
0001
0000
0000
1000
0000
0000
0001
0000
0000
,
1000
0001
1000
0001
1000
0001
1000
0001
1100
0001
0100
0010
1000
0001
0100
1000
,
0001
0100
0001
1000
0010
1000
0100
1000
0011
0100
1000
0001
1100
0010
1000
0001
,
0010
0100
1000
0001
0100
0010
1000
0001
1100
0001
0100
0010
1000
0100
0010
0100
,
1000
0001
0100
0010
1000
0001
1000
0010
0110
1000
0001
0100
0011
1000
0011
1000
,
0100
1000
0011
0100
1000
0001
0010
1000
0011
1000
0100
0010
1100
0001
1100
0010
,
0000
0001
0100
0010
1000
0100
0001
1000
0010
0001
1000
0100
0011
0100
1010
0001
,
1100
0000
1000
0010
0101
0010
1100
0001
1100
0001
1000
0001
1000
0001
0100
0010
,
1100
0000
0110
0000
1002
1000
0000
0110
,
0003
1100
1002
0013
,
1100
0000
0000
0000
0011
0000
0000
0000
1000
0001
1000
0001
1000
0001
0100
0010
,
1000
0001
0100
0010
1000
0001
0010
0100
1000
0001
0010
0100
1000
0001
1000
0001
,
1000
0001
0100
0010
1000
0100
0001
0100
0011
0000
0000
0000
1001
0000
0000
0000
,
0001
0000
0001
0000
2100
0000
0000
3000
,
0011
0000
0000
0000
0110
0000
0000
0000
1000
0100
0010
0001
0100
0010
1000
0001
,
0100
0000
0000
0010
0000
0000
1000
0000
0000
0001
0000
0000
0110
0000
0000
0000
0000
0000
0000
0000
0000
0000
0000
0000
0001
0000
0010
0000
0100
0000
1000
0000
0100
0000
0010
0000
0001
0000
0000
0010
0000
0000
0100
0000
0000
1000
0000
0000
,
0011
0000
0110
0000
1100
0001
0110
1001
,
0100
0010
1100
0001
1100
0010
0101
1001
,
0100
0010
0101
0010
1100
0001
1100
0110
,
1000
0001
0110
1000
1001
0010
0110
0110
,
1000
0000
0001
0000
0011
0000
0100
0000
1001
0001
1000
0001
1000
0001
1000
0001
,
1000
0001
1000
0001
1000
0001
1000
0001
1100
0001
1000
0001
1000
0001
1000
0001
,
1000
0001
1000
0001
1000
0001
1000
0001
1100
0001
1000
0010
1001
0100
1001
0010
,
1000
0000
0000
0010
0000
0000
1001
0000
0000
0100
0000
0000
1001
0000
0000
0100
0000
0000
0010
0000
0000
0001
0000
0000
1000
0000
0100
0000
0010
0000
0001
0000
0000
0100
0000
0000
0010
0000
0000
1000
0000
0000
0001
0000
0000
0100
0000
0000
,
1000
0000
0100
0000
0010
0000
0001
0000
0000
0100
0000
0000
0010
0000
0000
1000
0000
0000
0001
0000
0000
0100
0000
0000
0011
0000
0000
0000
0000
0000
1000
0000
0000
0000
0000
0000
0110
0000
0000
0000
0000
0000
0001
0000
0000
0000
0000
0000
,
0110
1000
1010
0001
0110
1000
0001
1100
,
0010
1000
0101
0100
1010
0100
1000
0101
,
0010
0000
0100
0000
1010
0000
0001
0000
0110
0000
0000
0000
1000
0001
1000
0000
,
0001
1000
0001
0100
0010
1000
0001
0100
1010
0000
0100
0000
1001
0000
0110
0000
,
1001
0100
0110
1000
0011
0100
0101
1010
,
1000
0001
1100
0010
1001
1000
0110
0101
,
0100
0000
0000
0000
0000
0000
0010
0000
0000
0000
0000
0000
1100
0000
0000
0000
0000
0000
0100
0000
0000
0000
0000
0000
0011
0000
0000
1000
0000
0000
0001
0000
0000
0000
0000
0000
1000
0000
0000
0000
0010
0000
0000
0000
0100
0000
0000
0000
,
0001
0000
0000
0000
0100
0000
0000
0000
0010
0000
0000
0000
1000
0000
0000
0000
0001
0000
0000
0000
1000
0000
0000
0000
0011
0000
0000
0100
0000
0000
0010
0000
0000
0100
0000
0000
1010
0000
0000
0001
0000
0000
0100
0000
0000
0001
0000
0000
,
0110
1000
0001
1000
0110
1000
0100
1000
0101
0010
0100
0010
0100
0010
0101
1000
,
0010
1000
0010
1000
0110
0001
0100
0001
1010
0100
0010
0100
0011
0100
0011
1000
,
0010
0100
0001
0100
1010
0100
0001
1000
0110
0001
0100
0010
1100
0001
0110
1000
,
0001
0100
0010
0100
0010
1000
0001
0100
1010
0000
0001
0000
0110
0000
1001
0000
,
0110
0000
1000
0000
1010
0000
0100
1000
0011
0000
0100
0000
0101
0000
0010
0000
,
1100
0001
0101
0001
1001
0100
0110
1100
,
0101
1000
0101
0010
1100
0001
1100
0010
,
1100
0000
0001
0000
1010
0000
0100
0000
1001
0010
0100
0001
0110
0001
1100
0010
,
1100
0001
0100
0010
1100
0001
1000
0100
0011
1000
0001
0100
0011
1000
0001
0100
,
1010
0100
0001
0100
1010
0100
0001
0100
0011
1000
0001
1000
0001
1000
0011
0100
,
0010
0100
0010
0100
1010
0001
0100
0001
0110
1000
0001
1000
0001
1000
0110
0001
,
0010
0001
0010
0001
0110
1000
0100
1000
0110
0000
0011
0000
0011
0000
0110
0000
,
1100
0011
0110
1100
0011
0011
0110
1100
,
0011
0110
1100
0110
1100
1001
0110
0101
,
1010
0001
1000
0001
1000
0001
1000
0001
,
2010
3000
2000
3000
2000
3000
2000
3000
1010
0000
1100
0000
0011
0000
0110
0000
,
2100
0001
0001
0001
0001
3001
0012
0003
,
0120
0030
2100
3000
0101
0110
1100
0110
,
2001
0001
0001
0001
0001
0001
3011
0000
,
0110
0000
1001
0000
0110
0110
0110
0110
,
0110
0000
0000
1001
0100
0010
2001
0000
0000
0000
0000
0000
,
0000
0000
0000
0000
0000
0000
0000
0000
0000
0000
0000
0000
0000
0000
0000
0000
0000
0000
3000
0000
0000
0000
0000
0000
0001
0000
0010
0000
0100
0000
1000
0000
0000
0010
0000
0000
0100
0000
0000
0001
0000
0000
1000
0000
0000
0010
0000
0000
,
0001
0000
0010
0000
0100
0000
1000
0000
0000
0010
0000
0000
0100
0000
0000
0001
0000
0000
1000
0000
0000
0010
0000
0000
1000
0000
0100
0000
0010
0000
0001
0000
0000
1000
0000
0000
0001
0000
0000
0100
0000
0000
0010
0000
0000
1000
0000
0000
,
0001
0000
0100
0000
0010
0000
1000
0000
0000
0010
0000
0000
1000
0000
0000
0001
0000
0000
0100
0000
0000
0010
0000
0000
1000
0000
0010
0000
0100
0000
0001
0000
0000
1000
0000
0000
0010
0000
0000
0100
0000
0000
0001
0000
0000
1000
0000
0000
,
1000
0000
0100
0000
0010
0000
0001
0000
0000
0100
0000
0000
0010
0000
0000
1000
0000
0000
0001
0000
0000
0100
0000
0000
1000
0000
0100
0000
0010
0000
0001
0000
0000
0100
0000
0000
0010
0000
0000
1000
0000
0000
0001
0000
0000
0100
0000
0000
,
0001
0000
0010
0000
0100
0000
1000
0000
0000
0001
0000
0000
1000
0000
0000
0010
0000
0000
0100
0000
0000
0001
0000
0000
1000
0000
0010
0000
0100
0000
0001
0000
0000
0100
0000
0000
0001
0000
0000
1000
0000
0000
0010
0000
0000
0100
0000
0000
,
0100
0000
0001
0000
1000
0000
0010
0000
0000
0001
0000
0000
1000
0000
0000
0100
0000
0000
0010
0000
0000
0001
0000
0000
0100
0000
0001
0000
1000
0000
0010
0000
0000
0001
0000
0000
1000
0000
0000
0100
0000
0000
0010
0000
0000
0001
0000
0000
,
0010
0000
1000
0000
0001
0000
0100
0000
0000
0010
0000
0000
0100
0000
0000
1000
0000
0000
0001
0000
0000
0010
0000
0000
0100
0000
1000
0000
0001
0000
0010
0000
0000
0001
0000
0000
0010
0000
0000
0100
0000
0000
1000
0000
0000
0001
0000
0000
,
1000
0000
0100
0000
0010
0000
0001
0000
0000
0100
0000
0000
0010
0000
0000
1000
0000
0000
0001
0000
0000
0100
0000
0000
1000
0000
0100
0000
0010
0000
0001
0000
0000
0100
0000
0000
0010
0000
0000
1000
0000
0000
0001
0000
0000
0100
0000
0000
,
0001
0000
0010
0000
0100
0000
1000
0000
0000
0001
0000
0000
1000
0000
0000
0010
0000
0000
0100
0000
0000
0001
0000
0000
2100
0000
0000
0000
0010
0000
0000
0000
0001
0000
0000
0000
0100
0000
0000
0000
0010
0000
0000
0000
0001
0000
0000
0000
,
0100
0010
0001
3100
0000
0000
0012
0000
0000
0000
0000
0000
,
1003
1000
1000
1000
1000
0000
0000
0000
0011
0000
0110
0000
1001
0000
0000
0000
,
0010
0000
1000
0000
0011
0110
1001
0000
,
0010
0000
0010
0000
1010
0100
0011
1001
,
0000
0110
0000
0011
1100
0011
1100
0220
,
0000
0000
0000
0000
0000
0000
0000
0000
0000
0000
0000
0000
0000
0000
0000
0000
0000
0000
0330
0000
0000
0000
0000
0000
0001
0000
0010
0000
0100
0000
1000
0000
0000
0010
0000
0000
0100
0000
0000
0001
0000
0000
0010
0000
0000
0001
0000
0000
,
0010
1000
0010
0100
0001
1000
0100
1000
0100
0010
0100
0001
1000
0010
0100
0001
,
1000
0000
0000
0001
0000
0000
1000
0000
0000
0010
0000
0000
0002
0000
0000
0000
0000
0000
0000
0000
0000
0003
0000
0000
1000
0000
0100
0000
0010
0000
0001
0000
0000
1000
0000
0000
0010
0000
0000
0100
0000
0000
0001
0000
0000
1000
0000
0000
,
0001
1000
0010
0100
0001
1000
0010
0001
1100
0001
1000
0001
0010
1000
0010
0100
,
0001
0000
0000
0100
0000
0000
0010
0000
0000
1000
0000
0000
0010
0000
0000
0100
0000
0000
0001
0000
0010
0000
0100
0000
1000
0000
0000
0000
0000
0000
1100
0000
0000
0000
0000
0000
1000
0000
0000
0000
0000
0000
1000
0000
0000
0000
0000
0000
,
0110
0001
0101
0101
0101
1000
0001
0001
,
0012
0000
0000
0000
1103
1100
0010
0100
,
0011
0000
0100
0000
0010
0000
1000
0000
0001
0000
1000
0000
0110
0000
0000
0110
0000
0000
1000
0000
0000
0001
0000
0000
,
2100
0000
0000
0100
0000
0000
3100
0000
0000
0000
0000
0000
0001
0000
0010
0000
1000
0000
0001
0000
0010
0000
1000
0000
,
0001
0000
0000
0000
0010
0000
0000
0000
1000
0000
0000
0000
0001
0000
0000
0010
0000
0000
1000
0000
0000
0010
0000
0000
0100
0000
0000
0001
0000
0000
0010
0000
0000
1000
0000
0000
0001
0000
0000
0010
0000
0000
1000
0000
0000
0010
0000
0000
,
0100
0000
0000
0001
0000
0000
1000
0000
0000
0010
0000
0000
0200
0000
0000
0000
0000
0000
0000
0000
0000
0000
0000
0000
0301
0000
1000
0000
0001
0000
1000
0000
0001
0000
1000
0000
0001
0000
1000
0000
0001
0000
1000
0000
0001
0000
1000
0000
,
0001
0000
1000
0000
0001
0000
1000
0000
0001
0000
1000
0000
0001
0000
1000
0000
0001
0000
1000
0000
0001
0000
1000
0000
0110
0000
0000
0001
0000
0000
1000
0000
0000
0010
0000
0000
0102
0000
0000
0010
0000
0000
1003
0000
0000
0001
0000
0000
,
0110
0000
0000
1000
0000
0000
0001
0000
0000
0010
0000
0000
2100
0000
0000
0001
0000
0000
3100
0000
0000
0001
0000
0000
0110
0000
0000
0000
1000
0000
0000
0000
0010
0000
0000
0000
0101
0000
0000
0000
0000
0000
0010
0000
0000
0000
0000
0000
,
1010
0100
0100
0011
1100
0110
0011
1100
,
0011
0000
0011
0000
1100
0000
0000
0000
0001
0010
0100
1000
0010
0100
0001
0010
,
0100
1000
0010
0100
0001
1000
0001
1000
0001
0001
0001
0001
0010
0010
0010
0010
,
0100
0100
0100
0100
1000
1000
1000
1000
0110
0001
1000
0010
0200
0000
0301
1000
,
0010
0100
0001
1000
0021
0000
0000
0000
1030
0010
0001
1000
0020
0000
0000
0000
,
0031
0000
0000
0010
0000
0000
0100
0000
0000
1000
0000
0000
0010
0000
0000
0100
0000
0000
0001
0000
0000
1000
0000
0000
0011
0000
1000
0000
0001
0000
1000
0000
0001
0000
1000
0000
0001
0000
0000
1000
0000
0000
0001
0000
0000
1000
0000
0000
,
0010
0000
0000
0100
0000
0000
0001
0000
0000
1000
0000
0000
0001
0000
0000
0100
0000
0000
0010
0000
0000
1000
0000
0000
0010
0000
0100
0000
0010
0000
0100
0000
0010
0000
0100
0000
0010
0000
0100
0000
0010
0000
0100
0000
0010
0000
0100
0000
,
0001
1000
0010
0100
0001
1000
0001
1000
0011
1000
0100
0010
0001
0010
0100
1000
,
0100
0010
0001
0010
0100
1000
0010
0100
0011
1000
0010
0100
0001
0100
0010
1000
,
0010
0100
0001
0100
0010
1000
0010
0100
1010
0001
0100
0010
1000
0001
0010
0100
,
0010
0001
1000
0010
0001
1000
0100
0001
0110
0001
1000
0010
0001
1000
0010
0100
,
0001
0010
0100
1000
0011
0000
0000
0000
0011
1000
0010
0100
0001
0010
0001
0010
,
0001
1000
0010
0100
0001
1000
0100
1000
0100
1000
0010
0100
0001
0100
0010
1000
,
0001
0000
0000
0100
0000
0000
0010
0000
0000
0100
0000
0000
1010
0000
0000
0000
0000
0000
0000
0000
0000
0000
0000
0000
1100
0000
0010
0000
0100
0000
0010
0000
0100
0000
0010
0000
0100
0000
0010
0000
0100
0000
0010
0000
0100
0000
0010
0000
,
1100
0001
0010
0001
0010
0001
0010
0001
0010
0001
0010
0001
0110
1000
0100
1000
0100
1000
0100
1000
0100
1000
0100
1000
,
0110
0001
0010
0100
1000
0010
0100
0001
1000
0010
0001
0100
1001
0000
0010
0000
0100
0000
1000
0000
0001
0000
0010
0000
,
1100
0000
0010
0000
0100
0000
1000
0000
0001
0000
0010
0000
1100
0000
0000
1100
0000
0000
0110
0000
0000
0110
0000
0000
,
0011
0000
0000
0000
0000
0000
0011
0000
0000
0000
0000
0000
1001
0000
0000
0000
0000
0000
1001
0000
0000
0000
0000
0000
1000
0000
0100
0000
0010
0000
0001
0000
0000
1000
0000
0000
0010
0000
0000
0100
0000
0000
0001
0000
0000
1000
0000
0000
,
0001
1000
0010
0100
0001
1000
0020
0000
0230
0000
2300
0000
3002
0000
2003
0000
,
3010
0010
0010
0000
0011
0011
1100
1100
,
0110
0110
0011
1100
0102
0000
2103
0000
,
3120
0000
0000
0132
0000
0000
1103
0010
0100
0011
1000
0010
,
1100
0001
1000
0011
0100
1000
0011
0100
0001
1100
0010
0100
,
0011
0000
0000
0000
1000
0000
0000
0000
0010
0000
0000
0000
1100
0000
0000
0000
0001
0000
0000
0000
1000
0000
0000
0000
0011
0000
0100
0000
1000
0000
0010
0000
0000
0001
0000
0000
1000
0000
0000
0010
0000
0000
0100
0000
0000
0001
0000
0000
,
1000
0000
0000
0000
0010
0000
0000
0000
0100
0000
0000
0000
0001
0000
0000
0000
1000
0000
0000
0000
0100
0000
0000
0000
1100
0000
0010
0000
0001
0000
0100
0000
0000
1000
0000
0000
0001
0000
0000
0100
0000
0000
0010
0000
0000
1000
0000
0000
,
0001
0000
0000
0000
0100
0000
0000
0000
0010
0000
0000
0000
1000
0000
0000
0000
0001
0000
0000
0000
0010
0000
0000
0000
0101
0000
1000
0000
0010
0000
0001
0000
0000
0100
0000
0000
0010
0000
0000
0001
0000
0000
1000
0000
0000
0100
0000
0000
,
0010
0000
0000
0000
0001
0000
0000
0000
1000
0000
0000
0000
0100
0000
0000
0000
0010
0000
0000
0000
1000
0000
0000
0000
0011
0000
0100
0000
1000
0000
0010
0000
0000
0001
0000
0000
1000
0000
0000
0010
0000
0000
0100
0000
0000
0001
0000
0000
,
1000
0010
0100
0002
0000
0000
0223
0000
0000
0000
0000
0000
,
0000
0000
0000
0000
0000
0000
0000
0330
0011
0000
0011
0000
1000
0000
0100
0000
,
1010
1010
0001
0010
1100
0101
0110
1100
,
0110
0000
0000
0011
0000
0000
2002
0000
0000
0000
0000
0000
3113
0000
0000
0000
0000
0000
1100
0000
0000
0000
0011
0000
,
0000
0000
1100
0000
0000
0000
0011
0000
0000
1000
0000
0000
0001
0000
0000
0100
0000
0000
0012
0000
0000
0000
0000
0000
,
0010
0100
0010
0000
0010
0100
0010
0000
1013
0000
1000
0000
0010
0000
0101
0000
,
0000
0000
0000
0000
0000
0000
0101
0000
0000
0000
0000
0000
0000
0000
0000
0000
0000
0000
0001
0000
0010
0000
0100
0000
1000
0000
0000
0010
0000
0000
0100
0000
0000
0000
0000
0000
0000
0000
0000
0000
0000
0000
0001
0000
0010
0000
0100
0000
,
1000
0001
0100
0010
1000
0010
0100
0001
2000
0000
0010
0000
0100
0000
0001
0000
,
0000
0001
0100
0020
0100
0001
3130
0001
,
1000
0000
0001
0000
0110
0000
0000
0000
0010
0001
0010
0001
0010
0001
0010
0001
,
0010
0001
0010
0001
0010
0001
0010
0001
1000
0010
0100
0001
1000
0001
1000
0010
,
0100
0001
0010
0001
1000
0100
0010
0000
0011
0000
0011
0000
0000
0000
1100
0000
,
1100
1100
0000
0110
0110
0110
0002
0000
,
0010
0100
0010
1000
0013
0100
0010
0100
1010
0000
1010
0000
0000
0000
0011
0000
,
0000
0110
0000
0000
1100
0000
0010
0000
0001
0000
0200
0000
0000
0000
0312
0000
,
0000
2000
0000
3003
0110
0000
0001
0011
,
0000
0000
0000
0002
0000
0000
0000
0000
0000
0003
0000
0000
0110
0000
1000
0000
0001
0000
0110
0000
1000
0000
0001
0000
,
1100
0000
0000
0000
0010
0000
0000
0000
0001
0000
0000
0000
0110
0000
0000
0000
1000
0000
0000
0000
0010
0000
0000
0000
0101
0000
0010
0000
1000
0000
0001
0000
0000
0100
0000
0000
0010
0000
0000
1000
0000
0000
0001
0000
0000
1000
0000
0000
,
0001
0100
0010
1000
0001
0010
0001
1000
0110
0000
0000
0000
0000
0000
1001
0000
,
0000
0000
0110
0000
0011
0000
1010
2001
,
0000
0000
0000
0000
0000
3000
0011
0000
,
0110
0000
1100
0000
2100
0001
0010
0001
,
3210
0000
0000
0010
0300
0000
0010
0000
0011
0000
0000
0110
0000
0000
0001
0000
,
2010
0000
0000
0000
0000
0000
3000
0000
0201
0000
0010
0001
0010
0000
0001
0000
,
1000
0000
0010
0001
0000
0000
0010
0000
0311
0000
0010
0001
0000
0000
0010
0000
,
2MM2
0000
0MM0
00M0
0MM0
0000
0MM0
0000
0MM0
00M0
0MM0
0000
0MM0
0000
0MM0
00M0
0MM0
0000
0MM0
0000
0MM0
00M0
0MM0
0000
0MM0
0000
0MM0
00M0
0MM0
0000
0MM0
0000
0MM0
00M0
0MM0
0000
0MM0
0000
0MM0
00M0
0MM0
0000
0MM0
0000
0M00
00M0
0M00
0000
,
0MM0
0000
0M00
00M0
0M00
0000
0MM0
0000
0M00
00M0
0M00
0000
0MM0
0000
0M00
00M0
0MM0
0000
0MM0
0000
0MM0
00M0
0M00
0000
0MM0
0000
0M00
00M0
0MM0
0000
0MM0
0000
0MM0
00M0
0M00
0000
3MM3
0000
0000
0000
0000
0000
0000
0000
0000
0000
0000
0000
,
1100
0010
0011
0100
1100
0001
0101
0010
,
1010
0100
0010
1001
0010
0001
1010
0100
,
0011
1000
0001
1010
0010
0100
0011
0100
,
1001
0000
0100
0000
0001
0000
1000
0000
0010
0001
1000
0100
0010
0001
1000
0100
,
0011
1000
0110
0011
1010
0100
0011
0100
,
1001
0110
0001
1001
0100
0001
0110
0000
,
1001
0000
0110
1001
0000
0000
0110
0000
,
0011
0000
1100
1100
0000
0011
0011
0000
,
1100
0001
1000
0001
1000
0001
1000
0001
1000
0001
1000
0001
1000
0001
1000
0001
,
1000
0001
1000
0001
1000
0001
1000
0001
1000
0001
1000
0001
1000
0001
1000
0001
,
1100
0001
1000
0001
1000
0001
1000
0001
1000
0001
1000
0001
1000
0001
1000
0001
,
1100
0000
0011
0011
0000
1100
1100
0000
,
0011
0100
1100
0011
1010
0001
0101
0010
,
1010
0100
0011
0100
1010
0001
1100
0010
,
0101
0010
0110
1001
0011
0100
1001
0010
,
1010
0100
0011
1000
0110
0001
0110
1000
,
0011
0100
0011
1010
1001
0010
1100
0001
,
1010
0100
0011
1000
0110
0001
1100
0010
,
1001
0000
0000
0110
0000
0000
0011
0000
,
1001
0000
0000
1010
0000
0000
1001
0000
,
1100
0011
0011
1100
0110
1100
1100
0110
,
0011
1100
1100
0110
1100
0011
0011
1100
,
0220
0330
0000
0000
,
0000
0000
0000
0011
,
2010
0000
0000
0001
0000
0000
0010
0000
,
0001
0000
0000
0000
3000
0000
0000
0110
0000
0000
0000
0000
0000
0000
0000
0000
,
0101
0000
0000
0011
0010
1010
0010
0011
,
1000
1000
0010
1000
1000
0100
0001
0001
,
0100
0010
1000
0011
0010
1010
0010
0011
,
1000
1000
0010
1000
1000
0100
0001
0001
,
0100
0010
1000
0011
0010
1010
0010
0100
,
0001
0000
0000
0000
0000
0000
0000
0000
0000
0010
0000
0000
0000
0000
0000
0000
0000
0001
0000
0000
0000
0000
0000
0000
0000
0000
0010
0000
0000
0000
0000
0000
0000
0000
0000
0001
0000
0000
0000
0000
0000
0000
0000
1000
0000
0000
0000
0000
0000
0000
0010
0000
0000
0000
0000
0000
0000
0000
0000
0100
0000
0000
0000
0000
,
0000
0000
0000
0001
0000
0000
0000
0000
0000
0000
0000
0000
0000
1000
0000
0000
0000
0000
0000
0000
0000
0000
0000
0000
0000
0000
0010
0000
0000
0000
0000
0000
0000
0000
0000
0100
0000
0000
0000
0000
0000
0000
0000
0000
0000
0000
0000
0000
0001
0000
0000
0000
0000
0000
0000
0000
0000
0000
0000
0020
0000
0000
0000
0000
,
0000
0030
0000
0000
0000
0000
0000
0000
0000
0000
0000
0000
0000
0000
0000
0000
0000
0000
0000
0000
0000
0000
0000
0000
0000
0000
0000
0000
0000
0000
0000
0000
;
