#TITLE:Ascension to Heaven;
#SUBTITLE:;
#ARTIST:xi;
#TITLETRANSLIT:;
#SUBTITLETRANSLIT:;
#ARTISTTRANSLIT:;
#CREDIT:Fraxtil;
#BANNER:bn.png;
#BACKGROUND:bg.png;
#LYRICSPATH:;
#CDTITLE:fraxtil.png;
#MUSIC:Ascension to Heaven.ogg;
#OFFSET:0.000;
#SAMPLESTART:158.400;
#SAMPLELENGTH:19.200;
#SELECTABLE:YES;
#DISPLAYBPM:200.000;
#BPMS:0.000=200.000,964.000=195.000,970.000=190.000,978.000=185.000,982.000=184.000;
#STOPS:;
#BGCHANGES:;
// cache tags:
#FIRSTBEAT:8.000;
#LASTBEAT:994.000;
#SONGFILENAME:Songs/Index Tournament 1/Ascension to Heaven/Ascension to Heaven.sm;
#HASMUSIC:1;
#HASBANNER:1;
#MUSICLENGTH:299.999;
// end cache tags

//---------------dance-single - Fraxtil----------------
#NOTES:
     dance-single:
     Fraxtil:
     Challenge:
     16:
     1.000,1.000,0.343,0.157,1.000,2284.000,103.000,47.000,0.000,0.000:
0000
0000
0000
0000
,
0000
0000
0000
0000
,
2001
0000
0000
0000
,
0000
0000
0000
0000
0000
0000
0000
3000
,
2100
0000
0000
0000
,
3020
0000
0000
0000
0000
0000
0000
0030
,
2001
0000
0000
0000
,
0000
0000
0000
0000
0000
0000
0000
3000
,
2010
0000
0000
0000
,
3200
0000
0000
0000
0000
0000
0000
0300
,
2001
0000
0000
0000
,
0000
0000
0000
0000
0000
0000
0000
3000
,
2100
0000
0000
0000
,
3020
0000
0000
0000
0000
0000
0000
0030
,
1002
0000
0000
0000
,
0000
0000
0000
0000
0000
0000
0000
0003
,
0021
0000
0000
0000
0000
0000
0000
0030
,
1200
0000
0000
0000
0000
0000
1300
0000
0001
0100
0010
1000
0010
0100
0001
1000
,
0100
0000
0010
0001
1000
0000
0010
1000
0000
0100
0000
1000
0010
0000
0100
0000
,
0001
0000
0001
0000
0010
0001
0000
0100
0000
0100
0000
0010
1000
0010
0400
0000
,
0301
0000
1000
0100
0010
0000
0100
1000
0000
0000
1000
0000
0001
0000
0100
0000
,
0010
0000
0010
0000
1000
0001
0040
0430
0310
0001
0000
1000
0010
1000
0001
0010
,
0001
0000
0100
0001
1000
0000
0100
1000
0000
0010
0000
1000
0100
0000
0010
0000
,
0001
0000
0001
0000
0100
0001
0000
0010
0000
0010
0000
0100
1000
0100
0040
0000
,
0031
0000
1000
0010
0100
0000
0010
1000
0000
0000
1000
0000
0001
0000
0010
0000
,
0100
1000
0400
0000
1300
0001
0400
0340
0130
0001
1000
0100
0010
0001
1000
0010
,
1000
0000
0100
1000
0001
0000
0100
0001
0000
0010
0000
0001
0100
0000
0010
0000
,
1000
0000
1000
0000
0100
1000
0000
0010
0000
0010
0000
0100
0001
0100
0040
0000
,
1030
0000
0001
0010
0100
0000
0010
0001
0000
0000
0001
0000
1000
0000
0010
0000
,
0100
0000
0100
0000
0001
1000
0400
0340
0130
1000
0000
0001
0100
0001
1000
0100
,
1000
0000
0010
1000
0001
0000
0010
0001
0000
0000
0100
0000
0010
0000
1000
0000
,
0001
0000
0001
0000
0010
0100
0000
1000
0000
1000
0000
0010
0000
0100
0000
0001
,
1000
0000
0100
1000
0001
0000
0100
0010
1000
0001
0040
0430
0310
0001
1000
0010
,
0200
0000
0000
0000
0000
0300
1001
0000
,
1000
0000
0000
0000
1010
0000
0001
1000
0000
0000
0100
0000
0011
0000
0001
0000
,
1000
0100
0010
0100
1000
0001
0100
0010
1000
0001
1000
0010
0100
0001
1000
0100
,
0010
0000
0000
0000
1001
0000
0001
0100
0000
0000
0010
0000
1010
0000
1000
0000
,
0000
0000
0000
0001
0010
0000
0100
0000
1000
0100
1000
0001
0100
0010
1000
0001
,
0100
0000
0000
0000
1001
0000
0001
1000
0000
0000
0100
0000
0110
0000
0010
0000
,
0001
0010
0100
0010
0001
1000
0100
1000
0001
1000
0010
0100
0001
1000
0100
1000
,
0001
0000
0000
0000
0101
0000
0100
0010
0000
0000
1000
0000
1001
0000
0001
0000
,
1000
0010
1000
0001
0010
0100
1000
0001
0100
0001
1000
0100
0010
0001
1000
0010
,
0100
0000
0000
0000
0101
0000
0001
1000
0000
0000
0100
0000
0110
0000
0010
0000
,
0000
0000
0000
0001
0100
0000
0010
0000
0000
0000
1000
0000
1001
0000
0001
0000
,
0010
0000
0000
0000
0110
0000
0100
1000
0001
0100
0010
0100
0001
1000
0100
0010
,
0001
0000
1000
0010
0100
0001
0100
0010
1000
0000
0001
0010
0001
1000
0100
1000
,
0001
0000
0000
0000
1001
0000
1000
0010
0100
0001
0100
0010
1000
0001
0010
0100
,
1000
0001
0100
0001
0100
0010
0100
0010
1000
0010
1000
0001
0010
0100
1000
0001
,
0100
0000
0000
0000
0110
0000
0010
1000
0001
0010
0001
1000
0100
1000
0001
0100
,
0010
1000
0010
1000
0100
0010
0001
1000
0001
0010
0100
1000
0001
0100
0010
1000
,
0001
0000
0000
0000
0101
0000
1000
0001
0000
0000
0010
0000
1100
0000
1000
0000
,
0001
0010
0100
0010
0001
1000
0010
0100
0001
1000
0001
0100
0010
1000
0001
0010
,
0100
0000
0000
0000
1001
0000
1000
0010
0000
0000
0100
0000
0101
0000
0001
0000
,
0000
0000
0000
1000
0100
0000
0010
0000
0001
0010
0001
1000
0010
0100
0001
1000
,
0010
0000
0000
0000
1001
0000
1000
0001
0000
0000
0010
0000
0110
0000
0100
0000
,
1000
0100
0010
0100
1000
0001
0010
0001
1000
0001
0100
0010
1000
0001
0010
0001
,
1000
0000
0000
0000
1010
0000
0010
0100
0000
0000
0001
0000
1001
0000
1000
0000
,
0001
0100
0001
1000
0100
0010
0001
1000
0010
1000
0001
0010
0100
1000
0001
0100
,
0010
0000
0000
0000
1010
0000
1000
0001
0000
0000
0010
0000
0110
0000
0100
0000
,
0000
0000
0000
1000
0010
0000
0100
0000
0000
0000
0001
0000
1001
0000
1000
0000
,
0100
0000
0000
0000
0110
0000
0010
0001
1000
0010
0100
0010
1000
0001
0010
0100
,
1000
0010
0100
0001
0100
0001
1000
0100
0010
0001
0010
0001
0100
0010
1000
0001
,
1000
0000
0000
0000
1001
0000
0001
0100
0010
1000
0010
0100
0001
1000
0100
0010
,
0001
1000
0010
1000
0010
0100
0010
0100
0001
0100
0001
1000
0100
0010
0001
1000
,
0010
0000
0100
0000
0110
0000
0010
0000
1000
0000
0001
0000
1001
0000
1000
0010
,
0100
0001
0100
0001
0010
0100
1000
0001
1000
0100
0010
0001
1000
0010
0100
0001
,
0020
0000
0000
0000
,
0000
0000
0000
0000
,
0200
0000
0000
0300
,
0031
1000
0010
0100
,
0101
0001
1000
0100
0000
0000
0010
0010
,
0000
0000
0000
0000
,
1001
0000
0000
0000
,
1000
0000
0010
0000
,
1010
0010
0100
0001
0000
0000
1000
1000
,
0000
0000
0000
0000
,
0100
0000
0010
0000
,
0001
0000
1000
0000
,
1001
1000
0010
0100
0000
0000
0001
0001
,
0000
0000
0000
0000
,
0010
0000
0100
0000
,
1100
0000
1000
0000
,
1010
0010
0100
0001
0000
0000
0000
0000
,
0010
0000
0000
0000
,
1100
0000
0000
0000
,
0021
0000
0032
0000
0203
0000
0320
0030
,
1010
1000
0001
0020
0000
0000
0100
0230
,
0000
0000
0000
0000
,
2300
0000
0000
0000
,
3002
0000
0000
0000
0203
0000
0000
0300
,
0120
0000
0000
0000
2030
0000
0000
3000
,
1020
0000
0000
0230
0000
0000
0302
0003
,
0021
0000
0000
0000
0000
0000
0000
0030
,
0210
0000
0000
0000
2300
0000
0000
3000
,
1002
0000
0000
0000
,
0000
0000
0000
0000
,
2003
0000
0000
0000
,
3020
0000
0000
0000
,
0130
0001
1000
0000
1100
0000
0000
0000
0000
0000
0100
0000
0110
0000
0010
0000
,
0001
1000
0010
0000
0101
0000
0000
0000
0001
1000
0000
0000
1001
0000
0001
0010
,
0100
0000
0000
1100
0000
0000
1001
0000
0001
0100
0010
0100
0001
0010
0100
1000
,
0020
0000
0000
0000
0000
0030
1001
0000
,
1000
0100
1000
0100
0010
0100
1000
0001
0100
0001
0100
0001
1000
0010
1000
0001
,
0010
0100
0010
0100
1000
0100
0010
0001
1000
0010
1000
0010
0100
0001
0100
0010
,
1000
0001
1000
0001
0010
0100
1000
0001
0100
0001
0100
0001
1000
0010
0100
0001
,
1000
0100
1000
0100
0010
0100
1000
0001
1000
0010
1000
0010
0100
0001
1000
0100
,
0010
0100
0010
0100
1000
0001
1000
0010
0100
0010
0100
0010
1000
0001
0010
0100
,
1000
0001
1000
0001
0100
0010
0100
0001
1000
0100
1000
0100
0010
0001
1000
0010
,
0100
0001
0100
0001
1000
0100
0010
0100
1000
0001
1000
0001
0100
0010
1000
0001
,
0010
0001
0010
0001
1000
0010
0100
0001
1000
0010
1000
0010
1000
0001
0010
0100
,
1000
0001
1000
0001
0100
0010
1000
0001
0010
0100
0010
0100
1000
0100
0010
0001
,
1000
0010
1000
0010
0100
0001
1000
0100
0010
0001
0010
0001
1000
0001
0010
0100
,
1000
0001
1000
0001
0100
0010
1000
0001
0100
0001
0100
0001
1000
0100
0010
0001
,
1000
0100
1000
0100
1000
0001
0100
0010
1000
0001
1000
0001
0010
0100
1000
0001
,
1000
0010
1000
0010
0100
0010
1000
0001
0010
0001
0010
0001
1000
0100
1000
0001
,
0100
0010
0100
0010
1000
0010
0100
0001
1000
0100
1000
0100
0010
0001
0010
0100
,
1000
0001
1000
0001
0100
0010
1000
0001
0010
0001
0010
0001
1000
0100
0010
0001
,
1000
0010
0100
0001
0010
0100
0010
0001
1000
0010
0100
0001
1000
0001
0010
0100
,
1000
0001
1000
0001
0100
0010
0100
0001
1000
0100
0010
0001
1000
0100
0010
0001
,
1000
0010
0100
0010
1000
0001
0100
0010
1000
0001
0010
0100
1000
0100
0010
0001
,
0100
0001
1000
0001
0010
0100
1000
0001
1000
0100
0010
0100
0010
0001
1000
0010
,
0100
0001
0100
0010
1000
0001
0010
0100
1000
0001
0100
0010
1000
0100
0010
0100
,
1000
0001
0100
0010
0100
0001
1000
0100
0010
0100
1000
0001
0010
0001
1000
0010
,
0100
0010
1000
0001
0100
0010
1000
0001
0100
0010
1000
0001
0010
0001
1000
0100
,
0010
0001
0100
0010
1000
0100
1000
0001
0100
0010
1000
0010
0100
0001
0010
0100
,
1000
0001
0100
0001
0010
0100
1000
0001
0100
0010
1000
0010
0100
0001
0100
0010
,
1000
0001
1000
0001
0010
0001
0100
0010
1000
0001
0010
0001
0100
0010
1000
0001
,
0100
0001
0010
0100
1000
0001
0100
0001
0010
0100
1000
0001
1000
0010
0100
0001
,
0010
0001
1000
0001
0100
0010
1000
0001
1000
0010
0100
0010
0100
0001
1000
0100
,
0010
0001
0010
0100
1000
0001
0100
0010
1000
0001
0010
0100
1000
0010
0100
0010
,
1000
0001
0010
0100
0010
0001
1000
0010
0100
0010
1000
0001
0100
0001
1000
0100
,
0010
0001
0010
0001
0010
0100
1000
0001
0100
0010
1000
0001
0100
0001
1000
0010
,
0100
0001
0010
0100
1000
0010
1000
0001
0010
0100
1000
0100
0010
0001
0100
0010
,
1000
0001
0010
0001
0100
0010
1000
0001
0010
0100
1000
0100
0010
0001
0010
0001
,
0100
0010
1000
0010
0100
0010
1000
0001
0010
0100
0010
0001
0010
0100
1000
0001
,
0100
0010
0100
0001
0100
0010
1000
0001
0010
0100
1000
0100
0010
0100
1000
0001
,
1000
0010
0100
0001
1000
0100
1000
0001
0100
0010
1000
0001
0010
0100
1000
0001
,
1000
0010
0100
0001
1000
0001
0010
0100
1000
0001
0100
0001
1000
0100
1000
0001
,
0010
0100
0010
0001
1000
0100
1000
0001
0100
0010
0100
0001
1000
0100
0010
0001
,
1000
0010
0100
0010
1000
0001
0100
0001
1000
0100
0010
0001
1000
0010
0100
0001
,
0010
0100
1000
0001
0010
0100
1000
0001
0100
0001
1000
0010
0100
0010
1000
0001
,
0010
0100
0010
0001
1000
0100
1000
0001
0100
0001
1000
0010
0100
0001
1000
0001
,
0010
0100
1000
0100
0010
0100
1000
0001
0100
0010
0100
0001
0100
0010
1000
0001
,
0010
0100
0010
0001
0010
0100
1000
0001
0100
0010
1000
0010
0100
0010
1000
0001
,
1000
0100
0010
0001
1000
0010
1000
0001
0010
0100
1000
0001
0100
0010
1000
0001
,
1000
0100
0010
0001
1000
0001
0100
0010
1000
0001
0010
0001
1000
0010
1000
0001
,
0100
0010
0100
0001
1000
0010
1000
0001
0010
0100
0010
0001
1000
0010
0100
0001
,
1000
0100
0010
0100
1000
0001
0010
0001
1000
0010
0100
0001
1000
0100
0010
0001
,
0100
0010
1000
0001
0100
0010
1000
0001
0010
0001
1000
0100
0010
0100
1000
0001
,
0100
0010
0100
0001
1000
0010
1000
0001
0010
0001
1000
0100
0010
0001
0010
0001
,
0100
0010
1000
0100
0010
0001
1000
0001
0100
0010
1000
0100
0010
0001
1000
0001
,
0010
0100
1000
0010
0100
0001
1000
0001
0010
0100
1000
0010
0100
0001
1000
0001
,
0010
0001
0010
0001
0100
0010
0100
0010
1000
0100
1000
0001
0100
0001
1000
0010
,
0100
0001
0100
0001
0010
0100
0010
0100
1000
0010
1000
0001
0010
0100
0010
0001
,
1000
0100
1000
0100
0010
0100
0010
0001
0010
0001
1000
0001
0100
0010
1000
0001
,
1000
0010
1000
0010
0100
0010
0100
0001
0100
0001
1000
0001
0010
0100
0010
0001
,
0100
0010
1000
0001
0100
0010
1000
0001
0010
0001
1000
0100
0010
0100
1000
0001
,
0100
0010
0100
0001
1000
0010
1000
0001
0010
0001
1000
0100
0010
0001
1000
0001
,
0010
0100
1000
0010
0100
0001
1000
0001
0010
0100
1000
0010
0100
0001
1000
0001
,
0100
0010
1000
0100
0010
0001
1000
0001
0100
0010
1000
0100
0010
0001
1000
0001
,
0100
0001
0100
0001
0010
0100
0010
0100
1000
0010
1000
0001
0010
0001
1000
0100
,
0010
0001
0010
0001
0100
0010
0100
0010
1000
0100
1000
0001
0100
0010
0100
0001
,
1000
0010
1000
0010
0100
0010
0100
0001
0100
0001
1000
0001
0010
0100
1000
0001
,
1000
0100
1000
0100
0010
0100
0010
0001
0010
0001
1000
0001
0100
0010
0100
0001
,
1000
0100
1000
0001
1000
0010
1000
0001
0100
0001
1000
0001
0010
0001
1000
0001
,
0100
0010
1000
0001
0100
0010
1000
0001
0100
0010
0100
0001
1000
0100
0010
0001
,
0200
0000
0000
0000
,
0000
0000
0000
0000
,
0020
0000
0000
0000
,
0030
0000
0000
0000
0000
0000
0000
0300
,
0101
0000
0000
0000
,
0001
0000
0000
0000
,
1001
0000
0000
0000
,
1000
0100
0010
0001
,
0011
0000
0000
0000
,
0000
0000
0000
0000
,
1010
0000
0000
0000
,
1000
0000
0000
0000
,
1100
0000
0000
0000
,
0100
0000
0000
0000
0000
0100
0010
0001
,
1001
0000
0000
0000
,
1010
0000
0000
0000
0000
0000
0010
0000
0100
0001
0100
0001
0100
0001
0100
0001
,
2000
0000
0000
0000
,
0000
0000
0000
0000
0000
0000
0000
3000
,
0012
0000
0000
0000
0000
0000
0000
0003
,
2001
0000
0000
0000
0000
0000
0000
3000
,
1020
0000
0000
0000
,
0100
0000
1030
0000
,
1200
0000
0000
0000
,
0310
0001
1000
0010
,
0101
0000
1001
0000
0000
1000
1100
0100
,
0010
0001
1000
0000
1001
0000
0000
0000
0000
0000
0001
0000
0101
0000
0400
0000
,
0310
1000
0001
0000
0011
0000
0000
0000
0000
0000
0010
0000
0110
0000
0100
0000
,
1000
0001
0100
0000
0101
0000
0000
0000
0000
0001
1000
0000
1100
0000
0100
0000
,
0010
0001
1000
0000
1001
0000
0000
0000
0000
0001
0100
0000
0101
0000
0001
0000
,
0010
0100
1000
0000
1100
0000
0000
0000
0000
0100
0010
0000
0004
0000
0000
0003
,
1001
0000
0000
1010
0000
0000
0110
0000
1000
0001
0010
0100
1000
0001
0100
0001
,
0020
0000
0000
0000
0000
0030
1001
0000
,
0001
1000
0001
0100
0010
0100
0001
1000
0100
0010
0100
1000
0100
0010
0001
1000
,
0010
0100
0010
1000
0010
0100
0001
1000
0100
0010
0001
0010
0100
0010
0001
1000
,
0001
0100
0010
1000
0001
0010
0001
1000
0010
0100
0001
1000
0100
0010
0001
1000
,
0001
0100
0010
1000
0001
1000
0100
0010
0001
1000
0010
1000
0001
0010
0001
1000
,
0100
0010
0100
1000
0001
0010
0001
1000
0010
0100
0010
1000
0001
0010
0100
1000
,
0001
0100
0010
0100
0001
1000
0010
1000
0001
0010
0100
1000
0001
0100
0010
1000
,
0100
0010
0001
1000
0100
0010
0001
1000
0010
1000
0001
0100
0010
0100
0001
1000
,
0100
0010
0100
1000
0001
0010
0001
1000
0010
1000
0001
0100
0010
1000
0001
1000
,
0100
0010
0001
0010
0100
0010
0001
1000
0010
0100
0010
1000
0010
0100
0001
1000
,
0100
0010
0100
1000
0100
0010
0001
1000
0010
0100
0001
0100
0010
0100
0001
1000
,
0001
0010
0100
1000
0001
0100
0001
1000
0100
0010
0001
1000
0010
0100
0001
1000
,
0001
0010
0100
1000
0001
1000
0010
0100
0001
1000
0100
1000
0001
0100
0001
1000
,
0010
0100
0010
1000
0001
0100
0001
1000
0100
0010
0100
1000
0001
0100
0010
1000
,
0001
0010
0100
0010
0001
1000
0100
1000
0001
0100
0010
1000
0001
0010
0100
1000
,
0010
0100
0001
1000
0010
0100
0001
1000
0100
1000
0001
0010
0100
0010
0001
1000
,
0010
0100
0010
1000
0001
0100
0001
1000
0100
1000
0001
0010
0100
1000
0100
1000
,
0010
0100
0001
0010
0100
1000
0001
1000
0010
0100
0001
0010
0100
1000
0001
1000
,
0100
0010
0001
0100
0010
1000
0001
1000
0100
0010
0001
0100
0010
1000
0001
1000
,
0100
1000
0100
1000
0010
0100
0010
0100
0001
0010
0001
1000
0010
1000
0001
0100
,
0010
1000
0010
1000
0100
0010
0100
0010
0001
0100
0001
1000
0100
0010
0100
1000
,
0001
0010
0001
0010
0100
0010
0100
1000
0100
1000
0001
1000
0010
0100
0001
1000
,
0001
0100
0001
0100
0010
0100
0010
1000
0010
1000
0001
1000
0100
0010
0100
1000
,
0010
0100
0001
1000
0010
0100
0001
1000
0100
1000
0001
0010
0100
0010
0001
1000
,
0010
0100
0010
1000
0001
0100
0001
1000
0100
1000
0001
0010
0100
1000
0001
1000
,
0100
0010
0001
0100
0010
1000
0001
1000
0100
0010
0001
0100
0010
1000
0001
1000
,
0010
0100
0001
0010
0100
1000
0001
1000
0010
0100
0001
0010
0100
1000
0001
1000
,
0010
1000
0010
1000
0100
0010
0100
0010
0001
0100
0001
1000
0100
1000
0001
0010
,
0100
1000
0100
1000
0010
0100
0010
0100
0001
0010
0001
1000
0010
0100
0010
1000
,
0001
0100
0001
0100
0010
0100
0010
1000
0010
1000
0001
1000
0100
0010
0001
1000
,
0001
0010
0001
0010
0100
0010
0100
1000
0100
1000
0001
1000
0010
0100
0010
1000
,
0001
0010
0001
1000
0001
0100
0001
1000
0010
1000
0001
1000
0100
1000
0001
1000
,
0010
0100
0001
1000
0010
0100
0001
1000
0010
0100
0010
1000
0001
0010
0100
1000
,
0020
0000
0000
0000
,
0000
0000
0000
0000
,
0200
0000
0000
0000
,
0300
0000
0000
0000
0000
0000
0000
0030
,
1010
0000
0000
0000
,
1000
0000
0000
0000
,
1001
0000
0000
0000
,
0001
0010
0100
1000
,
1100
0000
0000
0000
,
0000
0000
0000
0000
,
0101
0000
0000
0000
,
0001
0000
0000
0000
,
0011
0000
0000
0000
,
0010
0000
0000
0000
0000
0010
0100
1000
,
1001
0000
0000
0000
,
0101
0000
0000
0000
0000
0000
0000
0000
0001
1000
0001
1000
0001
1000
0001
1000
,
0002
0000
0000
0000
,
0000
0000
0000
0000
,
0000
0000
0003
0000
;
