#TITLE:Sex Friend Speeeed Bass;
#SUBTITLE:;
#ARTIST:m1dy;
#TITLETRANSLIT:;
#SUBTITLETRANSLIT:;
#ARTISTTRANSLIT:;
#CREDIT:;
#BANNER:;
#BACKGROUND:;
#LYRICSPATH:;
#CDTITLE:cdtitle.png;
#MUSIC:m1dy - In Bass We Trust - 06 - Sex Friend Speeeeed Bass.mp3;
#OFFSET:-3.901;
#SAMPLESTART:23.960;
#SAMPLELENGTH:12.000;
#SELECTABLE:YES;
#BPMS:0.000=125.020,13.000=250.040,250.500=62.510,250.750=62.519;
#STOPS:12.000=1.440
,41.000=0.480
,247.000=0.720
,248.500=0.120
,249.500=0.060
,250.250=0.060
;
#BGCHANGES:;
// cache tags:
#FIRSTBEAT:13.000;
#LASTBEAT:256.000;
#SONGFILENAME:Songs/dragon force/SEX FRIEND SPEEEED BASS/sfsb.sm;
#HASMUSIC:1;
#HASBANNER:0;
#MUSICLENGTH:77.008;
// end cache tags

//---------------dance-single - ----------------
#NOTES:
     dance-single:
     :
     Hard:
     13:
     1.000,1.000,1.000,0.026,0.370,365.000,222.000,2.000,0.000,0.000:
0000
0000
0000
0000
,
0000
0000
0000
0000
,
0000
0000
0000
0000
,
0000
1001
0110
1100
,
0101
0011
1100
0110
,
0011
0101
1010
0110
,
0011
0101
1100
0110
,
1010
0110
0011
0101
,
1010
0110
0011
0101
,
0110
0000
1100
0000
0000
0110
0000
0110
,
0000
1100
1001
0000
0000
0000
1001
0000
,
0000
0000
1100
0110
0000
0000
0011
0000
,
0000
1100
0000
0011
0110
0000
1100
0000
,
0000
0000
0011
0110
0000
0000
1100
0000
,
0000
0110
0000
0011
0011
0000
1100
0000
,
0000
0000
0011
0110
0000
0000
1100
0000
,
0000
0110
0000
1001
0011
0000
1100
0000
,
0000
0000
0110
0011
0000
0000
1100
0000
,
0000
0110
0000
1001
0011
0000
1100
0000
,
0000
0000
0110
0011
0000
0000
1010
0000
,
0000
0101
0000
1001
0011
0000
1100
0000
,
0000
0000
0110
1001
0000
0000
0110
0000
,
0000
1100
0000
0110
1001
0000
0110
0000
,
0000
0000
1100
0101
0000
0000
0110
0000
,
0000
0011
0000
0110
1100
0000
0110
0000
,
0000
0000
0011
0110
0000
0000
1010
0000
,
0000
0101
0000
0110
1010
0000
0110
0000
,
0000
1001
0000
0000
0110
0000
1100
0000
,
0000
0110
0000
0000
0000
0110
1001
0000
,
0000
0110
0000
0000
1100
0000
0011
0101
,
0000
0000
1100
0000
0110
0000
0000
0000
1000
0100
0010
0001
1000
0000
0000
0000
,
0000
0110
0000
0000
0110
0000
1001
0000
,
0000
1100
0000
0000
0000
0011
1010
0000
,
0000
0110
0000
0000
1100
0000
0101
1100
,
0000
0000
0110
0000
0011
0000
0000
0000
0001
0010
0100
1000
0001
0000
0000
0000
,
0000
0000
1100
0110
0000
0000
0101
0000
,
0000
1010
0000
0110
0101
0000
1010
0000
,
0000
0000
0110
0101
0000
0000
1010
0000
,
0000
0110
0000
0011
1001
0000
0110
0011
,
0110
0000
0100
1000
0001
0000
0110
0000
1010
0000
0100
0001
0100
0000
1010
0000
,
0101
0000
0001
0010
0100
0000
1010
0000
0110
0000
0001
0010
0100
0000
1010
0000
,
1100
0000
0100
0010
0001
0000
1010
0000
0110
0000
1000
0100
0010
0000
0101
0000
,
1010
0000
0010
0100
1000
0000
0011
0000
0100
0010
0001
1000
0100
0000
0011
0000
,
1010
0000
0100
0010
0001
0000
1100
0000
0110
0000
0100
1000
0010
0000
0101
0000
,
0011
0000
1000
0010
0100
0000
0011
0000
0100
0001
1000
0010
0100
0000
1010
0000
,
0101
0000
0001
0010
0100
0000
1010
0000
0101
0000
0001
0010
0100
0000
1010
0000
,
0110
0000
0001
0100
0010
0000
0110
0000
1100
0000
0001
0010
0100
1000
0001
0100
,
0010
1000
0100
0010
0100
0010
0100
0010
0001
0010
0001
0010
0101
0000
1010
0000
,
0101
0000
0001
0010
0100
0000
1010
0000
0100
0010
0001
1000
0100
0000
1010
0000
,
0011
0000
1000
0100
0010
0000
0101
0000
1010
0000
0100
0010
0001
0000
1100
0000
,
0101
0000
1000
0100
1000
0000
0011
0000
0100
0010
0001
0000
1100
0000
0110
0000
,
0011
0000
1000
0010
0100
0000
0011
0000
1100
0000
0100
0010
0001
0000
1100
0000
,
0101
0000
1000
0100
0010
0000
1100
0000
0100
0010
0001
1000
0100
0000
0011
0000
,
0000
1100
0000
0101
0000
1010
0110
0000
,
1001
0000
0000
0000
0011
0000
0000
0000
1010
0000
0000
0000
0001
0010
0100
1000
,
0001
0100
0010
1000
0100
0010
0001
1000
0010
0100
0001
0100
0011
0000
0110
0000
,
1100
0101
0011
1100
0110
0101
1100
0110
,
0011
0101
1100
0011
0110
1100
0110
1100
,
0011
0101
1010
0011
1010
0110
0011
0101
,
1100
0110
1010
0011
0110
1100
0011
0110
,
1010
0000
0011
0000
1000
0100
0010
0001
1000
0100
0010
0001
1000
0000
0000
0000
,
0000
0110
0000
0110
0000
1001
0110
0000
,
1000
0001
1000
0000
0010
0100
0000
0100
0010
0000
2002
0000
0000
0000
0000
0000
,
0000
0000
0000
0000
,
3003
0000
0000
0000
;

//---------------dance-single - Copied from----------------
#NOTES:
     dance-single:
     Copied from:
     Challenge:
     15:
     1.000,1.000,1.000,0.026,1.000,658.000,309.000,2.000,0.000,0.000:
0000
0000
0000
0000
,
0000
0000
0000
0000
,
0000
0000
0000
0000
,
0000
0000
0000
0000
1001
0010
0100
0000
0110
0001
0010
0000
1100
0010
1000
0000
,
0101
0010
1000
0000
0011
0100
0010
0000
1100
0001
0010
0000
0110
1000
0100
0000
,
0011
0100
0010
0000
0101
0010
0100
0000
1010
0001
0100
0000
0110
1000
0100
0000
,
0011
0100
0010
0000
0101
0010
0100
0000
1100
0001
0010
0000
0110
0001
0100
0000
,
1010
0001
1000
0000
0110
1000
0100
0000
0011
0100
0010
0000
0101
0010
0100
0000
,
1010
0001
0100
0000
0110
1000
0100
0000
0011
0100
0010
0000
0101
0010
1000
0000
,
0110
0001
0010
0000
1100
0000
0000
0000
0000
0000
0110
0000
0000
0000
0110
0000
,
0000
0000
1100
0000
1001
0000
0000
0000
0000
0000
0000
0000
1001
0010
0100
0000
,
0010
0001
0010
0000
1100
0001
0110
0000
1000
0100
1000
0000
0011
0100
0010
0000
,
0001
0010
1100
0000
0010
0100
0011
0000
0110
0001
0010
0000
1100
0010
0100
0000
,
1000
0100
1000
0000
0011
1000
0110
0000
0001
0010
0001
0000
1100
0010
0100
0000
,
0001
1000
0110
0000
0100
1000
0011
0000
0011
0100
0010
0000
1100
0001
0010
0000
,
0100
1000
0100
0000
0011
1000
0110
0000
0001
0010
0001
0000
1100
0010
0100
0000
,
1000
0001
0110
0000
0100
0010
1001
0000
0011
0100
0010
0000
1100
0001
0010
0000
,
0100
1000
0010
0000
0110
1000
0011
0000
0100
0010
0001
0000
1100
0010
0100
0000
,
0001
1000
0110
0000
0100
0010
1001
0000
0011
0100
0010
0000
1100
0001
0010
0000
,
0100
1000
0010
0000
0110
1000
0011
0000
0100
0001
0010
0000
1010
0100
1000
0000
,
0010
1000
0101
0000
0010
0100
1001
0000
0011
0100
0010
0000
1100
0001
0010
0000
,
0100
1000
0100
0000
0110
0001
1010
0000
0100
1000
0100
0000
0110
0001
0010
0000
,
0010
0001
1100
0000
0001
1000
0110
0000
1001
0010
0100
0000
0110
0001
0010
0000
,
0100
0010
0001
0000
1100
0010
0101
0000
1000
0010
0100
0000
0110
1000
0100
0000
,
1000
0100
0011
0000
1000
0001
0110
0000
1100
0001
0010
0000
0110
1000
0100
0000
,
0100
1000
0100
0000
0011
1000
0110
0000
0001
0100
0010
0000
1010
0100
0010
0000
,
0010
1000
0101
0000
0010
0001
0110
0000
1010
0001
0100
0000
0110
1000
0100
0000
,
0010
0100
1001
0000
0010
0100
0010
0000
0110
0001
0100
0000
1100
0000
0100
0000
,
0100
0000
0110
0000
0100
0010
1000
0000
0001
1000
0110
0000
1010
0000
0010
0000
,
0010
0000
0110
0000
0010
0001
0010
0000
1100
0010
0100
0000
0101
0000
0101
0000
,
0100
0000
1100
0000
0110
0001
0100
0000
1100
0011
1100
0011
1000
0100
1000
0000
,
1000
0000
1010
0000
1000
0001
1000
0000
1010
0100
0010
0000
1010
0000
0010
0000
,
0010
0000
1010
0000
0010
0100
0010
0000
0010
0100
1010
0000
1010
0000
1000
0000
,
1000
0000
1100
0000
1000
0010
1000
0000
1100
0001
0010
0000
0101
0000
1100
0000
,
0100
0000
0110
0000
0101
0010
0100
0000
0001
0010
0100
1000
0001
0010
0001
0000
,
0100
0010
0100
0000
1100
0001
0110
0000
1000
0010
1000
0000
0101
0010
0100
0000
,
0001
0100
1010
0000
0001
1000
0110
0000
0101
0010
0100
0000
1010
0001
0100
0000
,
0010
1000
0100
0000
0110
1000
0101
0000
0010
0100
0001
0000
1010
0100
0010
0000
,
1000
0001
0110
0000
1000
0100
0011
0000
1001
0010
0100
0000
0110
0000
0011
0000
,
0110
0000
1100
1010
0011
0000
0110
0000
1010
0000
0110
1001
0110
0000
1010
0000
,
0101
0000
1001
0110
0101
0000
1010
0000
0110
0000
1001
0110
0101
0000
1010
0000
,
1100
0000
0101
1010
0101
0000
1010
0000
0110
0000
1001
0110
1010
0000
0101
0000
,
1010
0000
0110
0101
1010
0000
0011
0000
0110
1010
0011
1100
0110
0000
0011
0000
,
1010
0000
0101
1010
0011
0000
1100
0000
0110
0000
0101
1100
0011
0000
0101
0000
,
0011
0000
1100
0011
0110
0000
0011
0000
0110
0101
1010
0011
0110
0000
1010
0000
,
0101
0000
1001
0110
0101
0000
1010
0000
0101
0000
1001
0110
0101
0000
1010
0000
,
0110
0000
1001
0110
0011
0000
0110
0000
1100
0000
0001
0010
0100
1000
0001
0100
,
0010
1000
0100
0010
0100
0010
0100
0010
0001
0010
0001
0010
0101
0000
1010
0000
,
0101
0000
1001
0110
0101
0000
1010
0000
0101
1010
0011
1100
0110
0000
1010
0000
,
0011
0000
1010
0101
1010
0000
0101
0000
1010
0000
1100
0110
0011
0000
1100
0000
,
0101
0000
1010
0110
1100
0000
0011
0000
1100
0110
0011
0000
1100
0000
0110
0000
,
0011
0000
1100
0011
1100
0000
0011
0000
1100
0000
1100
0110
0011
0000
1100
0000
,
0101
0000
1010
0101
1010
0000
1100
0000
1100
0110
0011
1100
0110
0000
0011
0000
,
0010
0001
1100
0000
0010
1000
0101
0000
0100
0001
1010
0000
0110
0000
0000
0000
,
1001
0000
0000
0000
0011
0000
0000
0000
1010
0000
0000
0000
0001
0010
0100
1000
,
0001
0100
0010
1000
0100
0010
0001
1000
0010
0100
0001
0100
0011
1000
0110
0000
,
1100
0010
0101
0000
0101
0010
1100
0000
0110
0001
0110
0000
1100
0001
0110
0000
,
0011
1000
0101
0000
1100
0010
0101
0000
0110
0001
1100
0000
0110
0001
1100
0000
,
0011
1000
0101
0000
1010
0100
0011
0000
1010
0001
0110
0000
0011
1000
0101
0000
,
1100
0001
0110
0000
1010
0100
0011
0000
0110
0001
1100
0000
0011
1000
0110
0000
,
1010
0100
0011
0000
1000
0100
0010
0001
1000
0100
0010
0001
1000
0000
0000
0000
,
0000
0110
0000
0110
0000
1001
0110
0000
,
1000
1000
1000
0000
0010
0010
0000
0100
0100
0000
2002
0000
0000
0000
0000
0000
,
0000
0000
0000
0000
,
3003
0000
0000
0000;

//---------------dance-single - Copied from----------------
#NOTES:
     dance-single:
     Copied from:
     Medium:
     11:
     0.905,1.000,1.000,0.026,0.370,365.000,121.000,2.000,0.000,0.000:
0000
0000
0000
0000
,
0000
0000
0000
0000
,
0000
0000
0000
0000
,
0000
1001
0110
1100
,
0101
0011
1100
0110
,
0011
0101
1010
0110
,
0011
0101
1100
0110
,
1010
0110
0011
0101
,
1010
0110
0011
0101
,
0110
0000
1100
0000
0000
0110
0000
0110
,
0000
0100
1001
0000
0000
0000
1001
0000
,
0000
0000
1000
0110
0000
0000
0011
0000
,
0000
1100
0000
0001
0110
0000
1100
0000
,
0000
0000
0001
0110
0000
0000
1100
0000
,
0000
0110
0000
0100
0011
0000
1100
0000
,
0000
0000
0001
0110
0000
0000
1100
0000
,
0000
0110
0000
1000
0011
0000
1100
0000
,
0000
0000
0100
0011
0000
0000
1100
0000
,
0000
0110
0000
1000
0011
0000
1100
0000
,
0000
0000
0100
0011
0000
0000
1010
0000
,
0000
0101
0000
1000
0011
0000
1100
0000
,
0000
0000
0110
1001
0000
0000
0110
0000
,
0000
1100
0000
0110
1001
0000
0110
0000
,
0000
0000
1000
0101
0000
0000
0110
0000
,
0000
0011
0000
0010
1100
0000
0110
0000
,
0000
0000
0001
0110
0000
0000
1010
0000
,
0000
0101
0000
0110
1010
0000
0110
0000
,
0000
1001
0000
0000
0110
0000
1100
0000
,
0000
0110
0000
0000
0000
0110
1001
0000
,
0000
0110
0000
0000
1100
0000
0010
0101
,
0000
0000
1000
0000
0110
0000
0000
0000
1000
0100
0010
0001
1000
0000
0000
0000
,
0000
0110
0000
0000
0110
0000
1001
0000
,
0000
1100
0000
0000
0000
0001
1010
0000
,
0000
0110
0000
0000
1100
0000
0001
1100
,
0000
0000
0100
0000
0011
0000
0000
0000
0001
0010
0100
1000
0001
0000
0000
0000
,
0000
0000
1000
0110
0000
0000
0101
0000
,
0000
1010
0000
0010
0101
0000
1010
0000
,
0000
0000
0010
0101
0000
0000
1010
0000
,
0000
0110
0000
0010
1001
0000
0100
0001
,
0100
0000
0100
1000
0010
0000
0100
0000
1000
0000
0100
0001
0100
0000
1000
0000
,
0001
0000
0001
0010
0100
0000
1000
0000
0100
0000
0001
0010
0100
0000
1000
0000
,
0010
0000
0100
0010
0001
0000
1000
0000
0100
0000
1000
0100
0010
0000
0100
0000
,
1000
0000
0010
0100
1000
0000
0001
0000
0100
0010
0001
1000
0100
0000
0001
0000
,
1000
0000
0100
0010
0001
0000
1000
0000
0010
0000
0100
1000
0010
0000
0100
0000
,
0001
0000
1000
0010
0100
0000
0010
0000
0100
0001
1000
0010
0100
0000
1000
0000
,
0100
0000
0001
0010
0100
0000
1000
0000
0100
0000
0001
0010
0100
0000
1000
0000
,
0010
0000
0001
0100
0010
0000
0100
0000
1000
0000
0001
0010
0100
1000
0001
0100
,
0010
1000
0100
0010
0100
0010
0100
0010
1000
0010
1000
0010
0001
0000
1000
0000
,
0100
0000
0001
0010
0100
0000
1000
0000
0100
0010
0001
1000
0100
0000
1000
0000
,
0001
0000
1000
0100
0010
0000
0001
0000
1000
0000
0100
0010
0001
0000
1000
0000
,
0001
0000
1000
0100
1000
0000
0001
0000
1000
0010
0001
0000
1000
0000
0100
0000
,
0001
0000
1000
0010
0100
0000
0001
0000
1000
0000
0100
0010
0001
0000
1000
0000
,
0001
0000
1000
0100
0010
0000
1000
0000
0100
0010
0001
1000
0100
0000
0011
0000
,
0000
1100
0000
0101
0000
1000
0110
0000
,
1001
0000
0000
0000
0011
0000
0000
0000
1010
0000
0000
0000
0001
0010
0100
1000
,
0001
0100
0010
1000
0100
0010
0001
1000
0010
0100
0001
0100
1001
0000
0100
0000
,
1000
0100
0011
1000
0010
0001
1100
0010
,
0100
0010
1100
0001
0010
1000
0110
1000
,
0001
0100
1010
0001
1000
0100
1001
0010
,
1000
0001
1010
0001
0100
1000
0011
0100
,
0010
0000
0001
0000
1000
0100
0010
0001
1000
0100
0010
0001
1000
0000
0000
0000
,
0000
0110
0000
0110
0000
1001
0110
0000
,
1000
0001
1000
0000
0010
0100
0000
0100
0010
0000
2002
0000
0000
0000
0000
0000
,
0000
0000
0000
0000
,
3003
0000
0000
0000
;
