#TITLE:Chrysoberyl;
#SUBTITLE:;
#ARTIST:黑貓;
#TITLETRANSLIT:;
#SUBTITLETRANSLIT:;
#ARTISTTRANSLIT:dialgadu77 vs Mimi;
#CREDIT:;
#BANNER:../BN.png;
#BACKGROUND:../BG.png;
#LYRICSPATH:;
#CDTITLE:../CDTitleRP.png;
#MUSIC:Chrysoberyl.ogg;
#OFFSET:-0.103;
#SAMPLESTART:50.101;
#SAMPLELENGTH:9.687;
#SELECTABLE:YES;
#DISPLAYBPM:96.000:192.000;
#BPMS:0.000=192.003,1.000=192.003,2.000=192.003,3.000=192.003,4.000=192.003,5.000=192.003,6.000=192.003,7.000=192.003,8.000=192.003,9.000=192.003,10.000=192.003,11.000=192.003,12.000=192.003,13.000=192.003,14.000=192.003,15.000=192.003,16.000=192.003,17.000=192.003,18.000=192.003,19.000=192.003,20.000=192.003,21.000=192.003,22.000=192.003,23.000=192.003,24.000=192.003,25.000=192.003,26.000=192.003,27.000=192.003,28.000=192.003,29.000=192.003,30.000=192.003,31.000=192.003,32.000=192.003,33.000=192.003,34.000=192.003,35.000=192.003,36.000=192.003,37.000=192.003,38.000=192.003,39.000=192.003,40.000=192.003,41.000=192.003,42.000=192.003,43.000=192.003,44.000=192.003,45.000=192.003,46.000=192.003,47.000=192.003,48.000=192.003,49.000=192.003,50.000=192.003,51.000=192.003,52.000=192.003,53.000=192.003,54.000=192.003,55.000=192.003,56.000=192.003,57.000=192.003,58.000=192.003,59.000=192.003,60.000=192.003,61.000=192.003,62.000=192.003,63.000=192.003,64.000=394.102,64.500=192.017,64.750=96.009,65.000=192.003,66.000=192.003,67.000=192.003,68.000=192.003,69.000=192.003,70.000=192.003,71.000=192.003,72.000=192.003,73.000=192.003,74.000=192.003,75.000=192.003,76.000=191.990,77.000=192.003,78.000=192.003,79.000=192.003,80.000=191.990,81.000=192.003,82.000=192.003,83.000=192.003,84.000=191.990,85.000=192.003,86.000=192.003,87.000=192.003,88.000=191.990,89.000=192.003,90.000=192.003,91.000=192.003,92.000=191.990,93.000=192.003,94.000=192.003,95.000=192.003,96.000=191.990,97.000=192.003,98.000=192.003,99.000=192.003,100.000=191.990,101.000=192.003,102.000=192.003,103.000=192.003,104.000=191.990,105.000=192.003,106.000=192.003,107.000=192.003,108.000=191.990,109.000=192.003,110.000=192.003,111.000=192.003,112.000=191.990,113.000=192.003,114.000=192.003,115.000=192.003,116.000=191.990,117.000=192.003,118.000=192.003,119.000=192.003,120.000=191.990,121.000=192.003,122.000=192.003,123.000=192.003,124.000=191.990,125.000=192.003,126.000=192.003,127.000=192.003,128.000=191.990,129.000=192.003,130.000=192.003,131.000=192.003,132.000=191.990,133.000=192.003,134.000=192.003,135.000=192.003,136.000=191.990,137.000=192.003,138.000=192.003,139.000=192.003,140.000=191.990,141.000=192.003,142.000=192.003,143.000=192.003,144.000=191.990,145.000=192.003,146.000=192.003,147.000=192.003,148.000=191.990,149.000=192.003,150.000=192.003,151.000=192.003,152.000=191.990,153.000=192.003,154.000=192.003,155.000=192.003,156.000=191.990,157.000=192.003,158.000=192.003,159.000=192.003,160.000=96.002,161.000=95.998,162.000=96.002,163.000=95.998,164.000=96.002,165.000=95.998,166.000=96.002,167.000=95.998,168.000=96.002,169.000=95.998,170.000=96.002,171.000=95.998,172.000=96.002,173.000=95.998,174.000=96.002,175.000=95.998,176.000=96.002,177.000=95.998,178.000=96.002,179.000=95.998,180.000=96.002,181.000=95.998,182.000=96.002,183.000=95.998,184.000=96.002,185.000=95.998,186.000=96.002,187.000=95.998,188.000=96.002,189.000=95.998,190.000=96.002,191.000=95.998,192.000=96.002,193.000=95.998,194.000=96.002,195.000=95.998,196.000=96.002,197.000=95.998,198.000=96.002,199.000=95.998,200.000=96.002,201.000=95.998,202.000=96.002,203.000=95.998,204.000=96.002,205.000=95.998,206.000=96.002,207.000=95.998,208.000=96.002,209.000=95.998,210.000=96.002,211.000=95.998,212.000=96.002,213.000=95.998,214.000=96.002,215.000=95.998,216.000=192.003,217.000=192.003,218.000=192.003,219.000=191.990,220.000=192.003,221.000=192.003,222.000=192.003,223.000=191.990,224.000=192.003,225.000=192.003,226.000=192.003,227.000=191.990,228.000=192.003,229.000=192.003,230.000=192.003,231.000=191.990,232.000=394.102,232.500=192.017,232.750=96.009,233.000=192.003,234.000=192.003,235.000=192.003,236.000=191.990,237.000=192.003,238.000=192.003,239.000=192.003,240.000=191.990,241.000=192.003,242.000=192.003,243.000=192.003,244.000=191.990,245.000=192.003,246.000=192.003,247.000=192.003,248.000=191.990,249.000=192.003,250.000=192.003,251.000=191.990,252.000=192.003,253.000=192.003,254.000=192.003,255.000=191.990,256.000=192.003,257.000=192.003,258.000=192.003,259.000=191.990,260.000=192.003,261.000=192.003,262.000=192.003,263.000=191.990,264.000=192.003,265.000=192.003,266.000=192.003,267.000=191.990,268.000=192.003,269.000=192.003,270.000=192.003,271.000=191.990,272.000=192.003,273.000=192.003,274.000=192.003,275.000=191.990,276.000=192.003,277.000=192.003,278.000=192.003,279.000=191.990,280.000=192.003,281.000=192.003,282.000=192.003,283.000=191.990,284.000=192.003,285.000=192.003,286.000=192.003,287.000=191.990,288.000=192.003,289.000=192.003,290.000=192.003,291.000=191.990,292.000=192.003,293.000=192.003,294.000=192.003,295.000=191.990,296.000=393.984,296.500=192.017,296.750=96.009,297.000=192.003,298.000=192.003,299.000=191.990,300.000=192.003,301.000=192.003,302.000=192.003,303.000=191.990,304.000=192.003,305.000=192.003,306.000=192.003,307.000=191.990,308.000=192.003,309.000=192.003,310.000=192.003,311.000=192.003;
#STOPS:;
#BGCHANGES:;
// cache tags:
#FIRSTBEAT:8.000;
#LASTBEAT:309.000;
#SONGFILENAME:Songs/Index Gradation/Chrysoberyl - [rparty]/Chrysoberyl.sm;
#HASMUSIC:1;
#HASBANNER:1;
#MUSICLENGTH:115.078;
// end cache tags

//---------------dance-single - ----------------
#NOTES:
     dance-single:
     :
     Hard:
     14:
     1.000,1.000,0.269,0.243,1.000,980.000,31.000,28.000,0.000,0.000:

0000
0000
0000
0000
,
0000
0000
0000
0000
,
1000
0100
0010
0100
0010
0001
0010
0100
0000
0000
0000
0000
0000
0000
0000
0000
,
2010
3000
0000
0000
,
0000
0000
0000
0000
,
0000
0000
0000
0000
,
1000
0100
0010
0001
0010
0100
1000
0100
0010
0001
0100
0001
1000
0100
0010
0001
,
0020
0100
1030
0001
0100
0001
1000
0100
0010
0001
0100
0001
1000
0010
0100
0001
,
1000
0000
0000
1100
0000
0000
0101
0000
0000
1001
0000
0000
0001
0010
0100
1000
,
0001
0000
0000
1100
0000
0000
0011
0000
0000
1001
0000
0000
0100
0001
1000
0001
,
1000
0000
0000
0011
0000
0000
1100
0000
0000
1001
0000
0000
1000
0100
0010
0001
,
0020
0000
0030
1100
0000
0000
0101
0000
0000
1010
0000
0000
0001
1000
0010
0100
,
0001
0000
0000
1100
0000
0000
0011
0000
0000
1010
0000
0000
0100
0010
1000
0001
,
0010
0000
0000
1100
0000
0000
0101
0000
0000
1010
0000
0000
0001
0010
0100
1000
,
0001
0000
0000
1100
0000
0000
0011
0000
0000
0101
0000
0000
1000
0100
0010
0001
,
2000
0000
3000
0101
0000
0000
1010
0000
0000
0101
0000
0000
1000
0100
0010
0001
,
2000
0000
3001
1000
0010
0100
0001
0100
,
0010
0000
1000
0000
0001
0000
0010
0000
0100
0000
1000
0000
0001
0010
0100
1000
,
0001
1000
0100
0010
0001
0100
0001
1000
0100
0010
0001
0100
0010
1000
0100
1000
,
0020
0030
0100
0000
0001
0000
0010
0000
0001
0000
0100
0000
0010
0000
0100
0000
0001
0000
1000
0000
0001
0000
1000
0000
0100
0000
0010
0000
0001
0000
0100
0000
,
0001
1000
0010
0100
0001
0010
0100
1000
0100
0010
0100
1000
0001
0100
0001
1000
,
0010
0100
0010
1000
0001
0010
0100
0010
0001
1000
0100
0010
0001
1000
0010
0100
,
0001
0010
0100
1000
0001
0010
0100
1000
0100
0010
0001
1000
0100
1000
0001
0100
,
0002
0003
1000
0000
0100
0000
0010
0000
0001
0000
1000
0000
0001
0000
0010
0000
0100
0000
1000
0000
0100
0000
0010
0000
0001
0000
0010
0000
0100
0000
1000
0000
,
0001
0100
0001
1000
0100
0010
0001
0100
0010
1000
0001
0010
0100
1000
0010
0100
,
0001
0010
0100
1000
0100
0010
0001
0100
0010
1000
0100
0010
0001
0100
0001
1000
,
0010
1000
0010
0100
0010
1000
0001
1000
0001
0100
0001
1000
0010
1000
0010
0100
,
0020
0030
0100
0000
0001
0000
0100
0000
0001
0000
1000
0000
0010
0000
1000
0000
0100
0000
0010
0000
0001
0000
0100
0000
0001
0000
1000
0000
0001
0000
1000
0000
,
0010
0100
0010
0100
0001
0100
0001
1000
0010
0100
0001
0010
0100
1000
0100
0010
,
0001
0010
0001
0010
0100
1000
0100
0010
0001
1000
0001
0100
0001
1000
0010
0100
,
0001
0010
0100
1000
0010
0100
0001
0010
0100
1000
0100
0010
0001
0100
0010
1000
,
0002
0003
0100
0000
0001
0000
1000
0000
0010
0000
1000
0000
0001
0000
0010
0000
0001
0000
1000
0000
0100
0000
1000
0000
0001
0000
0100
0000
0001
0000
1000
0000
,
0010
1000
0001
0010
0100
1000
0001
0100
0001
1000
0010
0100
0010
1000
0001
0100
,
0010
0100
0001
1000
0100
0010
0001
0100
0001
1000
0010
0100
0001
0010
0100
1000
,
0010
0100
0001
1000
0100
0010
0001
1000
0010
0100
0001
0010
0100
1000
0100
1000
,
0020
0030
0100
0000
0001
0000
0100
0000
0010
0000
1000
0000
0010
0000
0100
0000
0001
0000
1000
0000
0010
0000
1000
0000
0010
0000
0100
0000
0001
0000
1000
0000
,
0001
0001
1000
1000
0001
0001
0100
0100
,
0101
0001
1000
1000
0010
0010
0100
0100
,
0001
0010
0100
1000
0010
0100
0001
0010
0100
1000
0100
0010
0001
0100
0010
1000
,
0001
1000
0001
1000
0001
1000
0001
1000
0001
0010
0100
1000
0001
0010
0100
1000
,
0001
1000
0100
0010
0001
0000
1000
0010
0100
0001
0010
0100
0000
1000
0010
0100
,
0000
0001
0100
0001
1000
0010
0000
1000
0100
0010
0001
0100
0001
1000
0001
0100
,
0000
0001
0010
0100
0010
0001
0000
1000
0100
0010
0100
1000
0000
1000
0100
0010
,
0000
0001
1000
0001
0100
0001
0000
0010
0100
1000
0001
1000
0010
0100
0001
1000
,
1001
0000
0100
0010
0001
1000
0001
1000
0001
0010
0100
1000
0010
0100
0001
1000
,
0100
0010
0001
0100
0001
0010
0100
1000
0010
0100
0001
1000
0001
0010
0001
0100
,
0010
1000
0010
0100
0001
1000
0001
0100
0010
1000
0001
0100
0010
1000
0010
0100
,
0001
0010
0100
1000
0100
0010
0001
1000
0001
0010
0001
1000
0010
1000
0100
0010
,
1001
0000
0100
0010
0001
1000
0001
1000
0001
0010
0100
1000
0010
0100
0001
1000
,
0100
0010
0001
0100
0001
0010
0100
1000
0010
0100
0001
1000
0001
0010
0001
0100
,
0010
1000
0100
1000
0010
0100
0001
0010
0100
1000
0010
0100
0001
1000
0100
0010
,
0002
0000
0000
2003
0000
0000
3020
0000
0000
0230
0000
0000
0302
0000
0023
0000
0230
0000
0000
2300
0000
0000
3002
0000
0000
0203
0000
0000
0320
0000
0230
0300
,
1001
0010
0100
1000
0001
0100
0001
1000
0100
0010
0001
0100
0001
0010
0100
1000
,
0001
0100
0001
1000
0010
0100
0010
1000
0100
0010
0001
0100
0001
1000
0010
0100
,
1001
1000
0100
0010
0001
1000
0010
0100
,
0001
0010
0100
1000
0100
0010
0001
1000
,
0001
0100
0001
0100
0001
1000
0010
0100
0001
1000
0001
1000
0001
0010
0100
1000
,
0010
1000
0010
1000
0100
0010
0001
1000
0001
0100
0010
1000
0001
1000
0100
0010
,
0002
0000
0000
0000
1003
0100
0010
0001
1000
0001
0100
0001
0010
0100
1000
0100
,
0010
0001
1000
0010
0100
0001
1000
0010
1000
0001
0100
0001
0010
0100
0010
0001
,
1000
0010
0100
0010
1000
0100
0010
0100
1000
0001
1000
0100
0010
0001
0100
0001
,
2000
3000
0010
0000
0100
0000
0001
0000
0010
0000
0001
0000
1000
0000
0100
0000
1000
0000
0010
0000
0100
0000
0001
0000
1000
0000
0100
0000
1000
0000
0010
0000
,
0100
0001
0100
0001
0010
0001
0100
0010
1000
0100
1000
0010
1000
0100
0010
0001
,
0010
0100
1000
0001
1000
0100
0010
0001
1000
0010
0100
0001
0010
0100
1000
0100
,
0010
0001
0100
0001
1000
0010
1000
0100
1000
0010
0100
0001
0010
0001
0100
0010
,
0200
0300
0001
0000
1000
0000
0100
0000
0010
0000
0001
0000
0100
0000
0001
0000
1000
0000
0010
0000
0100
0000
0001
0000
0010
0000
0100
0000
1000
0000
0100
0000
,
0010
0001
1000
0100
1000
0001
0100
0001
1000
0100
0010
0001
0010
0100
1000
0001
,
0100
0001
1000
0010
0100
0001
1000
0010
0100
0001
0010
0100
1000
0010
1000
0100
,
0010
0001
0100
0001
0010
0100
1000
0001
0100
0001
1000
0010
1000
0010
0100
0010
,
2000
3000
0100
0000
0010
0000
0001
0000
0100
0000
0010
0000
1000
0000
0001
0000
0010
0000
0100
0000
1000
0000
0001
0000
0100
0000
0001
0000
1000
0000
0100
0000
,
0010
0010
0100
0100
0001
0001
1000
1000
,
1010
0010
0100
0100
0001
0001
1000
1000
,
0001
0010
0100
1000
0010
0100
0001
0010
0100
1000
0100
0010
0001
0100
0010
1000
,
0100
0010
0100
0010
1000
0001
1000
0001
0100
0010
0100
0010
1000
0001
1000
0001
,
2000
0000
3001
1000
0001
1000
0001
1000
,
0001
1000
0001
0010
0100
1000
0100
0010
,
0001
0010
0100
1000
0100
0010
0001
0010
0100
0000
1000
0000
0001
0000
0100
0000
,
0002
0003
0000
0000
;
