#TITLE:MF The Fetishist - MF Psycho (Imil Remix);
#SUBTITLE:EXoduz Violation;
#ARTIST:Imil;
#TITLETRANSLIT:;
#SUBTITLETRANSLIT:;
#ARTISTTRANSLIT:;
#CREDIT:;
#BANNER:../Banner.png;
#BACKGROUND:../Background.png;
#LYRICSPATH:;
#CDTITLE:;
#MUSIC:The Fetishist - MF Psycho (Imil Remix speedcore).ogg;
#OFFSET:0.004;
#SAMPLESTART:31.274;
#SAMPLELENGTH:12.000;
#SELECTABLE:YES;
#DISPLAYBPM:200.000;
#BPMS:0.000=260.000,4.000=48.020,18.500=249.950,20.000=151.250,28.000=151.500,47.000=151.000,63.000=170.000,64.000=151.000,68.500=200.000,708.500=50.000;
#STOPS:;
#BGCHANGES:;
// cache tags:
#FIRSTBEAT:2.000;
#LASTBEAT:715.500;
#SONGFILENAME:Songs/EXoduz Violation/The Fetishist - MF Psycho (Imil Remix speedcore)/The Fetishist - MF Psycho (Imil Remix speedcore).sm;
#HASMUSIC:1;
#HASBANNER:1;
#MUSICLENGTH:243.029;
// end cache tags

//---------------dance-single - Rynker----------------
#NOTES:
     dance-single:
     Rynker:
     Challenge:
     15:
     1.000,1.000,0.654,1.000,0.806,1330.000,159.000,485.000,103.000,17.000:

0000
0000
MMMM
0000
,
2000
3000
0002
0003
0200
0300
0020
0030
2000
3000
0200
0300
0020
0030
0002
0003
,
0200
0300
0020
0030
2000
3000
0200
0300
0020
0030
0002
0003
2000
3000
0020
0030
,
0200
0300
0002
0003
0020
0030
0002
0003
2000
3000
0020
0030
2000
3000
0020
0000
,
0000
0000
0000
0030
,
MM11
0001
0101
0020
,
0000
0000
0000
1030
0001
0000
0200
0000
0000
0000
0000
0000
0000
0000
0000
0000
0000
0000
0310
0000
0000
1000
0000
0000
,
0000
1100
MM00
0000
0MM0
0000
00MM
0000
,
0000
0000
0011
0101
,
1020
0000
0130
0000
,
0101
0000
0000
0000
0000
0000
0000
0000
0010
1000
0000
0000
0000
0000
0000
0000
0000
0000
MMMM
0000
0000
0000
0000
0200
,
0020
0000
0000
0000
0000
0000
0000
0000
0000
0000
0000
0000
0000
0000
0000
0000
0000
0000
0000
0000
0000
0000
0000
0000
0000
0000
0000
0000
0000
0000
0000
0000
0000
0000
0330
0000
0001
0000
0000
1000
0000
0000
0020
0000
0000
0000
0000
0000
,
0030
0000
0000
0220
0000
0000
0000
0000
0000
0000
0000
0000
0000
0000
0000
0000
,
0000
0330
2002
0000
0000
0000
0000
0000
,
0000
3003
0202
0000
0000
0000
0000
0000
,
0000
0000
0000
0000
0000
0000
0000
0000
0000
0000
0303
0000
2000
3000
0002
0003
,
0200
0300
0000
0000
0000
0000
0000
0000
0000
0000
0000
0000
MMMM
0000
0000
0000
,
0000
0001
1000
0100
0010
0100
1000
0001
,
0010
0100
0010
0001
1000
0010
0100
0001
,
0010
0100
1000
0000
0001
0000
0010
0000
0100
0000
1000
0000
0001
0000
0010
0000
,
0100
0000
0010
0000
0001
0000
1000
0000
0010
0000
0100
0000
0001
0000
0010
0001
,
0400
0310
1000
0100
0010
0001
1000
0010
,
0100
0001
0010
0100
0010
0001
1000
0010
,
0100
0001
0010
0000
0100
0000
1000
0000
0001
0000
0010
0000
0100
0000
0010
0000
,
0001
0000
1000
0000
0100
0000
0010
0000
0100
0000
1000
0000
0040
0000
0130
0001
,
0010
0100
1000
0000
0010
0000
1000
0000
0010
0000
0100
0000
0001
0000
0010
0000
,
0100
0010
0001
1000
0100
0010
0100
1000
,
0010
0100
0001
0000
0010
0000
0100
0000
1000
0000
0001
0000
0100
0000
0001
0000
,
1000
0100
1000
0010
0100
0001
0010
0400
,
1300
0001
0100
0000
0010
0000
1000
0000
0100
0000
0010
0000
0100
0000
1000
0000
,
0010
0000
0000
0000
0000
0000
0100
0000
0000
0001
0000
0000
0010
0000
0000
0001
0000
0000
0010
0000
0000
0001
0000
0000
0010
0000
0000
0001
0000
0000
0010
0000
0100
0000
1000
0000
0100
0000
1000
0000
0100
0000
1000
0000
0100
0000
1000
0000
,
0100
1000
0200
2000
0000
0000
0000
0000
0000
0000
0000
0000
0000
0000
0000
0000
0000
0000
0000
0000
0000
0000
0000
0000
,
0000
0000
0000
0000
,
3300
1000
0001
1000
0001
0100
0001
0010
,
0100
1000
0001
0010
0100
0010
0001
1000
,
0010
0100
0001
0000
1000
0000
0010
0000
0100
0000
0001
0000
0010
0000
0001
0000
,
1000
0000
0010
0000
1000
0000
0001
0000
0100
0000
0001
0000
0010
0000
0100
1000
,
0001
1000
0100
0010
0100
1000
0001
0010
,
0100
0010
0001
1000
0010
1000
0010
0100
,
0001
0010
0100
0000
1000
0000
0001
0000
1000
0000
0100
0000
0010
0000
0100
0000
,
1000
0000
0010
0000
0100
0000
0001
0000
0010
0000
0200
0000
0000
0000
1300
0001
,
0010
0100
1000
0000
0001
0000
1000
0000
0001
0000
0010
0000
0100
0000
1000
0000
,
0001
0100
0001
1000
0100
1000
0010
0100
,
0001
1000
0100
0000
0010
0000
0001
0000
1000
0000
0010
0000
0100
0000
0001
0000
,
0100
0000
0001
0000
0010
0000
0100
0000
0010
0000
0001
0000
1000
0000
0010
0100
,
0004
0000
1003
0100
0010
0100
1000
0001
0010
0100
0010
0001
1000
0010
1000
0010
,
0100
0001
0010
0100
1000
0001
0010
0100
0010
0001
1000
0100
0010
0100
1000
0010
,
0100
0010
0100
0001
0100
0001
1000
0010
0100
0001
0010
0100
0010
0001
1000
0010
,
0200
0000
0000
0000
,
0320
0000
0000
0000
2030
0000
0000
3200
,
0000
0320
0000
0000
0032
0000
0000
0203
,
0000
0320
0000
0000
2030
0000
0000
0000
,
0000
0000
0000
0000
,
3000
2202
0000
0000
0000
0000
0000
0000
,
0000
0000
0000
0000
0000
0000
0000
3303
,
1000
0001
0100
0010
1000
0100
0010
0001
,
1000
0010
0100
0001
0010
0100
1000
0001
,
0100
0001
0010
0100
0010
0001
1000
0010
,
0100
0001
1000
0001
1000
0010
0100
0001
,
0010
0100
0010
0001
1000
0100
0010
0100
,
1000
0010
0100
0001
0010
0100
1000
0001
,
0100
0110
0200
0320
2030
3200
0320
0032
,
2003
3020
0230
0320
0230
0302
0023
0230
,
2300
3002
0023
0230
0320
0032
2003
3200
,
0320
0230
2300
3020
0230
0302
0023
0032
,
0023
0230
2300
3002
0023
0230
0320
0032
,
2003
3020
0230
0320
2030
3200
0320
0032
,
2003
3002
2003
3200
0320
0230
2300
3002
,
0023
0230
0320
0032
2003
3020
0230
0302
,
0023
0230
2300
3020
0230
0302
0203
0302
,
0023
0032
2003
3020
2030
3002
2003
3002
,
2003
3200
0320
0032
2003
3200
0320
0230
,
2300
3002
0023
0230
0320
0032
0203
0302
,
0203
0302
2003
3020
0230
0302
0023
0230
,
0320
0032
2003
3200
0320
0230
2300
3002
,
2003
3020
2030
3200
0320
0230
2300
3002
,
0023
0230
0320
0032
0000
0000
0000
0000
,
0000
0000
0103
0001
0010
0100
1000
0010
0100
0001
0010
0100
1000
0001
0010
0100
,
0010
0001
1000
0100
0010
0100
1000
0001
0100
0001
0010
0100
1000
0001
0040
0000
,
0130
1000
0100
1000
0001
0010
0100
0010
0001
1000
0100
0010
0100
1000
0010
0100
,
0001
0100
0001
0010
0100
1000
0001
0010
0100
0010
0001
1000
0100
0010
0400
0000
,
0000
0000
1300
0001
0100
0010
1000
0100
0010
0001
1000
0100
0010
0100
1000
0001
,
0040
0000
0000
0000
0000
0000
0130
0000
0000
1000
0000
0000
0001
0000
0000
0010
0000
0000
0100
0000
0000
0010
0000
0000
0001
0000
0000
1000
0000
0000
0100
0000
0000
0010
0000
0000
0100
0000
0000
1000
0000
0000
0001
0000
0010
0000
0100
0000
,
0010
0001
1000
0010
1000
0010
0100
0001
0010
0100
1000
0001
0010
0100
0010
0001
,
1000
0100
0010
0100
1000
0001
0100
0001
0010
0100
4000
0000
3004
0000
0103
0010
,
1000
0100
0020
0032
2003
3020
0230
0302
0023
0230
2300
3020
0230
0302
0023
0230
,
0320
0000
0000
0032
0000
0000
2003
0000
0000
3200
0000
0000
0320
0000
0000
0230
0000
0000
2300
0000
0000
3002
0000
0000
0203
0000
0000
0302
0000
0000
0023
0000
0000
0230
0000
0000
1300
0000
0001
0000
0100
0000
0010
0000
0000
1000
0000
0000
,
0100
0000
0010
0000
0001
0000
0100
0000
0000
1000
0000
0000
0010
0000
0000
0100
0000
0000
0010
0000
0000
0100
0000
0000
0001
0000
0000
0010
0000
0000
0100
0000
0000
0010
0000
0000
0001
0000
0000
1000
0000
0000
0100
0000
0000
0010
0000
0000
,
0100
0000
0000
1000
0000
0000
0001
0000
0000
0010
0000
0000
0100
0000
0000
1000
0000
0000
0001
0000
0000
0100
0000
0000
0010
0000
0000
1000
0000
0000
0100
0000
0000
1000
0000
0000
0100
0000
0000
0010
0000
0000
0001
0000
1000
0000
0001
0000
,
1000
0001
1000
0001
0000
0000
2000
0000
0000
3020
0000
0000
0230
0000
0000
0302
0000
0000
2003
0000
0000
3002
0000
0000
,
2003
0000
0000
3200
0000
0000
0320
0000
0000
0032
0000
0000
0203
0000
0000
0340
0000
0000
1030
0010
0100
0002
0000
0000
,
0003
0000
0101
0000
0001
1000
0010
0100
0010
0100
0001
0010
0100
0010
0001
1000
,
0100
0000
0000
0010
0000
0000
0100
0000
0001
0000
1000
0000
0010
0000
1000
0000
0010
0000
1000
0000
0010
0000
1000
0000
0010
0000
1000
0000
0010
0000
2000
0000
0000
0000
0000
0000
0000
0000
0000
0000
0000
0000
3000
0000
0000
0000
0000
0000
,
0000
0110
0110
0220
0330
0022
0033
2200
,
3300
2020
3030
0220
0330
0202
0303
0011
,
0110
2200
3300
2020
3030
0202
0303
0022
,
0033
2020
3030
2002
3003
1100
0110
1001
,
0110
2200
3300
0022
0033
2020
3030
0220
,
0330
0202
0303
2020
3030
0220
0330
1010
,
1010
2020
3030
0022
0033
0220
0330
2020
,
3030
0000
0220
0000
0330
0000
0022
0000
0033
0000
1000
0001
0100
0010
1000
0000
,
0011
0220
0330
2020
3030
0202
0303
0022
,
0033
0220
0330
2020
3030
0202
0303
1001
,
1100
2020
3030
0202
0303
0022
0033
0220
,
0330
2200
3300
0022
0033
2020
3030
0002
,
1003
0001
0200
0000
0300
0000
2200
0000
3300
0000
2020
0000
3030
0000
0202
0000
,
0303
0022
0033
0220
0330
2200
3300
1010
,
0110
0202
0303
0022
0033
2200
3300
2002
,
3003
0220
0330
2002
3003
2020
3030
0202
,
0303
2222
3333
0022
0033
0220
0330
2020
,
3030
0202
0303
0022
0033
0220
0330
1100
,
1010
0220
0330
0202
0303
0022
0033
0220
,
0330
0000
2200
0000
3300
0001
1000
0000
0100
0000
0010
0000
0001
0000
0022
0000
,
0033
2020
3030
2002
3003
0220
0330
2200
,
3300
0022
0033
0202
0303
2020
3030
1100
,
0011
0022
0033
0202
0303
2020
3030
2200
,
3300
0000
0011
0000
0100
0001
0200
0000
0300
0000
2020
0000
3030
0000
2200
0000
,
3300
0122
0000
0000
0033
2210
0000
0000
,
3300
0000
0122
0000
0000
0000
0000
0000
0033
0000
2210
0000
3300
0000
0001
1000
,
0010
0122
0000
0000
0033
2210
0000
0000
,
3300
0122
0000
0000
0033
2210
0000
3300
,
1000
0001
0200
0000
0300
0000
0220
0000
0330
0000
2200
0000
3300
0000
0220
0000
,
0330
0202
0303
0022
0033
2200
3300
1010
,
0101
2200
0000
0000
3300
0220
0000
0000
,
0330
0022
0000
0000
0000
0000
0000
0000
,
0033
0000
2001
0000
0000
0000
3200
M000
0000
0000
0320
0M00
0000
0000
0031
00M0
,
0100
0000
0020
0000
0000
0000
2030
00M0
0000
0000
3200
M000
0000
0000
0320
0M00
,
0000
0000
0032
00M0
0000
0000
2003
000M
0000
0000
3020
M000
0000
0000
0230
00M0
,
0000
0000
0302
0M00
0000
0000
0203
000M
0000
0000
0320
0M00
0000
0000
2030
00M0
,
0000
0000
3200
M000
0000
0000
0320
0M00
0000
0000
0032
00M0
0000
0000
1003
000M
,
0010
0000
0200
0000
0000
0000
0302
0M00
0000
0000
0023
000M
0000
0000
0230
00M0
,
0000
0000
2300
0M00
0000
0000
3002
M000
0000
0000
0203
000M
0000
0000
0320
0M00
,
0000
0000
2030
00M0
0000
0000
3200
M000
0000
0000
0320
0M00
0000
0000
0032
00M0
,
0000
0000
2003
000M
0000
0000
3020
M000
0000
0000
0230
00M0
0000
0000
0301
0M00
,
1000
0000
0020
0000
0000
0000
0230
00M0
0000
0000
0302
0M00
0000
0000
0023
000M
,
0000
0000
0230
00M0
0000
0000
2300
0M00
0000
0000
3002
M000
0000
0000
0023
000M
,
0000
0000
0230
00M0
0000
0000
0320
0M00
0000
0000
0032
00M0
0000
0000
2003
000M
,
0000
3000
M112
0000
0000
0000
0000
0000
0000
0000
0000
0000
0000
0000
0000
0000
,
0003
2222
0000
0000
0000
0000
0000
0000
,
3333
2222
0000
0000
3333
2222
3333
2222
,
3333
0000
0000
1000
0000
0000
0001
0000
0000
0100
0000
0000
0010
0000
0000
1000
0001
1000
0001
1000
0001
1000
0001
1000
,
0001
0000
1000
0000
0001
0000
1000
0000
0000
0100
0000
0000
0010
0000
0000
0100
0000
0000
1000
0000
0000
0001
0000
0000
0010
0000
0000
0100
0000
0000
0010
0000
0000
0001
0000
0000
1000
0000
0000
0010
0000
0000
0100
0000
0000
0001
0000
0000
,
0010
0001
0010
0100
1000
0100
1000
0010
0100
0001
0010
0100
4000
0000
3010
0100
,
0004
0000
0013
0100
1000
0001
0010
0100
1000
0001
0010
0100
0010
0001
1000
0100
,
0010
0000
0000
0100
0000
0000
1000
0000
0000
0010
0000
0000
0100
0000
0000
0001
0000
0000
0100
0000
0000
0001
0000
0000
0010
0000
0000
0100
0000
0000
1000
0000
0000
0001
0000
0000
0010
0000
0000
0100
0000
0000
1000
0000
0001
0000
1000
0000
,
0001
0000
1000
0000
0001
0000
1000
0000
0000
0001
0000
0000
0010
0000
0000
0100
0000
0000
0010
0000
0000
0001
0000
0000
1000
0000
0000
0010
0000
0000
0100
0000
0000
0001
0000
0000
0010
0000
0000
0001
0000
0000
1000
0000
0000
0010
0000
0000
,
1000
0000
0010
0000
0100
0000
0001
0000
0100
0000
0001
0000
0010
0000
0100
0000
0010
0000
0001
0000
1000
0010
4000
0000
0000
0000
3000
0000
1000
0010
4000
0000
,
0000
3000
1000
0001
0100
0010
1000
0100
0010
0100
1000
0001
0010
0100
0010
0001
,
1000
0000
0000
0001
0000
0000
1000
0000
0000
0010
0000
0000
0100
0000
0000
0001
0000
0000
0010
0000
0000
0001
0000
0000
0010
0000
0000
0100
0000
0000
1000
0000
0100
0000
1000
0000
0100
0000
1000
0000
0100
0000
1000
0000
0100
0000
1000
0000
,
0100
1000
0100
1000
0000
0000
0001
0000
0000
1000
0000
0000
0010
0000
0000
0100
0000
0000
0001
0000
0000
0100
0000
0000
,
0001
0000
0000
1000
0000
0000
0001
0000
0000
1000
0000
0000
0001
0000
0000
1000
0000
0000
0100
0000
0000
0010
0001
0010
,
0001
0010
0001
0010
0000
0000
0001
0000
0000
1000
0000
0000
0010
0000
0000
0100
0000
0000
0001
0000
0000
0010
0000
0000
,
0100
1000
0001
0000
1000
0000
0010
0000
0100
0000
0001
0000
0010
0000
0400
0000
,
1300
0010
0100
0001
0010
0100
1000
0001
,
0010
0001
1000
0010
0100
0102
0003
0102
,
0003
0000
0102
0000
0103
0000
0001
0000
0010
0000
0100
1000
0001
0010
0001
0010
,
0001
0010
0200
0000
0000
0000
0000
0000
0000
0000
0000
0000
0000
0000
0000
0000
,
0300
2200
0000
0000
0000
0000
0000
3300
,
2201
0000
0000
0000
,
0000
0000
0000
3300
1202
0000
0000
0000
,
0000
0000
0000
0000
,
0000
0303
1000
0000
0001
0000
0010
0000
0100
0000
1000
0000
0010
0000
0100
0000
,
0001
0000
0000
0100
0000
0000
0001
0000
0000
0010
0000
0000
0100
0000
0000
1000
0000
0000
0001
0000
0000
0010
0100
1000
,
0004
1003
0001
0010
0100
1000
0010
0100
,
0001
0000
0000
0000
1000
0000
0000
0000
0001
0000
0000
0000
1000
0000
0000
0000
0010
0000
0000
0000
0100
0000
0000
0000
0001
0000
0000
0000
1000
0001
1000
0001
,
1000
0001
1000
0001
1000
0000
0000
0000
0001
0000
0000
0000
0100
0000
0000
0000
0010
0000
0000
0000
1000
0000
0000
0000
0100
0000
0000
0000
0010
0000
0000
0000
,
0001
0000
0010
0000
0001
0000
1000
0000
0010
0000
1000
0010
1000
0010
0100
0001
,
0010
0100
1000
0000
0001
0000
0010
0000
0100
0000
1000
0000
0001
0000
1000
0000
,
0001
0000
0000
0000
1000
0000
0000
0000
0100
0000
0000
0000
0010
0000
0000
0000
0001
0000
0000
0000
1000
0000
0000
0000
0100
0010
0400
0000
0000
0000
0300
0000
,
0010
0001
0010
0000
0001
0000
1000
0000
0010
0000
0100
0000
0001
0000
0100
0000
0001
0000
0010
0000
0100
0000
0010
0000
0001
0000
1000
0000
0100
0000
0010
0000
,
0100
0000
1000
0000
0001
0000
0010
0000
0001
0000
1000
0000
0010
0000
1000
0000
0010
0000
0100
0000
0001
0000
0010
0000
0100
0000
1000
0000
0001
0010
0400
0000
,
0000
0000
0300
0000
0010
0100
1000
0000
0001
0000
0010
0000
0100
0000
1000
0000
0010
0000
0100
0000
0001
0000
0100
0000
0001
0000
0010
0000
0001
0000
0010
0000
,
0001
0000
0000
1000
0000
0000
0010
0000
0000
1000
0000
0000
0010
0000
0000
0100
0000
0000
0001
0000
0000
0100
0000
0000
0001
0000
0000
0010
0000
0000
0100
0000
0000
1000
0000
0000
0001
0000
0000
0010
0000
0000
0100
0000
1000
0000
0001
0000
,
0010
0000
0001
0000
0010
0000
0001
0000
0000
0010
0000
0000
0100
0000
0000
1000
0000
0000
0001
0000
0000
0010
0000
0000
0001
0000
0000
1000
0000
0000
0100
0000
0000
1000
0000
0000
0001
0000
0000
0010
0000
0000
0001
0000
0000
1000
0000
0000
,
0100
0000
0000
0010
0000
0000
0100
0000
0000
1000
0000
0000
0001
0000
0000
0010
0000
0000
0100
0000
0000
0010
0000
0000
0001
0000
0000
1000
0000
0000
0010
0000
1000
0000
0010
0000
4000
0000
0000
0000
0000
0000
3010
0000
1000
0000
0010
0000
,
4000
0000
0000
3010
1000
0010
1000
0010
1000
0010
1000
0010
1000
0010
1000
0010
1000
0040
4000
0000
0000
0000
0000
0000
,
0000
0000
0000
0000
0000
0000
0000
3030
,
0000
0000
M000
M000
M000
M000
M0M0
00M0
00M0
00M0
0MM0
0M00
0M00
0M00
0M0M
00M0
,
00M0
00M0
0MM0
0M00
0M00
0M00
MM00
M000
M000
M000
M0M0
00M0
00M0
00M0
MMMM
0000
;
