#TITLE:Steel Bomber;
#SUBTITLE:;
#ARTIST:Kommisar;
#TITLETRANSLIT:;
#SUBTITLETRANSLIT:;
#ARTISTTRANSLIT:;
#CREDIT:Arvin;
#BANNER:../Tachyon Gamma-bn.png;
#BACKGROUND:../Tachyon Gamma-bg.png;
#LYRICSPATH:;
#CDTITLE:;
#MUSIC:Steel Bomber.ogg;
#OFFSET:-0.029;
#SAMPLESTART:23.902;
#SAMPLELENGTH:16.000;
#SELECTABLE:YES;
#DISPLAYBPM:225.060;
#BPMS:0.000=225.060;
#STOPS:;
#BGCHANGES:;
// cache tags:
#FIRSTBEAT:32.000;
#LASTBEAT:405.000;
#SONGFILENAME:Songs/Tachyon Gamma/Steel Bomber - [Arvin]/Steel Bomber.sm;
#HASMUSIC:1;
#HASBANNER:1;
#MUSICLENGTH:108.885;
// end cache tags

//---------------dance-single - Arvin----------------
#NOTES:
     dance-single:
     Arvin:
     Challenge:
     16:
     1.000,1.000,0.101,0.946,1.000,1049.000,11.000,103.000,0.000,0.000:

0000
0000
0000
0000
,
0000
0000
0000
0000
,
0000
0000
0000
0000
,
0000
0000
0000
0000
,
0000
0000
0000
0000
,
0000
0000
0000
0000
,
0000
0000
0000
0000
,
0000
0000
0000
0000
,
1000
0100
0010
0100
1000
0001
0010
0001
,
0010
0001
0010
0001
0010
0001
0010
0001
,
1000
0010
0100
0010
1000
0001
0100
0001
,
0100
0000
0001
0000
0100
0000
0001
0000
0202
0000
0000
0303
2020
0000
0000
3030
,
0001
0100
0010
0100
0001
1000
0010
1000
,
0010
1000
0010
1000
0010
1000
0010
1000
,
0001
0100
0010
0100
0001
1000
0100
1000
,
0100
1000
0100
0010
0001
0100
0010
1000
,
0002
0000
1000
0000
1003
0000
0001
0000
1000
0000
0001
0010
0001
0000
1000
0010
,
1000
0000
0001
0100
0001
0000
1000
0000
0010
0000
0100
0000
0001
0000
1000
0000
,
0002
0000
1000
0000
1003
0000
0001
0000
1000
0000
0001
0100
0001
0000
1000
0010
,
1000
0000
0001
0010
0002
0000
0000
0000
0203
0000
0000
0000
0320
0000
0000
0000
,
2030
0000
0001
0000
3001
0000
1000
0000
0001
0000
1000
0100
1000
0000
0001
0100
,
0001
0000
1000
0010
1000
0000
0001
0000
0100
0000
0010
0000
1000
0000
0001
0000
,
2000
0000
0001
0000
3001
0000
1000
0000
0001
0100
0010
1000
0001
0100
0010
1000
,
0002
0023
0230
0320
0000
0032
2003
0001
,
3002
0000
1003
0010
1000
0001
0200
0000
0301
0010
0001
1000
0200
0000
1300
0100
,
1000
0010
0200
0000
0301
0010
0001
0100
0020
0000
0000
0000
0230
0000
0000
0000
,
0302
0000
0103
0010
0100
0010
2000
0000
3010
0100
0010
0100
0002
0000
1003
0010
,
0100
0010
2000
0000
3001
0010
0100
0010
0002
0000
0000
0000
0203
0000
0000
0000
,
0302
0000
1003
0010
1000
0001
2000
0000
3001
0010
0001
1000
0002
0000
0103
0010
,
0100
0001
2000
0000
3010
0100
0010
1000
0002
0000
0103
0001
1000
0010
0200
0000
,
0320
0000
1030
0100
1000
0000
0002
0000
1000
0000
1003
0000
0010
0000
0100
0000
,
0001
1000
0100
0010
0100
1000
0010
0100
,
0002
0000
0013
0100
0010
0100
2000
0000
3100
0010
0100
0010
0002
0000
1003
0010
,
0100
0010
2000
0000
3001
0010
0100
0010
0002
0000
0000
0000
0023
0000
0000
0000
,
0032
0000
0103
0010
0100
0001
2000
0000
3010
0100
0010
1000
0002
0000
0103
0010
,
0100
0010
2000
0000
3010
0100
0010
0100
0002
0000
0000
0003
0002
0000
0000
0000
,
2003
0000
3100
0010
0001
0100
0020
0000
1030
0001
0100
0010
0200
0000
0301
1000
,
0010
0100
0020
0000
1030
0001
0100
0010
0200
0000
0000
0300
0200
0000
0000
0000
,
0302
0000
1003
0100
0010
0001
2000
0000
3001
0010
0100
1000
0002
0000
0103
0010
,
0100
0001
0020
0000
0130
1000
0100
0010
0001
0100
0010
1000
0100
0010
0001
0100
,
0002
0000
0203
0000
0320
0000
2030
0000
0000
0000
0000
0000
3002
0000
0103
0010
,
2000
3002
0000
0023
0230
0320
0230
2300
,
3001
0100
0001
0100
0001
0100
0001
0100
0001
0100
0001
0100
0001
0100
0001
0100
,
0010
1000
0010
1000
0010
1000
0010
1000
0001
0010
0001
0010
0100
1000
0100
1000
,
0001
0000
1000
0001
0010
0000
0100
0000
0000
0000
0100
0000
1000
0000
0001
0000
,
0100
0020
0000
0000
1030
0100
1000
0002
,
1003
0100
1000
0001
0100
0010
0100
0001
1000
0010
1000
0001
0010
0000
0100
0000
,
1000
0001
1000
0020
0000
0130
0001
1000
,
0001
0100
0001
0100
0010
1000
0010
1000
0001
0010
0100
0010
0100
1000
0001
0100
,
0001
1000
0000
0001
0000
0001
1000
0100
,
0010
0002
0000
2003
0000
0000
3001
0100
,
0020
0000
2030
0000
,
3001
0010
0001
1000
0010
1000
0001
0010
0001
1000
0010
1000
0100
0010
0100
0010
,
0001
1000
0100
0010
0001
0100
0010
1000
0100
0010
0001
0100
0010
0100
0010
1000
,
0002
0000
1003
0010
1000
0010
0200
0000
0301
0010
0001
0010
0200
0000
1300
0100
,
0010
0100
2000
0000
3001
0100
0010
0100
0001
1000
0010
1000
0100
0010
0001
1000
,
0001
0100
0010
0100
0001
1000
0100
0010
0100
1000
0001
0100
0010
0100
0001
1000
,
0100
0010
0100
1000
0001
0100
0010
0100
0001
1000
0001
0100
0010
0100
0001
1000
,
0001
0010
0100
0010
0001
1000
0010
0100
0010
1000
0001
0010
0100
0010
0001
1000
,
0001
0100
0010
0100
0001
1000
0100
0010
0100
1000
0001
0100
0010
0100
0001
1000
,
0100
0010
0100
0010
0001
0100
0010
0100
0010
1000
0100
0010
0100
0010
0001
0100
,
0010
1000
0010
0100
0001
1000
0010
0100
0010
1000
0010
0100
0001
1000
0010
0100
,
0001
0010
0001
1000
0100
1000
0001
0100
0001
1000
0010
1000
0001
0010
0001
1000
,
0400
0320
0430
0320
0430
0320
0430
0320
,
0031
0010
0100
0010
0001
1000
0010
0100
0010
1000
0001
0010
0100
0010
0001
1000
,
0010
0100
0010
1000
0001
0010
0100
0010
0001
1000
0001
0010
0100
0010
0001
1000
,
0001
0100
0010
0100
0001
1000
0100
0010
0100
1000
0001
0100
0010
0100
0001
1000
,
0001
0010
0100
0010
0001
1000
0010
0100
0010
1000
0001
0010
0100
0010
0001
1000
,
0010
0100
0010
0100
0001
0010
0100
0010
0100
1000
0010
0100
0010
0100
0001
0010
,
0100
1000
0100
0010
0001
1000
0100
0010
0100
1000
0100
0010
0001
1000
0100
0010
,
0001
0100
0001
1000
0010
1000
0001
0010
0001
1000
0010
1000
0001
0100
0001
1000
,
0004
2003
3004
2003
3004
2003
3004
2003
,
3001
0000
0010
0100
0010
0000
0001
0000
0001
0000
1000
0000
0001
0010
0001
0000
,
1000
0000
0100
0010
0001
0000
0100
0000
0010
0000
0100
0000
0001
1000
0010
0000
,
1000
0000
0100
0010
0100
0000
1000
0000
1000
0000
0001
0000
1000
0100
1000
0000
,
0001
0000
0010
0000
0100
1000
0001
0000
0400
0000
0304
0000
0403
0000
0304
0000
,
1003
0000
0100
0010
0100
0000
1000
0000
1000
0000
0001
0000
1000
0100
1000
0000
,
0001
0000
0010
0100
1000
0000
0010
0000
0100
0000
0010
0000
1000
0001
0100
0000
,
0001
0100
0001
0100
0001
0100
0001
0100
0001
0100
0001
0100
0001
0100
0001
0100
,
0010
1000
0010
1000
0010
1000
0001
0010
0001
0010
0100
1000
0100
1000
0100
1000
,
0001
1000
0001
0010
0001
1000
0001
0100
,
0020
0000
1030
0010
1000
0010
0100
0000
0001
0000
1000
0100
1000
0100
0010
0000
,
0001
0000
1000
0010
1000
0000
0001
0000
0100
0000
0010
0000
1000
0000
0001
0000
,
1000
0000
1000
0000
0200
0320
0230
0320
,
0031
1000
0001
0010
0001
0100
0001
1000
,
0020
0000
0130
0010
0100
0010
1000
0000
0001
0000
0010
0100
0010
0100
1000
0000
,
0001
0010
0001
0010
0001
0010
0001
0010
0001
0010
0001
0010
0001
0010
0001
0010
,
0100
1000
0100
1000
0100
1000
0001
0100
0001
0100
0010
1000
0010
1000
0010
1000
,
0001
1000
0001
0100
0001
1000
0001
0010
,
0200
0000
1300
0100
1000
0100
0010
0000
0001
0000
1000
0010
1000
0010
0100
0000
,
0001
0000
1000
0100
1000
0000
0001
0000
0010
0000
0100
0000
1000
0000
0001
0000
,
1000
0000
1000
0000
0020
0230
0320
0230
,
0301
1000
0001
0100
0001
0010
0001
1000
,
0200
0000
0310
0100
0010
0100
1000
0000
0001
0000
0100
0010
0100
0010
1000
0000
,
0001
0100
0001
0100
0001
0100
0001
0100
0001
0100
0001
0100
0001
0100
0001
0100
,
0010
1000
0010
1000
0010
1000
0001
0010
0001
0010
0100
1000
0100
1000
0100
1000
,
0001
0010
0001
0010
0001
0010
0001
0010
0001
0010
0001
0010
0001
0010
0001
0010
,
0100
1000
0100
1000
0100
1000
0001
0100
0001
0100
0010
1000
0010
1000
0010
1000
,
0001
0100
0001
0100
0001
0100
0001
0100
0001
0100
0001
0100
0001
0100
0001
0100
,
0010
1000
0010
1000
0010
1000
0001
0010
0001
0010
0100
1000
0100
1000
0100
1000
,
0002
0000
0000
0000
,
1003
0100
0010
0001
1000
0000
0000
0000
0000
0000
0000
0000
0000
0000
0000
0000
;
