#TITLE:Doctor Worm;
#SUBTITLE:;
#ARTIST:They Might Be Giants;
#TITLETRANSLIT:;
#SUBTITLETRANSLIT:;
#ARTISTTRANSLIT:;
#CREDIT:;
#BANNER:Doctor Worm-bn.png;
#BACKGROUND:Doctor Worm-bg.png;
#LYRICSPATH:;
#CDTITLE:!hoboTitle.png;
#MUSIC:they might be giants (tmbg)_severe tire damage_01_doctor worm.mp3;
#OFFSET:-0.340;
#SAMPLESTART:9.280;
#SAMPLELENGTH:12.000;
#SELECTABLE:YES;
#BPMS:0.000=161.880;
#STOPS:;
#BGCHANGES:;
// cache tags:
#FIRSTBEAT:1.000;
#LASTBEAT:477.500;
#SONGFILENAME:Songs/longs versions/Doctor Worm/Doctor Worm.sm;
#HASMUSIC:1;
#HASBANNER:1;
#MUSICLENGTH:181.577;
// end cache tags

//---------------dance-single - ----------------
#NOTES:
     dance-single:
     :
     Challenge:
     11:
     0.828,1.000,1.000,0.176,0.350,736.000,285.000,32.000,0.000,1.000:
0000
0000
0000
1100
0000
0000
1100
0000
0000
1100
0000
0110
,
0000
0000
1001
0000
0000
0000
1001
0000
0000
1001
0000
0101
,
0000
0000
0110
0000
0000
0000
0110
0000
0000
0110
0000
1100
,
0000
0000
1010
0000
0000
0000
1010
0000
0000
0110
0000
0000
,
0101
0000
1001
0000
0010
1100
1100
0000
,
0010
0000
0101
0000
0010
0101
0101
0000
,
0110
0001
1100
0001
0110
0011
0100
0011
,
0110
1000
0010
1000
0100
1000
0010
0001
,
0110
0001
1100
0001
0110
0001
1010
0100
,
1001
0011
1000
0100
1001
0010
0101
1000
,
0110
1100
0010
0100
0010
1001
0101
1001
,
1010
0110
0101
0010
1000
0100
0010
0001
,
0110
1000
0101
1000
0110
2100
0001
0010
,
3100
0110
0001
1000
0110
1001
0010
0100
,
1001
0010
0011
0000
0011
0000
0011
0000
,
0011
0101
0101
0101
,
0101
1001
1001
1001
,
1001
1010
1010
1010
,
1010
1100
1100
1100
,
1100
0110
0110
0110
,
0110
0011
1010
0100
1010
0110
0001
1100
,
0110
0001
0100
0010
1000
0100
0010
0001
,
0110
1000
0101
0010
1001
0110
0001
0100
,
0011
1001
0100
0010
1100
0110
0001
0010
,
0101
1001
0010
0100
1010
0120
1000
0130
,
0011
0110
1000
0101
0010
1000
0010
0100
,
0010
1001
1010
0100
0011
0101
0010
1001
,
0100
0000
1010
0000
0100
0000
1001
0000
0010
0000
0100
0010
0100
0000
1000
0000
,
0100
0010
0101
0000
0101
0000
0101
0000
,
0101
0110
0110
0110
,
0110
1010
1010
1010
,
1010
1100
1100
1100
,
1100
1010
1010
1010
,
1010
1001
1001
1001
,
1001
0002
0000
0023
,
0000
0000
0000
0230
0000
0000
0000
0000
0000
1300
0001
0100
,
0010
1000
0001
1100
0000
0000
1100
0000
0000
1100
0000
0110
,
0000
0000
0101
0000
0000
0000
0101
0000
0000
0110
0000
1001
,
0000
0000
1010
0000
0000
0000
1010
0000
0000
0110
0000
0011
,
0000
0000
1100
0000
0000
0000
1001
0000
0000
0101
0000
0000
,
1100
0000
0000
0000
1001
0000
0000
0000
0010
0000
0100
0010
0001
0000
0100
0010
,
1000
0000
0100
0010
0001
0000
0010
0100
1000
0000
0100
0010
0001
0010
0100
0010
,
1000
0000
1000
0100
0010
0000
0100
0001
1000
0000
0010
0100
0001
0000
0010
1000
,
0001
0000
0010
0001
1000
0000
0100
0001
0010
0000
0100
0001
0100
0010
0100
0001
,
1100
0000
1100
0000
1001
0010
0100
0001
0100
0010
0100
0001
0100
0010
0100
1000
,
0001
1000
0010
1000
0100
0010
0001
1000
0001
0100
0001
0010
0100
1000
0100
0010
,
0001
0010
1000
0010
0001
0010
1000
0100
0001
0100
1000
0100
0001
0010
0100
1000
,
0010
0100
0001
1000
0010
0100
0001
1000
0010
0100
0010
1000
0010
0100
0010
0001
,
0100
0001
0100
0010
0100
1000
0100
0010
0100
1000
0100
0010
0001
0010
0100
0010
,
0001
1000
0001
0100
0001
0010
0001
0010
0100
1000
0001
1000
0010
1000
0100
0010
,
0001
1000
0010
0100
0001
1000
0010
0100
1000
0100
0010
0001
0100
0010
1000
0100
,
0010
0100
1000
0010
0100
0001
0010
0100
0020
0000
0031
0000
0001
0010
0100
0000
,
0001
0010
0100
0000
1001
0000
0000
0000
0010
0000
0000
0000
1100
0000
0000
0000
,
0010
0000
1001
0000
0100
0010
1100
0000
,
0010
0000
0101
0000
1000
0000
0110
0001
,
0010
0000
1100
0000
0010
0100
1001
0010
,
0100
1000
0120
0000
0000
0000
0230
0000
,
0000
2300
0000
3200
,
0000
0320
0000
0032
,
0000
0023
0000
0230
,
0000
0000
1301
0000
0010
0100
0000
1000
,
0100
0110
0000
0000
,
0100
0000
0101
0000
0010
0010
0000
0000
,
0100
0100
0110
0000
1000
1000
0000
0000
,
0001
0011
0010
0100
,
1000
1100
0100
0010
,
0001
1002
1000
1000
,
1000
0000
0000
1003
0001
0100
0010
1000
0001
0100
0010
1000
,
0001
0100
0010
1100
0000
0000
1100
0000
0000
1100
0000
0101
,
0000
0000
1001
0000
0000
0000
1001
0000
0000
1001
0000
0101
,
0000
0000
0011
0000
0000
0000
0011
0000
0000
0011
0000
0110
,
0000
0000
1010
0000
0000
0000
1010
0000
0000
0110
0000
0000
,
0101
1001
0100
0011
,
0100
0000
1010
0000
0001
1000
0110
0000
,
0001
1100
0010
0101
,
1000
0000
0011
0000
0100
0000
0011
0100
,
0010
0100
2010
0000
0000
0000
3200
0000
,
0000
0320
0000
0032
,
0000
0023
0000
0230
,
0000
2300
0000
3200
,
0000
0000
0310
0000
0010
0001
0000
0001
,
0100
0000
0000
0000
,
1000
0010
0100
0001
,
0010
0100
0000
0000
0100
0000
0100
0000
,
0100
0010
0000
0000
0000
0100
1000
0100
,
0010
0001
0010
0000
0000
0000
0000
0000
,
1000
0000
0001
0000
0010
0200
0000
0000
,
0310
0100
0000
0000
0100
0010
0000
0000
,
0001
0000
1001
0010
1001
0010
1001
0010
,
1001
0010
1100
0001
1100
0001
1100
0001
,
1100
0001
1010
0100
1010
0100
1010
0100
,
1010
0100
0011
1000
0011
1000
0011
1000
,
0011
1000
0110
0001
0110
0001
0110
0001
,
0110
0000
0001
0000
1100
0000
0010
0000
1100
0000
0010
0000
1100
0000
0100
0001
,
0100
0010
1100
0010
1001
0101
0010
1100
,
1010
0100
0001
0100
0010
0100
1000
0100
,
0011
0100
1001
0010
1100
1001
0010
0100
,
0011
1010
0100
0010
1001
1010
0100
0010
,
0101
0011
0100
1000
0110
0012
0100
0013
,
1100
1010
0100
0011
0100
1000
0010
0100
,
1001
0010
1100
0010
0101
0110
1000
0101
,
0010
0000
1001
0000
0010
0000
1100
0000
0010
0000
1001
0000
0010
0000
0100
0010
,
0100
1000
0101
0000
0101
0000
0101
0000
,
0101
0110
0110
0110
,
0110
1010
1010
1010
,
1010
1100
1100
1100
,
1100
1001
1001
1001
,
1001
0101
0101
0101
,
0101
1002
0000
0023
,
0000
0000
0000
0230
0000
0000
0000
0000
0000
0310
1000
0001
,
0100
0010
1000
0101
0000
0000
0101
0000
0000
0101
0000
0110
,
0000
0000
1100
0000
0000
0000
1100
0000
0000
1100
0000
0110
,
0000
0000
1001
0000
0000
0000
1001
0000
0000
1001
0000
1010
,
0000
0000
0011
0000
0000
0000
0011
0000
1000
0110
1000
0010
,
1100
0000
1001
0010
0100
1000
0100
0020
,
0000
0000
0130
0010
0100
0010
0100
0010
0100
0010
0100
0010
0100
0000
0010
0000
,
0000
0200
0000
0300
0100
0000
0100
0010
,
0000
0001
0000
0000
0001
0000
0110
0000
,
1100
2002
0000
0000
,
0000
0000
0000
3003
0000
0000
0000
0000
;
