#TITLE:Final Audition 2;
#SUBTITLE:;
#ARTIST:BanYa;
#TITLETRANSLIT:;
#SUBTITLETRANSLIT:;
#ARTISTTRANSLIT:;
#CREDIT:;
#BANNER:fa2-bn.bmp;
#BACKGROUND:fa2-bg.bmp;
#LYRICSPATH:;
#CDTITLE:;
#MUSIC:Final Audition 2.mp3;
#OFFSET:-7.220;
#SAMPLESTART:59.200;
#SAMPLELENGTH:12.800;
#SELECTABLE:YES;
#BPMS:0.000=130.000;
#STOPS:28.000=1.800
,91.000=0.360
;
#BGCHANGES:;
// cache tags:
#FIRSTBEAT:0.000;
#LASTBEAT:187.000;
#SONGFILENAME:Songs/toune/Final Audition 2/Final Audition 2.sm;
#HASMUSIC:1;
#HASBANNER:1;
#MUSICLENGTH:106.710;
// end cache tags

//---------------dance-single - ----------------
#NOTES:
     dance-single:
     :
     Challenge:
     8:
     0.494,0.460,0.150,0.216,0.248,330.000,16.000,23.000,0.000,0.000:
1000
0000
0010
0000
0100
0000
0001
0100
0000
0001
0100
0000
1000
0000
1000
0000
,
0010
0000
0100
0000
0001
0000
1000
0010
0000
1000
0010
0000
0001
0000
0001
0000
,
0100
0000
1000
0000
0100
0000
0001
0100
0000
0100
0001
0000
0010
0000
0010
0000
,
1000
0000
0010
0000
0001
0000
0010
1000
0000
1000
0010
0000
0100
0000
0100
0000
,
0001
0000
0010
0000
0100
0000
1000
0010
0000
0100
0001
0000
0010
0000
0010
0000
,
1000
0000
0100
0000
0010
0000
0001
0010
0000
0100
1000
0000
0010
0000
0010
0000
,
0100
0000
0001
0000
0010
0000
0100
1000
0000
0001
0100
0000
1000
0000
1000
0000
,
1001
0000
1000
1000
0001
0100
0001
0100
,
0001
0100
0010
0010
1000
0000
0002
2003
,
3020
0000
0130
0100
0001
0010
1000
0010
,
0001
0010
0100
0100
0001
0000
0002
0203
,
2300
0000
3010
0010
1000
0100
0010
0001
,
1000
0100
0001
0001
1000
0000
0020
0230
,
0302
0000
1003
1000
0001
0010
0100
1000
,
0001
0010
0100
0100
1000
0000
0020
0230
,
2300
0000
0000
0000
3100
0010
0000
0100
0010
0000
0100
0010
0000
0100
0010
0000
,
0200
0001
0001
0002
,
0303
0000
0000
0000
0001
1000
0000
0001
1000
0000
0001
1000
0000
0001
1000
0000
,
0002
1000
1000
2000
,
3003
0000
0000
0000
0100
0010
0000
1000
0001
0000
0010
0100
0000
1000
0010
0000
,
0200
0000
0010
0010
0010
0010
0020
0000
,
0330
0000
0000
0000
1000
0010
0000
0100
0001
0000
0010
0100
0000
1000
0010
0000
,
0200
0000
1000
1000
1000
1000
1300
0000
,
1010
0000
0000
0000
0011
0000
0000
0000
0001
0010
0100
0000
1000
0000
0000
0000
,
0101
0000
0101
0000
0001
0010
0100
1000
,
1100
0000
0000
0000
0110
0000
0000
0000
1000
0010
0100
0000
0001
0000
0000
0000
,
1100
0000
0101
0000
0001
0100
0010
1000
,
1000
0001
0000
1000
0010
0000
0100
0010
0000
1000
0001
0000
1001
0000
0000
0000
,
0010
0100
0000
0001
1000
0000
0010
0100
0000
0001
0010
0000
2000
0000
0000
0000
,
3100
0001
0100
1000
,
0100
0001
0100
1000
0100
0000
0010
0000
,
0100
0000
0001
0000
0100
0010
0100
0001
,
0100
0010
0100
1000
0100
0010
0100
0000
,
0001
0000
0010
0000
0001
0100
0001
0000
,
0100
0001
0100
0000
0001
0100
0001
0000
,
1000
0010
0001
0010
1000
0100
0001
0100
,
1000
0010
0001
0010
1000
0100
0101
0000
,
1000
0010
1000
0000
0010
1000
0010
0000
,
1000
0010
1000
0000
0101
0000
0101
0000
,
0102
0000
0000
1000
0000
0000
0100
0000
0000
0000
0010
0000
0010
0000
0003
0000
,
1000
0100
0001
0010
1000
0100
0001
0010
,
1200
0000
0000
0010
0000
0000
1000
0000
0000
0000
0001
0000
0301
0000
0000
0000
,
0001
0010
1000
0100
0001
0010
1000
0100
,
0010
0001
0000
1000
0001
0000
0010
0001
0000
1000
0001
0000
0101
0000
0000
0000
,
0100
1000
0000
0100
1000
0000
0010
0100
0010
0000
0001
1000
0000
0010
0100
0010
,
0000
0000
0100
1000
0100
0000
1000
0000
0010
0000
0001
0000
0010
0000
1000
0000
,
0020
0000
0000
0030
;
