#TITLE:Mega Man Techno Theme;
#SUBTITLE:;
#ARTIST:Essence;
#TITLETRANSLIT:;
#SUBTITLETRANSLIT:;
#ARTISTTRANSLIT:;
#CREDIT:;
#BANNER:megaman-bn.PNG;
#BACKGROUND:megaman-bg.PNG;
#LYRICSPATH:;
#CDTITLE:cdtitle.PNG;
#MUSIC:MegaMan Theme - Techno Remix (Trance).mp3;
#OFFSET:0.100;
#SAMPLESTART:59.527;
#SAMPLELENGTH:11.740;
#SELECTABLE:YES;
#BPMS:0.000=84.920,84.500=169.840,724.500=84.920,773.000=169.840;
#STOPS:726.500=0.700
,729.500=0.720
,732.500=0.700
,735.500=0.720
,738.500=0.700
,741.500=0.720
,744.500=0.700
,747.500=0.720
,750.500=0.700
,753.500=0.720
,756.500=0.700
,759.500=0.720
,762.500=0.700
,765.500=0.720
,770.500=1.000
;
#BGCHANGES:;
// cache tags:
#FIRSTBEAT:46.000;
#LASTBEAT:965.500;
#SONGFILENAME:Songs/keyboard/MegaMan Theme/MegaMan Theme - Techno Remix.sm;
#HASMUSIC:1;
#HASBANNER:1;
#MUSICLENGTH:403.141;
// end cache tags

//---------------dance-single - ----------------
#NOTES:
     dance-single:
     :
     Challenge:
     11:
     0.965,0.988,1.000,0.012,0.181,1700.000,1017.000,5.000,0.000,1.000:
0000
0000
0000
0000
,
0000
0000
0000
0000
,
0000
0000
0000
0000
,
0000
0000
0000
0000
,
0000
0000
0000
0000
,
0000
0000
0000
0000
,
0000
0000
0000
0000
,
0000
0000
0000
0000
,
0000
0000
0000
0000
,
0000
0000
0000
0000
,
0000
0000
0000
0000
,
0000
0000
0000
0000
0000
0000
0000
0000
0000
0000
0000
0000
0000
0000
0000
0000
0011
0000
0000
0000
0000
0000
0010
0000
0000
1100
0000
0000
0000
0000
0000
0000
,
0000
0000
0000
0000
0000
0000
0000
0000
0000
0000
1100
0000
0000
0100
0000
0000
0011
0000
0000
0000
0000
0011
0000
0000
1100
0000
0000
0000
0000
0000
1100
0000
,
0000
0000
0000
0100
0000
0000
0011
0000
0000
0000
0000
0000
0000
0000
0000
0000
0000
0000
0000
0000
0000
0000
0000
0011
0000
0000
0010
0000
0000
1100
0000
0000
,
0000
0000
1100
0000
0000
0011
0000
0000
0000
0000
0000
0011
0000
0000
0000
0000
0010
0000
0000
1100
0000
0000
0000
0000
0000
0000
0000
0000
0000
0000
0000
0000
,
0000
0000
0000
0000
1010
0000
0000
0010
0000
0000
0101
0000
0000
0000
0000
0101
0000
0000
1010
0000
0000
0000
0000
0000
1010
0000
0000
0000
0000
0010
0000
0000
,
0101
0000
0000
0000
0000
0000
0000
0000
0000
0000
0000
0000
0000
0000
0000
0000
0000
0101
0000
0000
0100
0000
0000
1010
0000
0000
0000
0000
1010
0000
0000
0101
,
0000
0202
0000
0000
0000
0000
0000
0000
,
0000
0000
0000
0000
,
0000
2303
0000
0000
0000
0000
0000
0000
,
0000
0000
0001
0000
0010
0000
0001
0000
0010
0000
0001
0000
0010
0000
0001
0000
0010
0000
0001
0000
0010
0000
0001
0000
0010
0000
0001
0000
0010
0000
0001
0010
,
0001
0010
3001
0000
1001
0000
0000
0000
0100
0000
0000
0000
0100
0000
0000
0000
1001
0000
0000
0000
0100
0000
0000
0000
0100
0000
0000
0000
1001
0000
0000
0000
,
0100
1001
0000
1001
0000
1001
0110
1001
,
0110
1100
0010
0010
1100
0010
0010
1100
,
0010
1100
0000
0011
0000
1100
0011
1100
,
0011
0110
0001
0001
0110
0001
0001
0110
,
0001
0110
0000
0110
0000
0110
1001
0110
,
1001
1010
0100
0100
1010
0100
0100
1010
,
0100
1010
0000
1010
0000
1010
0101
1010
,
0101
1001
0010
0010
1001
0010
0010
1001
,
0010
1001
0000
1001
0000
1001
0110
1001
,
0110
0101
0010
0010
0101
0010
0010
0101
,
0010
0101
0000
0101
0000
0101
1010
0101
,
1010
0110
1000
1000
0110
1000
1000
0110
,
1000
0110
0000
0110
0000
0110
1001
0110
,
1001
0011
0100
0100
0011
0100
0100
0011
,
0100
0011
0000
0011
0000
0011
1100
0011
,
1100
0000
1001
0000
0100
0010
0100
0000
1001
0000
0100
0010
0100
0000
1001
0000
,
0110
1001
0000
1001
0000
1001
0110
1001
,
0110
0000
1100
0000
0010
0001
0010
0000
1100
0000
0010
0001
0010
0000
1100
0000
,
0011
1100
0000
0011
0000
1100
0011
1100
,
0011
0000
0110
0000
0001
1000
0001
0000
0110
0000
0001
1000
0001
0000
0110
0000
,
1001
0110
0000
0110
0000
0110
1001
0110
,
1001
0000
1010
0000
0100
0001
0100
0000
1010
0000
0100
0001
0100
0000
1010
0000
,
0101
1010
0000
1010
0000
1010
0101
1010
,
0101
0000
1001
0000
0010
0100
0010
0000
1001
0000
0010
0100
0010
0000
1001
0000
,
0110
1001
0000
1001
0000
1001
0110
1001
,
0110
0000
0101
0000
0010
1000
0010
0000
0101
0000
0010
1000
0010
0000
0101
0000
,
1010
0101
0000
0101
0000
0101
1010
0101
,
1010
0000
0110
0000
1000
0001
1000
0000
0110
0000
1000
0001
1000
0000
0110
0000
,
1001
0110
0000
0110
0000
0110
1001
0110
,
1001
0000
0011
0000
0100
1000
0100
0000
0011
0000
0100
1000
0100
0000
0011
0000
,
1100
0011
0000
0011
0000
0011
1100
0011
,
1100
1100
0010
0101
1000
0011
0100
1010
,
0001
1100
0010
1001
0100
0011
1000
0110
,
0001
1010
0100
1001
0010
0101
1000
0011
,
0100
1010
0001
1100
0010
1001
0100
0011
,
1000
0110
0001
1100
0010
0101
1000
0011
,
0100
1010
0001
1100
0010
1001
0100
0011
,
1000
0110
0001
1010
0100
1001
0010
0101
,
1000
0011
0100
1010
0001
1100
0010
1001
,
0100
0011
1000
0110
0001
1100
0010
0101
,
1000
0011
0100
1010
0001
1100
0010
1001
,
0100
0011
1000
0110
0001
1010
0100
1001
,
0010
0101
1000
0011
0100
1010
0001
1100
,
0010
1001
0100
0011
1000
0110
0001
1100
,
0010
0101
1000
0011
0100
1010
0001
1100
,
0010
1001
0100
0011
1000
0110
0001
1010
,
0100
0000
1001
0000
0010
0000
0101
0000
1000
0011
0100
0000
1001
0000
0100
0000
,
1001
0100
0100
1001
0100
1001
1001
0100
,
0100
1001
0100
1001
1001
0100
1001
1001
,
1001
0010
0010
1100
0010
1100
1100
0010
,
0010
1100
0010
1100
1100
0010
1100
1100
,
1100
0001
0001
0110
0001
0110
0110
0001
,
0001
0110
0001
0110
0110
0001
0110
0110
,
0110
1000
1000
0101
1000
0101
0101
1000
,
1000
0101
1000
0101
0101
1000
0101
0101
,
0101
0010
0010
1001
0010
1001
1001
0010
,
0010
1001
0010
1001
1001
0010
1001
1001
,
1001
0100
0100
0011
0100
0011
0011
0100
,
0100
0011
0100
0011
0011
0100
0011
0011
,
0011
1000
1000
0110
1000
0110
0110
1000
,
1000
0110
1000
0110
0110
1000
0110
0110
,
0110
0001
0001
0110
0001
1010
1010
0001
,
0001
1010
0001
1010
1010
0001
1010
1010
,
1010
1001
0000
1001
0000
1001
0000
1001
,
0100
1001
0000
1001
0000
1001
0000
1001
,
0100
0100
1010
0000
0000
0000
1010
0000
0000
0000
1010
0000
0000
0000
1010
0000
,
0001
1010
0000
1010
0000
1010
0000
1010
,
0001
0001
0110
0000
0000
0000
0110
0000
0000
0000
0110
0000
0000
0000
0110
0000
,
1000
0110
0000
0110
0000
0110
0000
0110
,
1000
1000
0011
0000
0000
0000
0011
0000
0000
0000
0011
0000
0000
0000
0011
0000
,
0100
0011
0000
0011
0000
0011
0000
0011
,
0100
0100
1001
0000
0000
0000
1001
0000
0000
0000
1001
0000
0000
0000
1001
0000
,
0010
1001
0000
1001
0000
1001
0000
1001
,
0010
0010
1100
0000
0000
0000
1100
0000
0000
0000
1100
0000
0000
0000
1100
0000
,
0010
1100
0000
1100
0000
1100
0000
1100
,
0010
0010
0101
0000
0000
0000
0101
0000
0000
0000
0101
0000
0000
0000
0101
0000
,
1000
0101
0000
0101
0000
0101
0000
0101
,
1000
1000
0101
0000
0001
0010
0100
1000
0001
0010
1001
0001
0010
0100
1000
0001
,
0010
0100
1001
0001
0010
0100
1001
0001
0010
0100
1001
0001
0010
0100
1001
0000
,
0000
0000
0011
0000
0000
1100
0000
0000
0011
0000
1100
0000
1010
0000
0101
0000
,
1010
0000
0101
0000
0000
1010
0000
0000
0101
0000
1010
0000
0011
0000
1100
0000
,
0011
0000
1100
0000
0000
0011
0000
0000
1100
0000
0011
0000
0101
0000
1010
0000
,
0101
0000
1010
0000
0000
0101
0000
0000
1010
0000
0011
0000
1100
0000
0011
0000
,
1100
0000
0011
0000
0000
1100
0000
0000
0011
0000
1100
0000
1010
0000
0101
0000
,
1010
0000
0101
0000
0000
1010
0000
0000
0101
0000
1010
0000
0011
0000
1100
0000
,
0011
0000
1100
0000
0000
0011
0000
0000
1100
0000
0011
0000
0101
0000
1010
0000
,
0101
0000
1010
0000
0000
0101
0000
0000
1010
0000
0011
0000
1100
0000
0011
0000
,
1100
0000
0011
0000
0000
1100
0000
0000
0011
0000
1100
0000
1010
0000
0101
0000
,
1010
0000
0101
0000
0000
1010
0000
0000
0101
0000
1010
0000
0011
0000
1100
0000
,
0011
0000
1100
0000
0000
0011
0000
0000
1100
0000
0011
0000
0101
0000
1010
0000
,
0101
0000
1010
0000
0000
0101
0000
0000
1010
0000
0011
0000
1100
0000
0011
0000
,
1100
0000
0011
0000
0000
1100
0000
0000
0011
0000
1100
0000
1010
0000
0101
0000
,
1010
0000
0101
0000
0000
1010
0000
0000
0101
0000
1010
0000
0011
0000
1100
0000
,
0011
0000
1100
0000
0000
0011
0000
0000
1100
0000
0011
0000
0101
0000
1010
0000
,
0101
0000
1010
0000
0000
0101
0000
0000
1010
0000
0011
0000
1100
0000
0011
0000
,
1100
0000
1001
0000
0010
0100
0010
0000
1001
0000
0010
0100
0010
0000
0010
0100
,
0010
0000
1001
1001
1001
0000
1001
1001
,
0000
0000
1100
0000
0010
0001
0010
0000
1100
0000
0010
0001
0010
0000
0010
0001
,
0010
0000
1100
1100
1100
0000
1100
1100
,
0000
0000
0011
0000
1000
0100
1000
0000
0011
0000
1000
0100
1000
0000
1000
0100
,
1000
0000
0011
0011
0011
0000
0011
0011
,
0000
0000
0110
0000
1000
0001
1000
0000
0110
0000
1000
0001
1000
0000
1000
0001
,
1000
0000
0110
0110
0110
0000
0110
0110
,
0000
0000
0011
0000
0100
1000
0100
0000
0011
0000
0100
1000
0100
0000
0100
1000
,
0100
0000
0011
0011
0011
0000
0011
0011
,
0000
0000
1001
0000
0100
0010
0100
0000
1001
0000
0100
0010
0100
0000
0100
0010
,
0100
0000
1001
1001
1001
0000
1001
1001
,
0000
0000
1010
0000
0100
0001
0100
0000
1010
0000
0100
0001
0100
0000
0100
0001
,
0100
0000
1010
1010
1010
0000
1010
1010
,
0000
0000
0110
0000
0001
1000
0001
0000
0110
0000
0001
1000
0001
0000
0001
1000
,
0001
0000
0110
0110
0110
0000
0110
0110
,
0000
1001
0100
0100
1001
0100
0100
1001
,
0100
1001
0000
1001
0000
1001
0110
1001
,
0110
1100
0010
0010
1100
0010
0010
1100
,
0010
1100
0000
0011
0000
1100
0011
1100
,
0011
0110
0001
0001
0110
0001
0001
0110
,
0001
0110
0000
0110
0000
0110
1001
0110
,
1001
1010
0100
0100
1010
0100
0100
1010
,
0100
1010
0000
1010
0000
1010
0101
1010
,
0101
1001
0010
0010
1001
0010
0010
1001
,
0010
1001
0000
1001
0000
1001
0110
1001
,
0110
0101
0010
0010
0101
0010
0010
0101
,
0010
0101
0000
0101
0000
0101
1010
0101
,
1010
0110
1000
1000
0110
1000
1000
0110
,
1000
0110
0000
0110
0000
0110
1001
0110
,
1001
0011
0100
0100
0011
0100
0100
0011
,
0100
0011
0000
0011
0000
0011
1100
0011
,
1100
0000
1001
0000
0100
0010
0100
0000
1001
0000
0100
0010
0100
0000
1001
0000
,
0110
1001
0000
1001
0000
1001
0110
1001
,
0110
0000
1100
0000
0010
0001
0010
0000
1100
0000
0010
0001
0010
0000
1100
0000
,
0011
1100
0000
0011
0000
1100
0011
1100
,
0011
0000
0110
0000
0001
1000
0001
0000
0110
0000
0001
1000
0001
0000
0110
0000
,
1001
0110
0000
0110
0000
0110
1001
0110
,
1001
0000
1010
0000
0100
0001
0100
0000
1010
0000
0100
0001
0100
0000
1010
0000
,
0101
1010
0000
1010
0000
1010
0101
1010
,
0101
0000
1001
0000
0010
0100
0010
0000
1001
0000
0010
0100
0010
0000
1001
0000
,
0110
1001
0000
1001
0000
1001
0110
1001
,
0110
0000
0101
0000
0010
1000
0010
0000
0101
0000
0010
1000
0010
0000
0101
0000
,
1010
0101
0000
0101
0000
0101
1010
0101
,
1010
0000
0110
0000
1000
0001
1000
0000
0110
0000
1000
0001
1000
0000
0110
0000
,
1001
0110
0000
0110
0000
0110
1001
0110
,
1001
0000
0011
0000
0100
1000
0100
0000
0011
0000
0100
1000
0100
0000
0011
0000
,
1100
0011
0000
0011
0000
0011
1100
0011
,
1100
1001
0100
0100
1001
0100
0100
1001
,
0100
0100
1001
0100
0100
1001
0000
1001
,
0000
1100
0001
0001
1100
0001
0001
1100
,
0001
0001
1100
0001
0001
1100
0000
1100
,
0000
0110
1000
1000
0110
1000
1000
0110
,
1000
1000
0110
1000
1000
0110
0000
0110
,
0000
0101
0010
0010
0101
0010
0010
0101
,
0010
0010
0101
0010
0010
0101
0000
0101
,
0000
1001
0010
0010
1001
0010
0010
1001
,
0010
0010
1001
0010
0010
1001
0000
1001
,
0000
1010
0100
0100
1010
0100
0100
1010
,
0100
0100
1010
0100
0100
1010
0000
1010
,
0000
0110
0001
0001
0110
0001
0001
0110
,
0001
0001
0110
0001
0001
0110
0000
0110
,
0000
0011
1000
1000
0011
1000
1000
0011
,
1000
1000
0011
1000
1000
0011
0000
0011
,
0000
1001
0100
0100
0100
1001
0000
1010
,
0001
0001
0001
1010
0000
0110
1000
1000
,
1000
0110
0000
0101
0010
0010
0010
0101
,
0000
1001
0010
0010
0010
1001
0000
0011
,
1000
1000
1000
0011
0000
0110
0001
0001
,
0001
0110
0000
1100
0010
0010
0010
1100
,
0000
0101
1001
1010
1001
0101
0000
0011
,
0110
1100
0110
0011
0000
1010
1001
0101
,
1001
1010
0000
1010
0110
0101
0110
1010
,
0000
1010
1100
0101
0011
1010
0000
0011
,
0101
1100
1010
0011
0000
1001
0110
1001
,
0110
0000
0000
0000
1001
0000
0000
0000
0100
0000
0000
0000
0100
0000
0000
0000
0100
0000
0000
0000
0000
0000
0000
0000
1001
0000
0000
0000
1001
0000
0000
0100
,
0100
1001
1001
1001
1001
0000
1001
0000
0100
0000
0011
0000
1000
0000
0101
0000
,
0010
1100
0001
0110
1000
0011
0100
1001
,
0010
0101
1000
0011
0100
1010
0001
0110
,
1000
0101
0010
1001
0100
0011
1000
0110
,
0001
1100
0010
0101
1000
0011
0100
1001
,
0010
1100
0001
0110
1000
0101
0010
1001
,
0100
0011
1000
0110
0001
1100
0010
0101
,
1000
0011
0100
1001
0010
1100
0001
0110
,
1000
0011
0100
1001
0010
0101
1000
0011
,
0100
1010
0001
0110
1000
0101
0010
1001
,
0100
0011
1000
0110
0001
1100
0010
0101
,
1000
0011
0100
1001
0010
1100
0001
0110
,
1000
0101
0010
1001
0100
0011
1000
0110
,
0001
1100
0010
0101
1000
0011
0100
1001
,
0010
1100
0001
0110
1000
0011
0100
1001
,
0010
0101
1000
0011
0100
1010
0001
0110
,
1000
0101
1001
0100
0100
1001
0100
0100
,
1001
0100
1001
0000
1001
0000
1001
0110
,
1001
0110
1100
0010
0010
1100
0010
0010
,
1100
0010
1100
0000
0011
0000
1100
0011
,
1100
0011
0110
0001
0001
0110
0001
0001
,
0110
0001
0110
0000
0110
0000
0110
1001
,
0110
1001
1010
0100
0100
1010
0100
0100
,
1010
0100
1010
0000
1010
0000
1010
0101
,
1010
0101
1001
0010
0010
1001
0010
0010
,
1001
0010
1001
0000
1001
0000
1001
0110
,
1001
0110
0101
0010
0010
0101
0010
0010
,
0101
0010
0101
0000
0101
0000
0101
1010
,
0101
1010
0110
1000
1000
0110
1000
1000
,
0110
1000
0110
0000
0110
0000
0110
1001
,
0110
1001
0011
0100
0100
0011
0100
0100
,
0011
0100
0011
0000
0011
0000
0011
1100
,
0011
0000
1100
0000
1001
0000
0100
0010
0100
0000
1001
0000
0100
0010
0100
0000
,
1001
0110
1001
0000
1001
0000
1001
0110
,
1001
0000
0110
0000
1100
0000
0010
0001
0010
0000
1100
0000
0010
0001
0010
0000
,
1100
0011
1100
0000
0011
0000
1100
0011
,
1100
0000
0011
0000
0110
0000
0001
1000
0001
0000
0110
0000
0001
1000
0001
0000
,
0110
1001
0110
0000
0110
0000
0110
1001
,
0110
0000
1001
0000
1010
0000
0100
0001
0100
0000
1010
0000
0100
0001
0100
0000
,
1010
0101
1010
0000
1010
0000
1010
0101
,
1010
0000
0101
0000
1001
0000
0010
0100
0010
0000
1001
0000
0010
0100
0010
0000
,
1001
0110
1001
0000
1001
0000
1001
0110
,
1001
0000
0110
0000
0101
0000
0010
1000
0010
0000
0101
0000
0010
1000
0010
0000
,
0101
1010
0101
0000
0101
0000
0101
1010
,
0101
0000
1010
0000
0110
0000
1000
0001
1000
0000
0110
0000
1000
0001
1000
0000
,
0110
1001
0110
0000
0110
0000
0110
1001
,
0110
0000
1001
0000
0011
0000
0100
1000
0100
0000
0011
0000
0100
1000
0100
0000
,
0011
1100
0011
0000
0011
0000
0011
1100
,
0011
2200
0000
3300
0000
0000
0000
0000
;
