#TITLE:Traces;
#SUBTITLE:;
#ARTIST:TaQ;
#TITLETRANSLIT:;
#SUBTITLETRANSLIT:;
#ARTISTTRANSLIT:;
#CREDIT:;
#BANNER:traces-banner.png;
#BACKGROUND:traces-bg.png;
#LYRICSPATH:;
#CDTITLE:reny.png;
#MUSIC:traces.mp3;
#OFFSET:1.303;
#SAMPLESTART:45.700;
#SAMPLELENGTH:13.000;
#SELECTABLE:YES;
#BPMS:0.000=152.000,0.500=76.000,20.000=152.000,100.000=76.000,130.000=38.000,130.277=19.000,130.415=10.330,130.500=152.000,227.000=76.000,235.000=38.000;
#STOPS:;
#BGCHANGES:;
// cache tags:
#FIRSTBEAT:3.500;
#LASTBEAT:237.000;
#SONGFILENAME:Songs/Ace Megapack/Traces/traces.sm;
#HASMUSIC:1;
#HASBANNER:1;
#MUSICLENGTH:122.073;
// end cache tags

//---------------dance-single - ----------------
#NOTES:
     dance-single:
     :
     Easy:
     4:
     0.334,0.364,0.205,0.246,0.037,230.000,25.000,30.000,0.000,0.000:  // measure 1
0000
0000
0000
0000
0000
0000
0000
0001
,  // measure 2
0020
0000
0000
0000
0000
0000
0130
0000
1000
0000
0000
0001
0000
0000
0100
0000
,  // measure 3
0020
0000
0000
0030
,  // measure 4
1000
0000
1000
0000
,  // measure 5
0001
0000
0000
0000
0001
0000
0010
0100
,  // measure 6
1000
1000
1000
1000
,  // measure 7
0001
0001
0001
0001
,  // measure 8
0100
0100
0100
0100
,  // measure 9
0010
0010
0010
0010
,  // measure 10
0100
1001
0100
1001
,  // measure 11
0010
1001
0010
1001
,  // measure 12
0001
0110
1000
0110
,  // measure 13
0010
0101
0010
1100
,  // measure 14
0001
0100
1000
0011
,  // measure 15
1000
0100
0001
1010
,  // measure 16
0001
1001
1000
1001
,  // measure 17
0100
0110
0010
0110
,  // measure 18
0002
0000
0000
0010
0000
0000
0010
0000
0000
0000
0000
0000
0000
0000
0000
0000
,  // measure 19
2003
0000
0000
0010
0000
0000
0010
0000
0000
0000
0000
0000
0000
0000
0000
0000
,  // measure 20
3002
0000
0000
0100
0000
0000
0100
0000
0000
0000
0000
0000
0000
0000
0000
0000
,  // measure 21
2003
0000
0000
0100
0000
0000
0100
0000
0000
0000
0000
0000
0000
0000
0000
0000
,  // measure 22
3001
0100
0010
1000
,  // measure 23
0001
0010
0100
1000
,  // measure 24
0001
1000
0001
1000
,  // measure 25
0010
0100
0010
0100
,  // measure 26
0010
0000
1000
0000
,  // measure 27
0100
0000
0001
0000
,  // measure 28
0100
0000
0010
0000
,  // measure 29
0002
0000
0000
0000
0000
0000
0000
1003
,  // measure 30
0110
0000
0000
0000
0000
0000
0001
0000
0010
0000
0000
0100
0000
0000
1000
0000
,  // measure 31
0011
0000
0000
0000
0000
0000
0000
0100
,  // measure 32
1010
0000
0000
0000
0000
0000
1000
0000
0100
0000
0000
0001
0000
0000
0100
0000
,  // measure 33
0020
0000
0000
0000
0000
0030
0001
0000
,  // measure 34
0100
0010
1010
1000
,  // measure 35
0100
0000
0010
0000
0011
0000
1000
0001
,  // measure 36
1000
0000
0001
0000
1000
0000
0001
1000
,  // measure 37
0001
1000
0001
0010
,  // measure 38
0100
1000
1100
0010
,  // measure 39
0100
0000
0001
0000
0101
0000
1000
0001
,  // measure 40
1000
0000
0001
0000
1000
0000
0001
1000
,  // measure 41
0001
1000
0001
0100
,  // measure 42
0010
1000
0110
0100
,  // measure 43
0001
0000
0010
0000
0110
0000
0001
1000
,  // measure 44
0001
0000
1000
0000
0001
0000
1000
0001
,  // measure 45
1000
0001
1000
0100
,  // measure 46
1000
0001
1010
0100
,  // measure 47
0001
0000
1000
0000
0011
0000
0001
1000
,  // measure 48
0001
0000
1000
0000
0001
0000
1000
0001
,  // measure 49
1000
0001
1000
0002
,  // measure 50
0103
0020
1030
0002
,  // measure 51
0013
0200
1300
0020
,  // measure 52
0130
2000
3100
0002
,  // measure 53
0103
0020
0130
0002
,  // measure 54
0023
0230
2300
3020
,  // measure 55
0230
0000
0302
0000
2003
0000
3001
0100
,  // measure 56
0010
0000
1000
0100
0010
0000
0001
0100
,  // measure 57
0010
1000
0100
0010
0001
1000
0020
0000
,  // measure 58
0000
0000
1030
0000
0001
0000
0000
0100
0000
0000
0001
0000
2000
0000
3000
0000
,  // measure 59
0000
0200
0000
0000
0320
0000
0000
0000
2030
0000
0000
0000
0002
0000
0000
0000
,  // measure 60
0000
3003
0000
0000
;

//---------------dance-single - ----------------
#NOTES:
     dance-single:
     :
     Medium:
     7:
     0.420,0.461,0.057,0.352,0.086,309.000,7.000,43.000,0.000,0.000:  // measure 1
0000
0000
0000
0000
0000
0000
0000
2000
,  // measure 2
3020
0000
0000
0000
0000
0000
0230
0000
0302
0000
0000
2003
0000
0000
3200
0000
,  // measure 3
0320
0000
0000
0030
,  // measure 4
0001
0001
1000
1000
,  // measure 5
0100
0000
0010
0000
0001
0000
1000
0100
,  // measure 6
0010
0001
0100
0000
0100
0000
0100
0000
,  // measure 7
0010
1000
0100
0000
0100
0000
0100
0000
,  // measure 8
0001
1000
0010
0000
1000
0001
0010
0000
,  // measure 9
1000
0100
0010
0000
0011
0000
1100
0000
,  // measure 10
0001
1000
0002
0000
0000
0000
1003
0000
,  // measure 11
1000
0001
2000
0000
0000
0000
3001
0000
,  // measure 12
0100
0010
0200
0000
0000
0000
0310
0000
,  // measure 13
0010
0100
0020
0000
0000
0000
0130
0000
,  // measure 14
1000
0100
1000
0100
1000
0000
0001
0000
,  // measure 15
0001
0100
0001
0100
0001
0000
1000
0000
,  // measure 16
0010
0100
0010
0100
0010
0000
0100
0000
,  // measure 17
0001
1000
0010
0100
0001
0100
0001
0100
,  // measure 18
0010
0000
0000
0010
0000
0000
0010
0000
0000
0000
0010
0000
0010
0000
0000
0000
,  // measure 19
1000
0000
0000
1000
0000
0000
1000
0000
0000
0000
1000
0000
1000
0000
0000
0000
,  // measure 20
0001
0000
0000
0001
0000
0000
0001
0000
0000
0000
0001
0000
0001
0000
0000
0000
,  // measure 21
0100
0000
0000
0100
0000
0000
0100
0000
0000
0000
0100
0000
0100
0000
0000
0000
,  // measure 22
0001
0000
0000
0010
0000
0000
0100
0000
0000
0000
1000
0000
1000
0000
0000
0000
,  // measure 23
0010
0000
0000
0100
0000
0000
0001
0000
0000
0000
1000
0000
1000
0000
0000
0000
,  // measure 24
0100
0000
0000
1000
0000
0000
0010
0000
0000
0000
0100
0000
0100
0000
0000
0000
,  // measure 25
0001
0000
0000
1000
0000
0000
0100
0000
0000
0000
0010
0000
0010
0000
0000
0000
,  // measure 26
0002
0000
0000
0000
0020
0003
0000
0000
,  // measure 27
0200
0030
0000
0000
2000
0300
0000
0010
,  // measure 28
0020
3000
0000
0100
0200
0030
0000
0001
,  // measure 29
0002
0300
0000
0000
0000
0003
0000
2000
,  // measure 30
3020
0000
0000
0000
0000
0000
0230
0000
0302
0000
0000
2003
0000
0000
3200
0000
,  // measure 31
0320
0000
0000
0000
0000
0030
0000
0002
,  // measure 32
0023
0000
0000
0000
0000
0000
0230
0000
2300
0000
0000
3002
0000
0000
0203
0000
,  // measure 33
0320
0000
0000
0000
0000
0030
1000
0100
,  // measure 34
0010
0000
0000
0001
0000
0000
1000
0000
0100
0000
0010
0000
0001
0000
0100
0000
,  // measure 35
0010
0000
0000
1000
0000
0000
0001
0000
0001
0000
0000
0000
1000
0000
0100
0000
,  // measure 36
0001
0000
0001
0100
1000
0000
1000
0100
,  // measure 37
0001
0000
0001
0100
1000
0000
0001
0100
,  // measure 38
0010
0000
0000
1000
0000
0000
0001
0000
0100
0000
0010
0000
1000
0000
0100
0000
,  // measure 39
0010
0000
0000
0001
0000
0000
1000
0000
1000
0000
0000
0000
0001
0000
0100
0000
,  // measure 40
1000
0000
1000
0100
0001
0000
0001
0100
,  // measure 41
1000
0000
1000
0100
0001
0000
0010
0100
,  // measure 42
1000
0000
0000
0101
0000
0000
0100
0000
0010
0000
1000
0000
0001
0000
0010
0000
,  // measure 43
0100
0000
0000
1100
0000
0000
0010
0000
0010
0000
0000
0000
0100
0000
0001
0000
,  // measure 44
1000
0000
0100
1000
0001
0000
0100
0001
,  // measure 45
1000
0000
0100
1000
0001
0000
0010
0100
,  // measure 46
0001
0000
0000
1010
0000
0000
0100
0000
0010
0000
0001
0000
1000
0000
0010
0000
,  // measure 47
0100
0000
0000
0011
0000
0000
0010
0000
0010
0000
0000
0000
0010
0000
0001
0000
,  // measure 48
1000
0000
0010
1000
0001
0000
0010
0001
,  // measure 49
1000
0000
0010
1000
0001
0000
1000
0001
,  // measure 50
0010
1000
0010
0001
0100
0000
0001
1000
,  // measure 51
0010
0001
0010
1000
0100
0000
0010
1000
,  // measure 52
0100
0000
0010
0001
0100
0000
0100
0001
,  // measure 53
0010
0000
0100
1000
0010
0000
1000
0001
,  // measure 54
0100
1000
0100
0001
0010
0000
0001
1000
,  // measure 55
0100
0001
0100
1000
0010
0000
0001
0010
,  // measure 56
0100
1000
0010
0100
0001
1000
0100
0010
,  // measure 57
0001
1000
0010
0100
0001
1000
0022
0030
,  // measure 58
0000
0000
2003
0000
3200
0000
0000
0320
0000
0000
0032
0000
2003
0000
0000
0000
,  // measure 59
0000
3020
0000
0000
0230
0000
0000
0000
0302
0000
0000
0000
2000
0000
0000
0000
,  // measure 60
0000
3003
0000
0000
;

//---------------dance-single - ----------------
#NOTES:
     dance-single:
     :
     Hard:
     9:
     0.598,0.704,0.156,0.393,0.274,444.000,19.000,48.000,0.000,0.000:  // measure 1
0000
0000
0000
0000
0000
0000
0000
0200
,  // measure 2
0020
0000
0000
0000
0330
0000
1000
0000
0001
0000
0010
0100
0000
0100
0010
0000
,  // measure 3
2002
0000
0000
0000
0000
0000
0000
3003
,  // measure 4
0100
0001
0000
1000
0100
0000
0100
0000
0010
0001
0000
1000
0010
0100
0002
0000
,  // measure 5
1003
0100
0000
0100
0010
0000
1001
0000
0001
0010
0100
1000
0001
0010
1001
0000
,  // measure 6
0001
0100
0010
0100
0001
0010
1000
0010
,  // measure 7
0001
0010
0100
1000
0010
0100
0001
1000
,  // measure 8
0100
0010
0100
1000
0010
0001
0010
1000
,  // measure 9
0010
0100
0001
0010
0100
1000
0001
0100
,  // measure 10
0010
0100
1001
0000
0001
1000
0100
0010
,  // measure 11
0001
1000
0101
0000
0001
1000
0010
0100
,  // measure 12
0001
1000
0011
0000
1000
0010
0100
0001
,  // measure 13
1000
0100
0011
0000
0010
0100
0001
1000
,  // measure 14
0010
0001
0010
0001
0010
0001
0010
0001
,  // measure 15
0010
1000
0010
1000
0010
1000
0010
1000
,  // measure 16
0100
1000
0100
1000
0100
1000
0100
1000
,  // measure 17
0100
0001
0100
0001
0100
0001
0100
0001
,  // measure 18
2000
0000
0000
0001
0000
0000
0010
0000
0000
0100
0000
0000
0001
0000
0100
0000
,  // measure 19
3020
0000
0000
0001
0000
0000
1000
0000
0000
0100
0000
0000
1000
0000
0001
0000
,  // measure 20
0230
0000
0000
0010
0000
0000
1000
0000
0000
0001
0000
0000
1000
0000
0010
0000
,  // measure 21
0302
0000
0000
1000
0000
0000
0010
0000
0000
0100
0000
0000
0010
0000
0010
0000
,  // measure 22
1003
0000
0000
0100
0000
0000
0011
0000
0000
0001
0000
0000
0100
0000
0010
0000
,  // measure 23
1010
0000
0000
0100
0000
0000
0010
0000
0000
0100
0000
0000
1000
0000
0001
0000
,  // measure 24
0101
0000
0000
1100
0000
0000
1002
0000
0000
2003
0000
0000
3001
0000
0000
0000
,  // measure 25
2002
0000
0000
0000
0000
0000
0000
0000
0000
3003
0000
0000
0010
0000
0100
0000
,  // measure 26
0001
0100
1000
0000
0100
0000
0001
1000
0100
0001
0100
0000
0100
0000
0100
0100
,  // measure 27
0010
0010
0001
0001
0010
0010
0001
0001
1000
0010
1000
0001
0010
0010
0100
0010
,  // measure 28
0100
0100
0100
0000
0100
0000
1000
1000
0001
0001
0001
0000
0001
0000
0100
0100
,  // measure 29
0010
0010
0010
0000
1000
0000
0100
0001
1000
0010
2002
0000
0003
0000
3002
0000
,  // measure 30
0020
0000
0000
0000
0003
0000
0230
0000
1300
0000
0010
0100
0000
0100
0010
0000
,  // measure 31
2002
0000
0000
0000
0000
3000
0000
2003
,  // measure 32
0020
0000
0000
0000
3000
0000
0230
0000
0301
0000
0010
0100
0000
0100
0010
0000
,  // measure 33
2002
0000
0000
0000
0000
0000
0000
0000
0000
0000
3003
0000
0001
0100
0001
0000
,  // measure 34
1000
0000
0001
0000
0010
0000
0100
0000
1000
0000
0010
0000
0100
0001
0100
0000
,  // measure 35
0010
1000
0001
0010
0100
1000
0001
0001
,  // measure 36
0010
0010
0100
0100
1000
1000
0010
0010
,  // measure 37
0100
0000
0100
0000
0001
0000
0001
0000
1000
0000
1000
0000
0001
1000
0001
0000
,  // measure 38
1000
0000
0100
0000
1000
0000
0010
0000
1000
0000
0001
0000
1000
0001
1000
0000
,  // measure 39
0001
0100
0001
0010
0001
0100
0010
0010
,  // measure 40
1000
1000
0001
0001
0010
0010
0100
0100
,  // measure 41
1000
0000
1000
0000
0001
0000
0001
0000
0100
0000
0100
0000
0010
1000
0010
0000
,  // measure 42
0100
0000
0001
0000
0100
0000
1000
0000
0100
0000
0001
0000
1000
0010
1000
0000
,  // measure 43
0001
0010
1000
0010
0001
0100
0010
1000
,  // measure 44
0010
0001
0010
1000
0100
0010
0001
0010
,  // measure 45
1000
0000
0010
0000
0100
0000
1000
0000
0001
0000
0010
0000
0100
1000
0100
0000
,  // measure 46
0010
0000
0100
0000
0001
0000
0100
0000
1000
0000
0100
0000
1000
0100
1000
0000
,  // measure 47
0001
0010
0100
0001
0100
1000
0010
0100
,  // measure 48
0001
0100
1000
0100
0010
1000
0001
0010
,  // measure 49
1000
0000
0010
0000
0001
0000
0100
0000
0010
0000
1000
0000
0010
0100
0001
0000
,  // measure 50
1000
0000
0000
0001
0000
0000
0010
0000
0100
0000
1000
0000
0010
0100
0001
0000
,  // measure 51
0010
0000
0000
0100
0000
0000
1000
0000
1001
0000
0000
0000
1000
0000
2000
0000
,  // measure 52
3001
0002
0103
0200
0310
0020
1030
2000
,  // measure 53
3100
0000
0200
0000
0310
0000
0020
0000
0031
0000
0001
0000
0100
0010
1000
0000
,  // measure 54
0001
0000
0000
0010
0000
0000
0100
0000
1000
0000
0001
0000
0100
0010
1000
0000
,  // measure 55
0100
0000
0000
0001
0000
0000
0100
0000
0110
0000
0000
0000
0001
0000
0002
0000
,  // measure 56
1003
2000
3100
0200
0310
0020
0031
0002
,  // measure 57
0103
0200
0310
0020
1030
1000
2001
0000
,  // measure 58
0000
0000
3002
0000
0203
0000
0310
0200
0000
0000
0310
0000
0002
0000
0000
0000
,  // measure 59
0000
2003
0000
0000
3200
0000
0000
0000
0320
0000
0000
0000
0200
0000
0000
0000
,  // measure 60
0000
0330
0000
0000
;

//---------------dance-single - ----------------
#NOTES:
     dance-single:
     :
     Challenge:
     10:
     0.925,1.000,0.180,0.311,1.000,730.000,22.000,38.000,0.000,0.000:  // measure 1
0000
0000
0000
0000
0000
0000
0000
0002
,  // measure 2
0020
0000
0000
0000
0003
0000
0230
0000
1300
0000
1000
0100
0000
0100
0010
0000
,  // measure 3
0002
1000
1000
1000
2000
0000
0000
3003
,  // measure 4
0001
0100
0000
0100
0000
0100
0000
0100
0001
0000
0001
0000
0001
0000
1000
0001
0000
0010
0000
0100
0000
1000
0100
1000
0100
0000
1000
0100
0001
0000
0100
0000
,  // measure 5
1000
0010
0000
0010
0000
0010
0000
0010
1000
0000
1000
0000
1000
0000
0001
1000
0001
1000
0000
0010
0000
0001
0010
0000
0010
0000
0001
0010
1000
0000
0010
0000
,  // measure 6
0001
0100
0000
0001
0000
1000
0000
0100
1000
0000
0010
0000
0100
0000
0001
1000
,  // measure 7
0000
0100
0000
0100
0000
0010
0001
0010
0001
0000
0001
1000
0100
0000
0100
0000
,  // measure 8
1000
0010
0000
1000
0000
0001
0000
0010
0001
0000
0100
0000
0010
0000
1000
0001
,  // measure 9
0000
0010
0000
0010
0000
0100
1000
0100
1000
0000
1000
0001
0010
0000
0010
0000
,  // measure 10
0001
0100
2020
0030
3100
0010
0202
0003
,  // measure 11
0301
0010
2200
0300
3001
1000
0022
0003
,  // measure 12
0031
1000
0220
0300
0130
0100
2002
0003
,  // measure 13
3001
1000
2002
3000
1003
0100
0220
0330
,  // measure 14
0001
0100
0000
0100
0001
0000
1000
0000
0100
1000
0000
1000
0100
0000
0010
0000
,  // measure 15
0001
1000
0000
1000
0001
0000
0100
0000
0010
0100
0000
0100
0010
0000
1001
0000
,  // measure 16
1000
0100
0000
0100
1000
0000
0001
0000
0100
0001
0000
0001
0100
0000
0010
0000
,  // measure 17
1000
0001
1000
0001
1000
0001
1000
0001
1000
0001
1000
0001
1000
0001
1000
0000
,  // measure 18
2001
0000
0000
0001
0000
0000
0001
0000
0000
0001
0000
0000
0001
0000
3001
0000
,  // measure 19
0100
0001
0000
1000
0000
0000
0010
0000
0000
0100
0000
0000
0001
0000
0010
0000
,  // measure 20
0200
0000
0000
0010
0000
0000
0010
0000
0000
0010
0000
0000
0010
0000
0310
0000
,  // measure 21
0001
1000
0000
0010
0000
0000
0100
0000
0000
0001
0000
1000
0001
0000
0010
0000
,  // measure 22
1002
0000
0000
1000
0000
0000
1000
0000
0000
1000
0000
0000
1000
0000
1003
0000
,  // measure 23
0010
1000
0000
0001
0000
0000
0100
0000
0000
0010
0000
0000
1000
0000
0100
0000
,  // measure 24
0020
0000
0000
1000
0000
0000
0001
0000
0000
0100
0000
0000
1000
0000
0031
0000
,  // measure 25
0001
0100
0000
0010
0000
0000
1000
0000
0000
0100
0000
0000
0010
0000
0001
0000
,  // measure 26
1000
0100
1000
0100
1000
0000
1000
0001
0000
0001
1000
0000
0001
0100
0001
0100
0001
0100
0001
0100
0001
0000
0001
1000
0000
1000
0001
0000
0100
0010
0100
0010
,  // measure 27
0200
0000
0001
0000
0001
0000
0000
0301
0000
0000
0001
0000
1000
0001
1000
0100
0010
0001
0100
0010
1000
0010
0000
1000
0010
0000
1000
0001
0010
0000
0100
0100
,  // measure 28
1000
0001
1000
0001
1000
0000
0001
1000
0000
1000
0001
0000
0001
1000
0001
1000
0001
1000
0001
1000
0001
0000
0001
1000
0000
1000
0001
0000
0010
0100
0010
0100
,  // measure 29
0010
0100
0010
0100
0010
0000
0010
0100
0000
0100
0010
0000
1000
0001
0100
0010
1000
0001
0010
0001
0010
0000
0001
0100
0000
1000
0100
0000
0001
1000
0100
1000
,  // measure 30
0001
1000
0010
1000
0001
0000
0001
0010
0000
0001
0100
0000
0010
1000
0001
1000
0100
1000
0001
1000
0010
0000
0100
1000
0000
0100
0010
0000
0100
0001
1000
0001
,  // measure 31
0020
0000
0100
0000
0100
0000
0000
0130
0000
0000
0100
0000
0001
1000
0001
0010
0100
1000
0100
0000
0010
0001
0000
0001
0010
0000
0001
1000
0010
0000
0010
0010
,  // measure 32
0001
0100
1000
0100
0001
0000
1000
0001
0000
0010
0001
0000
1000
0100
0001
0100
1000
0100
0001
0100
1000
0000
0001
1000
0000
0010
1000
0000
0001
0010
1000
0010
,  // measure 33
0001
0010
1000
0010
0001
0000
0100
0010
0000
0010
0100
0000
2002
0000
0000
0000
0000
0000
0000
0000
3003
0000
0000
0000
1000
0000
0010
0000
0100
0000
0001
0000
,  // measure 34
0100
0000
0001
0010
0000
0001
0100
0000
0001
0010
0001
0010
0100
1000
0100
1000
,  // measure 35
0100
0000
0001
1000
0000
0010
1000
0000
1000
0001
1000
0010
1000
0001
0010
0001
,  // measure 36
0010
0001
0000
0001
0100
0000
0100
0010
0000
0010
1000
0010
1000
0100
1000
0001
,  // measure 37
0010
0001
0000
1000
0001
0000
0001
1000
0010
0000
0100
0100
0001
1000
0001
1000
,  // measure 38
0001
0000
0010
0001
0000
1000
0010
0000
0100
0001
1000
0100
1000
0001
1000
0001
,  // measure 39
1000
0000
0001
0100
0000
1000
0100
0000
0100
0010
1000
0001
0010
0001
0010
0001
,  // measure 40
0010
0000
0001
1000
0000
0001
0100
0000
0100
1000
0100
1000
0100
0001
0100
0001
,  // measure 41
0010
0000
0001
1000
0000
0100
1000
0000
0001
1000
0001
1000
0010
0100
0001
0100
,  // measure 42
0001
0000
0100
1000
0000
0100
0001
0000
0001
0010
1000
0010
0001
0010
0001
0010
,  // measure 43
1000
0000
0010
0100
0000
1000
0100
0000
1000
0010
0100
0001
0100
0010
0100
0010
,  // measure 44
1000
0010
0000
0001
0010
0000
1000
0010
0000
0100
0010
0001
1000
0010
1000
0010
,  // measure 45
1000
0100
0000
0100
0010
0000
0001
0010
0001
0000
1100
1000
0001
0010
0100
1000
,  // measure 46
0010
0000
0001
0100
0000
0001
1000
0000
1000
0100
0010
0001
0010
0001
0100
0010
,  // measure 47
0100
0000
0010
1000
0000
0001
1000
0000
0100
0010
0001
1000
0010
1000
0001
0100
,  // measure 48
0001
0000
0001
0100
0000
0001
1000
0000
0100
0001
0100
1000
0010
0100
0001
0100
,  // measure 49
0010
0000
0100
0001
0000
0001
0010
0000
0110
1000
0010
0100
0001
1000
0100
0010
,  // measure 50
0100
0000
0010
0001
0000
0010
0100
0000
0110
1000
0100
0010
0001
0010
0100
1000
,  // measure 51
0001
0000
0001
0100
0000
0100
0010
0000
0001
1000
0010
1000
0100
0010
0001
0100
,  // measure 52
0010
0100
0000
0010
1000
0000
0010
0001
0000
0001
0010
0100
1000
0100
0001
0100
,  // measure 53
1000
0010
0000
0001
0100
0000
0001
0100
0010
0000
1000
0010
0100
0001
0100
1000
,  // measure 54
0110
0000
1000
0001
0000
0001
1000
0000
1001
0010
0100
0001
0010
1000
0010
0001
,  // measure 55
0100
0000
1000
0100
0000
0100
0001
0000
0011
1000
0100
0010
0001
0100
0010
1000
,  // measure 56
0010
0100
0001
1000
0001
0010
0100
1000
0010
0100
0001
0010
1001
0100
1000
0001
,  // measure 57
1000
0010
0100
0001
0010
0001
0010
0100
1000
0010
0100
0001
2020
0000
0000
0000
,  // measure 58
0030
0000
3002
0000
0103
0000
0010
1000
0000
0100
0010
0000
2002
0000
3003
0000
,  // measure 59
0000
2000
0000
0000
0002
0000
3003
0000
0010
0100
0010
0000
0220
0000
0000
0000
,  // measure 60
0000
0330
0000
0000
;
