#TITLE:Gaussian Mist;
#SUBTITLE:;
#ARTIST:Kang;
#TITLETRANSLIT:;
#SUBTITLETRANSLIT:;
#ARTISTTRANSLIT:;
#CREDIT:;
#BANNER:Gaussian Mist.png;
#BACKGROUND:Gaussian Mist.jpg;
#LYRICSPATH:;
#CDTITLE:KS.png;
#MUSIC:Gaussian Mist (part One).mp3;
#OFFSET:-0.411;
#SAMPLESTART:76.230;
#SAMPLELENGTH:11.920;
#SELECTABLE:YES;
#BPMS:0.000=270.000,1.000=267.000,221.000=133.500,245.000=267.000,417.000=270.000,425.000=133.499;
#STOPS:;
#BGCHANGES:;
// cache tags:
#FIRSTBEAT:1.000;
#LASTBEAT:446.000;
#SONGFILENAME:Songs/hard shit/Gaussian Mist (part One)/Gaussian Mist.sm;
#HASMUSIC:1;
#HASBANNER:1;
#MUSICLENGTH:114.050;
// end cache tags

//---------------dance-single - ----------------
#NOTES:
     dance-single:
     :
     Hard:
     15:
     1.000,1.000,0.289,0.228,1.000,1089.000,33.000,26.000,0.000,0.000:  // measure 1
0000
2002
0000
0000
,  // measure 2
0000
0000
3003
0000
0001
0010
0100
1000
0010
0100
0001
1000
0010
1000
0001
0100
,  // measure 3
0010
1000
0100
0010
0001
0000
0000
0000
0100
0000
0000
0000
0001
0000
0000
0000
,  // measure 4
0010
1000
0100
0010
,  // measure 5
0001
0010
0001
0100
,  // measure 6
0010
1000
0100
0010
,  // measure 7
0001
1000
0010
0100
,  // measure 8
0001
0010
0100
1000
,  // measure 9
0001
0001
0010
1000
,  // measure 10
0100
0000
0000
0000
0001
0100
0010
1000
0100
0010
0100
1000
0010
0100
0001
0010
,  // measure 11
0100
1000
0010
0100
0002
0000
0000
0000
0100
0000
0000
0000
1000
0000
0000
0000
,  // measure 12
0100
0000
0013
0100
0010
0000
0000
0000
0010
0000
0000
0000
0020
0000
0000
0000
,  // measure 13
0001
1030
1000
2000
,  // measure 14
0100
3010
0200
0010
,  // measure 15
1300
2000
0100
0010
,  // measure 16
0001
0000
3100
0010
0100
0000
0000
0000
0100
0000
0000
0000
0200
0000
0000
0000
,  // measure 17
0010
0301
0002
0100
,  // measure 18
0013
0000
0000
0000
1000
0010
0100
0001
1000
0100
0010
0100
1000
0010
0100
0001
,  // measure 19
0010
0100
1000
0010
0100
0000
1000
0000
0010
0000
0100
0000
0001
0000
0010
0000
,  // measure 20
0100
1000
0100
0010
0100
1000
0001
0100
,  // measure 21
0001
0010
0001
0100
0001
0010
0001
0100
,  // measure 22
1000
0010
0100
0001
0100
0010
1000
0100
,  // measure 23
0010
0001
0010
0100
1000
0010
0100
0001
,  // measure 24
1000
0100
0010
0001
2000
0000
0000
0000
,  // measure 25
0000
0000
3001
0100
0001
1000
0100
0010
,  // measure 26
0001
0100
0010
1000
0001
0010
0100
1000
,  // measure 27
0100
0001
0100
1000
0100
0001
0100
1000
,  // measure 28
0010
0100
0010
1000
0010
1000
0010
0100
,  // measure 29
0001
1000
0001
1000
0010
0100
0001
0010
,  // measure 30
0001
0010
0001
1000
0001
0010
0001
0010
,  // measure 31
0100
0000
1000
0000
0001
0010
0100
1000
0001
0100
0010
1000
0001
0010
0100
1000
,  // measure 32
0001
0100
0010
1000
0001
0010
0100
1000
0001
0100
0010
1000
0001
0010
0100
1000
,  // measure 33
0001
0100
0010
1000
0100
0010
0001
1000
0010
0100
0001
0010
0100
0010
0001
1000
,  // measure 34
0010
0100
0001
0010
0100
0010
0001
1000
0010
0100
0001
0010
0100
0010
0001
1000
,  // measure 35
0010
0100
0001
0010
0100
1000
0010
0100
0001
0010
0100
1000
0100
1000
0010
0100
,  // measure 36
0001
0010
0100
1000
0100
1000
0010
0100
0010
1000
0100
0010
0001
0010
0100
1000
,  // measure 37
0001
0100
0010
1000
0001
0100
0010
1000
0001
0010
0100
1000
0001
0100
0010
1000
,  // measure 38
0001
0010
0100
1000
0010
0100
0001
1000
0100
0010
0001
1000
0010
0100
0001
1000
,  // measure 39
0100
0010
0001
0100
0010
1000
0100
0010
0001
0010
0100
1000
0010
0100
0001
1000
,  // measure 40
0100
0010
0001
1000
0100
0010
0100
0000
0001
0000
0001
0000
1000
0000
0100
0000
,  // measure 41
0010
0001
0010
0000
0100
0000
1000
0001
1000
0000
0100
0000
1000
0010
1000
0000
,  // measure 42
0001
0100
0001
0000
0010
0100
0010
0000
1000
0000
1000
0000
0100
0000
0010
0000
,  // measure 43
0001
1000
0001
0000
0100
0000
0100
0000
0100
0000
1000
0100
1000
0000
0001
0000
,  // measure 44
0100
0010
0100
0010
1000
0001
1000
0000
0100
0000
0010
0001
0010
0000
1000
0000
,  // measure 45
0001
0100
0001
0100
0010
0100
0010
0000
1000
0000
1000
0000
0100
0000
0001
0000
,  // measure 46
0001
0000
0100
0000
0010
0000
1000
0001
1000
0000
0100
0000
0010
0001
0010
0000
,  // measure 47
0001
1000
0001
0000
0100
0010
1000
0100
0010
0001
0010
0100
1000
0010
0100
0001
,  // measure 48
1000
0001
0010
0100
1000
0100
0010
0000
0001
0000
0001
0000
1000
0000
0100
0000
,  // measure 49
0010
0100
1000
0000
0001
0000
0100
0010
1000
0000
0001
0000
1000
0010
0100
0000
,  // measure 50
0001
1000
0100
0000
0001
0010
0100
0000
1000
0000
1000
0000
0100
0000
0010
0000
,  // measure 51
1000
0001
1000
0000
0010
0000
0100
0000
0001
0000
1000
0010
0100
0000
0001
0000
,  // measure 52
1000
0100
0010
0001
1000
0001
0100
0000
0100
0000
0010
1000
0100
0000
0010
0000
,  // measure 53
0001
0010
0100
1000
0100
0010
0001
0000
1000
0000
1000
0000
0010
0000
0100
0000
,  // measure 54
0001
0000
0001
0000
1000
0000
0100
0010
0001
0000
1000
0000
0001
0100
0010
0000
,  // measure 55
1000
0100
0001
0000
1000
0100
0010
0001
0010
0100
1000
0010
0100
0001
1000
0100
,  // measure 56
1000
0010
0100
0001
1010
0000
0100
0000
0100
0000
0001
0000
1100
0000
0010
0000
,  // measure 57
0101
1000
1000
0100
0011
0100
1010
0001
,  // measure 58
0001
1000
0110
0001
1001
0100
0010
1000
,  // measure 59
0110
0011
1001
0100
0100
0010
1100
0010
,  // measure 60
0101
1000
0001
0100
1010
0100
0101
0000
,  // measure 61
0000
0100
1010
0000
0011
0000
0000
0000
,  // measure 62
0000
0000
1000
0100
0010
0001
0100
0010
,  // measure 63
1000
0100
0010
0100
1000
0010
0100
0001
,  // measure 64
0010
0100
1000
0010
0100
0001
0010
0001
,  // measure 65
0100
0010
1000
0010
0100
0001
0010
0100
,  // measure 66
2000
0000
0000
3000
0200
0000
0000
0300
0020
0000
0000
0030
0002
0000
0000
0003
,  // measure 67
0200
0000
0000
0300
0020
0000
0000
0030
2000
0000
0000
3000
0200
0000
0000
0300
,  // measure 68
0020
0000
0000
0030
0001
0000
0010
0000
0100
0000
1000
0000
0010
0000
0100
0000
,  // measure 69
0001
0010
0001
0100
0010
1000
0100
0010
,  // measure 70
0001
0010
0100
1000
0010
0100
0001
1000
,  // measure 71
0100
0010
0001
0100
0010
1000
0100
0010
,  // measure 72
0002
0000
0000
0003
0020
0000
0000
0000
0000
0000
0000
0030
0100
0000
0000
0000
,  // measure 73
0000
2000
3000
0000
,  // measure 74
0000
0000
0000
0000
0001
0010
0100
1000
0010
0100
0010
1000
0100
0010
0001
0100
,  // measure 75
0010
1000
0001
0010
0100
0000
0010
0000
0001
0000
0100
0000
0010
0000
0001
0000
,  // measure 76
0100
0010
1000
0100
0010
1000
0100
0010
,  // measure 77
1000
0100
0001
0100
0010
0001
0100
0010
,  // measure 78
0001
0100
0010
1000
0100
0010
0001
0010
,  // measure 79
0100
1000
0010
0100
0001
0010
0100
0001
,  // measure 80
0010
0100
0001
1000
0100
0001
1000
0100
,  // measure 81
0001
1000
0010
0100
0001
0010
0100
0001
,  // measure 82
0010
0000
0100
0000
2000
0000
0000
3000
0200
0000
0000
0300
0020
0000
0000
0000
,  // measure 83
0000
0000
0000
0030
0001
0010
0100
1000
0001
0010
0100
1000
0001
0010
0100
1000
,  // measure 84
0001
0010
0100
1000
0001
0100
0010
1000
0001
0100
0010
1000
0001
0100
0010
1000
,  // measure 85
0001
0100
0010
1000
0100
0010
0001
1000
0100
0010
0001
1000
0100
0010
0001
1000
,  // measure 86
0100
0010
0001
1000
0010
0100
0001
1000
0010
0100
0001
1000
0010
0100
0001
1000
,  // measure 87
0010
0100
0001
1000
0010
1000
0001
0100
0010
1000
0001
0100
0010
1000
0001
0100
,  // measure 88
0010
1000
0001
0100
0001
0010
0100
1000
0001
0010
0100
1000
0001
0010
0100
1000
,  // measure 89
0001
0010
0100
1000
0010
0100
0001
1000
0010
0100
0001
1000
0010
0100
0001
1000
,  // measure 90
0010
0100
0001
1000
0001
0100
0010
1000
0001
0100
0010
1000
0001
0100
0010
1000
,  // measure 91
0001
0100
0010
1000
0001
0010
0100
1000
0001
0010
0100
1000
0001
0010
0100
1000
,  // measure 92
0001
0010
0100
1000
0100
0010
0001
1000
0100
0010
0001
1000
0100
0010
0001
1000
,  // measure 93
0100
0010
0001
1000
0010
1000
0100
1000
0010
1000
0001
1000
0010
1000
0001
1000
,  // measure 94
0100
1000
0001
1000
0010
1000
0100
1000
0001
1000
0100
1000
0010
1000
0100
1000
,  // measure 95
0010
1000
0001
1000
0100
0010
0001
0010
0100
0010
1000
0010
0100
0010
1000
0010
,  // measure 96
0001
0010
0100
0010
1000
0010
0001
0010
1000
0010
0100
0010
0001
0010
1000
0010
,  // measure 97
0001
0010
0100
1000
0010
0100
0001
0100
1000
0100
0010
0100
0001
0100
1000
0100
,  // measure 98
0010
0100
1000
0100
0001
0100
0010
0100
0001
0100
1000
0100
0010
0100
1000
0100
,  // measure 99
0010
0100
0001
0010
0100
1000
0010
1000
0001
1000
0100
1000
0010
1000
0001
1000
,  // measure 100
0100
1000
0010
1000
0001
1000
0010
1000
0001
1000
0010
1000
0100
1000
0010
1000
,  // measure 101
0100
1000
0001
0100
1000
0001
0100
0001
0010
0001
1000
0001
0100
0001
0010
0001
,  // measure 102
1000
0001
0100
0001
1000
0001
0010
0001
0100
0001
1000
0001
0100
0001
0010
0001
,  // measure 103
1000
0001
0100
0001
1000
0000
0100
0000
0010
0000
0001
0000
1000
0000
0010
0000
,  // measure 104
0100
0001
0010
0100
1000
0001
0100
0010
,  // measure 105
1000
0001
0020
0000
0000
0000
0000
0000
,  // measure 106
0000
0000
0000
0000
,  // measure 107
0000
0000
0000
0030
0101
0000
1000
0000
1000
0000
0100
0000
0011
0000
0100
0000
,  // measure 108
1010
0001
0001
1000
0110
0001
1100
0010
,  // measure 109
0010
1000
0101
0010
1001
0100
0010
0001
,  // measure 110
1100
0110
0011
0100
0100
0010
0011
0100
,  // measure 111
1010
0100
0001
0010
1100
0010
0101
0000
,  // measure 112
0000
0100
0110
0000
1001
0000
0000
0000
;

//---------------dance-single - ----------------
#NOTES:
     dance-single:
     :
     Challenge:
     15:
     1.000,1.000,1.000,0.167,1.000,1089.000,138.000,19.000,0.000,0.000:  // measure 1
0000
2002
0000
0000
,  // measure 2
0000
0000
0000
3003
0100
1000
0010
0100
0001
1000
0100
0010
0001
1000
0010
0100
,  // measure 3
0001
0010
0100
1000
0011
0000
0000
0000
1100
0000
0000
0000
0011
0000
0000
0000
,  // measure 4
0110
1010
0110
0101
,  // measure 5
1100
0101
0110
1100
,  // measure 6
0110
0011
0110
1100
,  // measure 7
1001
1100
0101
0011
,  // measure 8
0101
1010
0101
1100
,  // measure 9
0101
0101
1100
1010
,  // measure 10
0101
0000
0000
0000
1000
0010
0100
0001
1000
0100
0010
0001
0010
0100
1000
0010
,  // measure 11
0100
0001
1000
0010
1100
0000
0000
0000
0110
0000
0000
0000
0011
0000
0000
0000
,  // measure 12
1010
0000
0100
0001
1100
0000
0000
0000
0110
0000
0000
0000
0101
0000
0000
0000
,  // measure 13
1010
0011
1001
0110
,  // measure 14
1010
0011
1010
0110
,  // measure 15
0101
1010
0101
0011
,  // measure 16
1010
0000
0001
0010
1100
0000
0000
0000
0101
0000
0000
0000
1010
0000
0000
0000
,  // measure 17
0110
0110
1100
0101
,  // measure 18
1010
0000
0000
0000
0001
0100
0010
1000
0100
0010
0100
1000
0010
0100
0001
1000
,  // measure 19
0100
0010
0001
0010
1100
0000
0001
0000
1000
0000
0100
0000
0010
0000
0001
0000
,  // measure 20
1000
0001
0010
1000
0010
0001
0100
0010
,  // measure 21
1000
0001
0100
0010
1000
0001
0010
0100
,  // measure 22
1000
0100
0110
0001
0100
0010
1000
0100
,  // measure 23
0010
0100
0010
0001
1000
0100
0010
0100
,  // measure 24
1000
0010
0100
0001
2000
0000
0000
0000
,  // measure 25
0000
0000
0000
3000
0101
0000
1000
0000
0100
0000
0010
0000
0001
0000
1000
0000
,  // measure 26
0010
0100
0010
1000
0010
0001
1000
0100
,  // measure 27
0010
0001
1000
0100
0010
0001
0100
0010
,  // measure 28
1000
0001
1010
0100
0001
0100
0001
0010
,  // measure 29
0100
1000
0100
1000
0100
1000
0010
0100
,  // measure 30
0010
0100
0010
1000
0001
1000
0100
0010
,  // measure 31
0001
0000
1000
0000
0010
0100
0001
0010
0100
1000
0001
0100
0010
0100
0001
0010
,  // measure 32
0100
1000
0001
0100
0010
0100
0001
0010
0100
1000
0001
0100
0010
0100
0001
0010
,  // measure 33
0100
1000
0001
0100
0001
0010
0100
1000
0010
0100
0001
1000
0001
0010
0100
1000
,  // measure 34
0010
0100
0001
1000
0001
0010
0100
1000
0010
0100
0001
1000
0001
0010
0100
1000
,  // measure 35
0010
0100
0001
1000
0001
0010
0100
1000
0001
0100
0010
1000
0001
0010
0100
1000
,  // measure 36
0001
0100
0010
1000
0001
0010
0100
1000
0010
0100
0001
1000
0100
0010
0001
0100
,  // measure 37
0010
1000
0001
0010
0100
1000
0010
0100
0001
0010
0100
1000
0100
1000
0010
0100
,  // measure 38
0001
0010
0100
1000
0100
0010
0001
1000
0001
0010
0100
1000
0100
0010
0001
1000
,  // measure 39
0001
0010
0100
1000
0010
0100
0001
1000
0100
0010
0100
1000
0010
0100
0001
0010
,  // measure 40
0100
1000
0010
0100
1001
0010
0100
0000
1000
0000
1000
0000
0010
0000
0100
0000
,  // measure 41
0011
1000
0100
0000
0010
0000
1000
0100
0010
0000
1000
0000
1001
0010
0100
0000
,  // measure 42
1000
0010
0100
0000
1010
0100
0010
0000
0001
0000
0001
0000
0010
0000
1000
0000
,  // measure 43
0110
0010
0001
0000
1000
0000
1000
0000
0010
0000
0100
0001
1010
0000
0001
0000
,  // measure 44
0010
1000
0100
0010
0101
1000
0100
0000
0001
0000
1000
0010
0100
0000
0001
0000
,  // measure 45
1001
0100
0010
0001
0010
0100
1000
0000
0010
0000
0100
0000
0110
0000
0001
0000
,  // measure 46
1000
0000
1000
0000
0011
0000
0100
0001
0010
0000
0100
0000
1000
0100
0010
0000
,  // measure 47
1100
0010
0001
0000
1000
0100
0010
0001
0010
0100
1000
0010
0100
0001
1000
0010
,  // measure 48
0001
0010
1000
0100
1010
0001
0100
0000
1000
0000
1000
0000
0010
0000
0100
0000
,  // measure 49
1001
0010
1000
0000
0100
0000
0010
1000
0001
0000
0100
0000
0011
0100
1000
0000
,  // measure 50
1000
0100
0010
0000
1001
0010
0100
0000
1000
0000
1000
0000
0010
0000
0100
0000
,  // measure 51
0011
0100
1000
0000
0001
0000
1000
0000
0100
0000
0010
0100
0101
0000
1000
0000
,  // measure 52
0001
0100
1000
0100
1001
0010
0100
0000
0001
0000
1000
0100
0010
0000
0001
0000
,  // measure 53
1100
0010
0100
0001
1000
0100
0001
0000
1000
0000
1000
0000
0110
0000
0001
0000
,  // measure 54
0001
0000
0100
0000
1010
0000
0100
0001
0010
0000
0100
0000
1000
0100
0010
0000
,  // measure 55
1100
0010
0001
0000
1000
0010
0001
0010
1000
0100
0010
0100
1000
0010
0100
0001
,  // measure 56
0010
0100
1000
0010
0101
0000
1000
0000
1010
0000
0100
0000
0011
0000
0100
0000
,  // measure 57
1010
0001
1001
0100
0101
1000
0011
1000
,  // measure 58
1100
0010
0110
0001
1100
0001
0010
0100
,  // measure 59
1100
0101
0011
0100
1100
0001
0010
1000
,  // measure 60
1100
0010
0001
1000
0110
0001
0101
0000
,  // measure 61
0000
0100
0101
0000
1100
0000
0000
0000
,  // measure 62
0000
0000
1001
0010
0100
1000
0100
0010
,  // measure 63
0001
1000
0010
0100
0001
1000
0001
0010
,  // measure 64
0100
1000
0010
0100
0001
1000
0010
0100
,  // measure 65
0001
1000
0100
0010
0001
0010
0100
1000
,  // measure 66
0020
0000
0000
0030
0200
0000
0000
0300
0020
0000
0000
0030
2000
0000
0000
3000
,  // measure 67
0002
0000
0000
0003
0020
0000
0000
0030
0200
0000
0000
0300
2000
0000
0000
3000
,  // measure 68
0020
0000
0000
0030
1000
0000
0100
0000
0001
0000
0100
0000
1000
0000
0010
0000
,  // measure 69
0100
0001
1000
0010
0001
0010
1000
0100
,  // measure 70
0010
0001
0010
0100
1000
0010
0100
0001
,  // measure 71
1000
0010
0100
0001
0010
0100
1000
0010
,  // measure 72
0200
0000
0000
0300
0002
0000
0000
0000
0000
0000
0000
0003
1000
0000
0000
0000
,  // measure 73
0000
0020
0030
0000
,  // measure 74
0000
0000
0000
0000
0100
0001
0010
0100
1000
0010
0100
0010
1000
0100
0010
0001
,  // measure 75
0010
0100
1000
0010
0100
0000
0001
0000
1000
0000
0100
0000
0001
0000
1000
0000
,  // measure 76
0100
0001
1000
0010
0100
1000
0010
0100
,  // measure 77
1000
0010
1000
0100
0001
1000
0100
0001
,  // measure 78
1000
0100
0001
0010
0100
1000
0010
0100
,  // measure 79
0001
1000
0100
0010
0001
0100
0010
0001
,  // measure 80
0100
0010
0001
0010
1000
0001
0010
1000
,  // measure 81
0001
0010
1000
0001
0100
1000
0001
0100
,  // measure 82
1000
0001
2000
0000
3200
0000
0320
0000
,  // measure 83
0000
0000
0000
0030
1000
0010
0100
0010
1000
0010
0100
0010
1000
0010
0100
0010
,  // measure 84
1000
0010
0100
0010
1000
0100
0010
0100
1000
0100
0010
0100
1000
0100
0010
0100
,  // measure 85
1000
0100
0010
0001
0100
0001
1000
0001
0100
0001
1000
0001
0100
0001
1000
0001
,  // measure 86
0100
0001
1000
0001
0010
0001
0100
0001
0010
0001
0100
0001
0010
0001
0100
0001
,  // measure 87
0010
0001
0100
0001
1000
0100
0001
0100
1000
0100
0001
0100
1000
0100
0001
0100
,  // measure 88
1000
0100
0001
0100
1000
0001
0010
0001
1000
0001
0010
0001
1000
0001
0010
0001
,  // measure 89
1000
0001
0010
0100
1000
0010
0001
0010
1000
0010
0001
0010
1000
0010
0001
0010
,  // measure 90
1000
0010
0001
0010
1000
0100
0010
0100
1000
0100
0010
0100
1000
0100
0010
0100
,  // measure 91
1000
0100
0010
0001
0100
0010
1000
0010
0100
0010
1000
0010
0100
0010
1000
0010
,  // measure 92
0100
0010
1000
0010
0100
0001
0010
0001
0100
0001
0010
0001
0100
0001
0010
0001
,  // measure 93
0100
0001
0010
0001
1010
0001
0100
0001
1000
0001
0100
0001
1000
0001
0010
0001
,  // measure 94
1100
0001
0100
0001
0010
0001
0100
0001
1000
0001
0100
0001
0110
0001
1000
0001
,  // measure 95
0100
0001
0010
0001
1010
0100
0010
0100
1000
0100
0010
0100
1000
0100
0010
0100
,  // measure 96
1001
0100
0010
0100
1000
0100
0010
0100
0001
0100
0010
0100
1010
0100
0010
0100
,  // measure 97
1000
0100
0001
0100
1001
0010
0100
0010
0001
0010
1000
0010
0100
0010
0001
0010
,  // measure 98
0101
0010
0001
0010
1000
0010
0001
0010
0100
0010
0001
0010
1100
0010
0100
0010
,  // measure 99
1000
0010
0001
0010
0101
1000
0100
1000
0010
1000
0001
1000
0100
1000
0010
1000
,  // measure 100
0011
1000
0100
1000
0010
1000
0100
1000
0001
1000
0010
1000
0101
1000
0010
1000
,  // measure 101
0100
1000
0010
1000
0011
0100
1000
0100
0010
0100
0001
0100
1000
0100
0010
0100
,  // measure 102
1001
0100
1000
0100
0001
0100
0010
0100
1000
0100
0001
0100
0110
0100
0001
0100
,  // measure 103
1000
0100
0010
0100
1001
0000
0100
0000
0010
0000
1000
0000
0001
0000
0010
0000
,  // measure 104
0100
1000
0010
0100
0001
1000
0100
0010
,  // measure 105
0001
0010
0200
0000
0000
0000
0000
0000
,  // measure 106
0000
0000
0000
0000
,  // measure 107
0000
0000
0000
0300
0011
0000
0100
0000
0101
0000
0010
0000
1100
0000
0001
0000
,  // measure 108
0101
0010
1010
0100
0011
1000
1001
0100
,  // measure 109
0110
0001
1100
0010
0101
1000
0100
0010
,  // measure 110
0011
0110
1100
0010
0011
1000
0010
0001
,  // measure 111
1100
0010
0100
0001
0011
0100
1010
0000
,  // measure 112
0000
0100
1010
0000
0011
0000
0000
0000
;

//---------------dance-single - ----------------
#NOTES:
     dance-single:
     :
     Medium:
     12:
     1.000,1.000,0.491,0.228,0.355,841.000,56.000,26.000,0.000,0.000:  // measure 1
0000
2002
0000
0000
,  // measure 2
0000
0000
0000
3003
1000
0100
0010
0001
0100
0010
1000
0100
0010
0001
0100
0010
,  // measure 3
1000
0100
0010
0001
0100
0000
0000
0000
0010
0000
0000
0000
0001
0000
0000
0000
,  // measure 4
1000
0010
0100
0001
,  // measure 5
1000
0100
0010
1000
,  // measure 6
0001
0100
0010
1000
,  // measure 7
0001
0010
1000
0001
,  // measure 8
0100
0010
1000
0100
,  // measure 9
0001
0001
1000
0100
,  // measure 10
0010
0000
0000
0000
0001
0010
0100
1000
0010
0100
0001
0010
0100
1000
0010
0100
,  // measure 11
0001
0010
0100
1000
0020
0000
0000
0000
0000
0000
0000
0000
0000
0000
0000
0000
,  // measure 12
0000
0000
1030
0001
0100
0000
0000
0000
0100
0000
0000
0000
0200
0000
0000
0000
,  // measure 13
0000
0301
0001
0002
,  // measure 14
0000
0013
2000
0000
,  // measure 15
3100
0200
0000
0000
,  // measure 16
0000
0000
0310
0001
1000
0000
0000
0000
1000
0000
0000
0000
2000
0000
0000
0000
,  // measure 17
0000
3100
0200
0000
,  // measure 18
0301
0000
0000
0000
0010
0100
1000
0001
0100
0010
1000
0100
0010
0001
0100
0010
,  // measure 19
1000
0100
0010
0001
1000
0000
0100
0000
1000
0000
0010
0000
0100
0000
0001
0000
,  // measure 20
0010
0100
0010
0001
0100
0010
1000
0100
,  // measure 21
0010
0001
1000
0100
0010
0001
0100
0010
,  // measure 22
1000
0001
0010
0100
0010
0001
0100
0010
,  // measure 23
1000
0100
1000
0010
1000
0100
0010
0001
,  // measure 24
0100
0010
1000
0001
0020
0000
0000
0000
,  // measure 25
0000
0000
0031
1000
0001
0010
0100
1000
,  // measure 26
0001
0100
0001
1000
0001
0010
0100
1000
,  // measure 27
0001
0010
0100
1000
0001
0010
0001
0100
,  // measure 28
0010
1000
0001
0100
0001
0100
0001
1000
,  // measure 29
0001
0100
0001
0100
0001
0100
0010
1000
,  // measure 30
0010
1000
0010
0001
0010
1000
0100
0010
,  // measure 31
0001
1000
0001
0010
0100
1000
0001
0010
,  // measure 32
0100
1000
0001
0010
0100
1000
0001
0010
,  // measure 33
0100
1000
0001
0100
0010
1000
0001
0100
,  // measure 34
0010
1000
0001
0100
0010
1000
0001
0100
,  // measure 35
0010
1000
0100
0010
0001
1000
0100
0010
,  // measure 36
0001
1000
0001
0010
0001
0100
0010
1000
,  // measure 37
0100
0010
0001
1000
0010
0100
0001
1000
,  // measure 38
0010
0100
0001
0010
0100
1000
0001
0010
,  // measure 39
0100
0000
1000
0000
0001
0100
0010
1000
0100
0010
0001
0010
0100
1000
0010
0100
,  // measure 40
0001
1000
0100
0010
1001
0000
0100
0000
0010
0000
0100
0000
0010
0000
0100
0000
,  // measure 41
0001
1000
0001
0000
0010
0000
0100
1000
0100
0000
1000
0000
0011
0000
0100
0000
,  // measure 42
1000
0010
1001
0100
0100
0010
0001
0001
,  // measure 43
1000
0010
1000
0000
0101
0000
0010
0000
1000
0000
0001
0100
0001
0000
1000
0000
,  // measure 44
0001
0010
0001
0010
0001
1000
0001
0000
0100
0000
0010
1000
0010
0000
0100
0000
,  // measure 45
1001
0000
0010
0000
0100
0001
0100
0000
1000
0000
1000
0000
0010
0000
0100
0000
,  // measure 46
0100
0000
0001
0000
1010
0000
0001
1000
0001
0000
0100
0000
0010
0000
0100
0000
,  // measure 47
0101
0000
0010
0000
1000
0100
0010
0001
0100
0010
1000
0100
0010
0001
0100
0010
,  // measure 48
1000
0100
0010
0001
1001
0000
0010
0000
0100
0000
0010
0000
0100
0000
0001
0000
,  // measure 49
1000
0100
0010
0000
0001
0000
0100
0010
1000
0000
0100
0000
0110
0000
1000
0000
,  // measure 50
0001
0100
0010
0000
1000
0100
0010
0000
0001
0000
0001
0000
0100
0000
0010
0000
,  // measure 51
1100
0000
0010
0000
0001
0000
1000
0000
0001
0000
1000
0010
1000
0000
0001
0000
,  // measure 52
1000
0100
1000
0100
0010
0001
0010
0000
0100
0000
1000
0001
1000
0000
0010
0000
,  // measure 53
0101
0000
1000
0000
0010
0100
0010
0000
1000
0000
1000
0000
0100
0000
0001
0000
,  // measure 54
0001
0000
0010
0000
0101
0000
1000
0010
1000
0000
0001
0000
0100
0010
0100
0000
,  // measure 55
0001
1000
0001
0000
0010
0100
0001
1000
0100
0010
0001
0100
0010
1000
0100
0010
,  // measure 56
0001
0010
0100
1000
1001
0000
0100
0000
0100
0000
0001
0000
1010
0000
0100
0000
,  // measure 57
0101
1000
1000
0100
0011
0100
1010
0001
,  // measure 58
0001
1000
0101
0001
1100
0001
0010
0100
,  // measure 59
1100
0110
0011
1000
1000
0100
0110
0010
,  // measure 60
1001
0010
0100
0001
1010
0100
0011
0000
,  // measure 61
0000
0100
0011
0000
1010
0000
0000
0000
,  // measure 62
0000
0000
1000
0100
0010
0001
0010
0100
,  // measure 63
1000
0010
0100
0001
1000
0001
0010
0100
,  // measure 64
1000
0010
0100
0001
1000
0100
0010
0001
,  // measure 65
1000
0001
0100
0010
1000
0001
0010
0100
,  // measure 66
2000
3002
0023
0230
,  // measure 67
2300
3200
0320
0032
,  // measure 68
2003
0000
3010
0100
0001
0010
0100
1000
,  // measure 69
0010
0100
0010
1000
0010
0100
0001
0010
,  // measure 70
0100
1000
0100
0010
0001
1000
0010
0100
,  // measure 71
0001
1000
0100
0010
0001
0010
0100
1000
,  // measure 72
0200
0000
0000
0300
0020
0000
0000
0000
0000
0000
0000
0030
0001
0000
0000
0000
,  // measure 73
0000
2000
3000
0000
,  // measure 74
0000
0000
0000
0000
1000
0100
0010
0001
1000
0010
0100
0001
1000
0100
0010
0001
,  // measure 75
0100
0010
1000
0001
0010
0000
0001
0000
1000
0000
0010
0000
0001
0000
1000
0000
,  // measure 76
0010
0001
0100
0010
1000
0100
0010
1000
,  // measure 77
0100
0010
0001
0010
0100
0001
0010
0100
,  // measure 78
0001
0010
1000
0010
0100
0001
1000
0100
,  // measure 79
0010
0001
1000
0100
0001
1000
0100
0001
,  // measure 80
1000
0100
0010
0001
0100
0010
0001
0100
,  // measure 81
0010
0001
0100
0010
1000
0100
0010
1000
,  // measure 82
0100
0010
0002
0000
0023
0000
0230
0000
,  // measure 83
0000
0000
1300
0100
0001
0100
1000
0100
,  // measure 84
0001
0100
1000
0010
0001
0010
1000
0010
,  // measure 85
0001
0010
0100
0001
1000
0001
0100
0001
,  // measure 86
1000
0001
0010
0100
1000
0100
0010
0100
,  // measure 87
1000
0100
0010
0001
0100
0001
0010
0001
,  // measure 88
0100
0001
1000
0010
0100
0010
1000
0010
,  // measure 89
0100
0010
1000
0001
0010
0001
1000
0001
,  // measure 90
0010
0001
0100
0010
0001
0010
0100
0010
,  // measure 91
0001
0010
1000
0100
0001
0100
1000
0100
,  // measure 92
0001
0100
1000
0010
0001
0010
1000
0010
,  // measure 93
0001
0010
1001
0100
1000
0001
1000
0010
,  // measure 94
1100
0001
1000
0010
1000
0001
0100
0010
,  // measure 95
0001
0010
0110
0001
0100
0001
0100
0010
,  // measure 96
1100
0010
0100
0001
1000
0001
0010
0100
,  // measure 97
1000
0010
0110
0001
0010
0100
0001
0010
,  // measure 98
0101
0001
1000
0010
0100
0001
0010
0100
,  // measure 99
1000
0010
1100
0001
1000
0100
0001
1000
,  // measure 100
0101
0001
1000
0010
1000
0100
0010
0001
,  // measure 101
0100
0010
1001
0100
0001
0010
0100
0001
,  // measure 102
1010
0001
0100
0010
1000
0001
0100
0010
,  // measure 103
1000
0100
1001
0010
0100
1000
0010
0100
,  // measure 104
0001
1000
0001
0100
0010
1000
0100
0010
,  // measure 105
0001
1000
0002
0000
0000
0000
0000
0000
,  // measure 106
0000
0000
0000
0000
,  // measure 107
0000
0000
0000
0003
1010
0000
0100
0000
0100
0000
0001
0000
1100
0000
0010
0000
,  // measure 108
0101
1000
1000
0100
0110
0001
1100
0010
,  // measure 109
0010
0100
1001
0010
0110
1000
0001
0010
,  // measure 110
1100
0101
0110
1000
1000
0100
0011
1000
,  // measure 111
0101
0010
1000
0001
0110
1000
0101
0000
,  // measure 112
0000
1000
0101
0000
1100
0000
0000
0000
;
