#TITLE:HARDER BETTER FASTER STRONGER;
#SUBTITLE:RagnarokSEND;
#ARTIST:Daft Punk;
#TITLETRANSLIT:;
#SUBTITLETRANSLIT:;
#ARTISTTRANSLIT:;
#CREDIT:;
#BANNER:hbfs.PNG;
#BACKGROUND:hbfs-bg.PNG;
#LYRICSPATH:;
#CDTITLE:RS1.png;
#MUSIC:Daft Punk - Harder, Better, Faster, Stronger.ogg;
#OFFSET:-4.940;
#SAMPLESTART:53.523;
#SAMPLELENGTH:12.000;
#SELECTABLE:YES;
#BPMS:0.000=123.500;
#STOPS:;
#BGCHANGES:;
// cache tags:
#FIRSTBEAT:0.000;
#LASTBEAT:399.500;
#SONGFILENAME:Songs/lvsb tourney pack/Daft Punk - Harder Better Faster Stronger/hbfs.sm;
#HASMUSIC:1;
#HASBANNER:0;
#MUSICLENGTH:105.000;
// end cache tags

//---------------dance-single - Copied from Copied f----------------
#NOTES:
     dance-single:
     Copied from Copied f:
     Challenge:
     9:
     1.000,1.000,1.000,1.000,0.367,746.000,173.000,123.000,0.000,28.000:
0100
0000
0010
0000
0200
0000
0000
0310
0000
0000
1000
0000
0002
0000
0000
0103
,
0000
0000
0100
0000
2000
0000
0000
3010
0000
0000
0010
0000
2000
0000
0000
3001
,
0010
0010
0001
0001
0100
0100
1000
1000
,
0100
0100
0001
0001
1000
1000
0010
0010
,
0100
0000
0010
0000
0002
0000
0000
1003
0000
0000
0100
0000
0020
0000
0000
0031
,
0000
0000
0100
0000
0020
0000
0000
1030
0000
0000
1000
0000
0020
0000
0000
1030
,
0001
0001
0100
0100
1000
1000
0100
0100
,
0010
0010
0001
0001
1001
0100
0110
0001
,
1000
0100
1100
0100
0001
0010
0011
0002
,
1003
0100
1100
0100
0001
0010
0011
0001
,
0110
2000
3110
0000
0110
0000
0110
0002
,
0223
0330
0110
0000
0220
0330
0110
0000
,
0100
0001
0101
0100
0010
1000
1010
0002
,
0103
0001
0101
1000
0010
1000
1010
0010
,
1001
0200
1301
0000
1001
0000
1001
0020
,
2032
3003
1001
0000
2002
3003
1001
0000
,
0100
0010
0110
0100
0010
0001
0011
0020
,
0031
0000
1000
0000
1001
0000
0100
0000
0010
0000
1000
0000
1010
0000
0001
0010
,
1100
2000
3110
0000
0011
0000
1001
0002
,
2203
3300
0110
0000
0022
0033
1001
0000
,
0010
1000
1010
0100
0001
1000
1001
0002
,
0103
0000
1000
0000
1100
0000
0010
0000
0010
0000
1000
0000
1010
0000
0100
0001
,
1010
0020
0131
0000
1100
0000
0011
0200
,
2320
3030
0101
0000
0202
0303
0011
0000
,
0001
0100
0020
0100
1030
0010
0200
0020
,
0331
0100
0002
0100
0013
0200
0001
0010
,
0001
2000
3001
0000
0001
0000
0001
0020
,
0032
0003
0001
0000
0002
0003
0301
0000
,
0200
0001
1300
0100
0020
0100
1030
0100
,
0200
0001
1300
0100
0020
0100
1030
0200
,
1000
0002
1003
0000
1000
0000
1000
0020
,
2030
3000
1000
0000
2000
3000
1300
0000
,
0010
0100
0002
1000
0013
0100
2000
0002
,
3013
0100
0002
0010
0013
0200
0010
1000
,
0010
2000
3010
0000
0010
0000
0010
0002
,
0023
0030
0010
0000
0020
0030
0310
0000
,
0020
0001
1030
0001
0200
0010
1300
0001
,
0020
0100
1030
0001
0200
0010
1300
0002
,
1000
0020
1030
0000
1000
0000
1000
0200
,
2300
3000
1000
0000
2000
3000
1003
0000
,
1000
0001
2000
0001
3010
0100
0020
0200
,
0331
1000
0002
1000
0103
0020
0100
0100
,
0100
2000
3100
0000
0100
0000
0100
0002
,
0203
0300
0100
0000
0200
0300
0130
0000
,
0020
0001
1030
0010
0200
0010
0301
0100
,
2000
0100
3010
1000
0002
1000
0103
1000
,
1000
1000
0001
0001
0100
0100
0010
0010
,
1000
1000
0001
0001
1000
0010
0100
0001
,
1001
1001
0010
0100
0110
0110
1000
0020
,
1130
0000
1100
0000
0010
0000
0001
0000
0011
0000
0011
0000
1000
0000
0001
0100
,
1001
0200
0311
0000
1010
0000
0011
0020
,
2230
3300
1001
0000
2020
3030
0110
0000
,
1000
0010
1010
1010
0010
0100
0110
0220
,
1330
0000
0001
0000
0101
0000
0101
0000
0001
0000
1000
0000
1001
0000
1001
0010
,
0101
2000
3110
0000
0011
0000
1010
0020
,
0232
0303
1001
0000
0022
0033
1010
0000
,
0101
0101
0001
0100
1010
1010
1000
0002
,
0113
0000
0110
0000
0100
0000
0010
0000
1001
0000
1001
0000
1001
0000
1001
0100
,
0010
0100
0110
0110
0001
1000
1010
1010
,
0100
0001
0101
0101
1000
0010
1001
1001
,
0110
0110
1100
1100
0011
0011
1010
1010
,
0101
0101
0110
0110
1001
1001
1010
1010
,
1000
0100
0010
0010
0001
0010
0100
0100
,
1000
0100
1000
1000
0001
0100
0001
0001
,
2000
3010
0002
0013
2000
3100
0002
0103
,
1000
0010
0001
0010
1000
0100
0001
0100
,
0001
0100
0010
1000
0001
0100
0010
1000
,
0001
0010
0100
1000
0001
0010
0100
1000
,
0002
0013
0002
0013
2000
3100
2000
3100
,
0001
1000
0001
1000
0100
0010
0100
0010
,
1000
1001
0001
1001
0100
0110
0010
0110
,
1000
1100
0100
1100
0010
0011
0001
0011
,
1000
0000
0100
0000
0010
0000
0001
0000
0001
0000
1000
0001
0000
1000
0000
0002
,
0000
0000
0013
0000
1000
0000
0001
0000
1100
0000
0011
0011
0000
0000
0000
0000
,
2000
0010
0000
0001
3000
0100
0010
0000
1000
0000
0010
0000
0100
0000
0001
0000
,
1000
1000
0000
0001
0100
0000
0010
0000
1001
0000
0110
0000
1001
0000
0110
0000
,
2000
3000
1000
0000
0022
0033
0011
0000
0002
0003
0001
0000
2200
3300
1100
0000
,
0100
0100
1001
1001
0010
0010
0110
0110
,
1000
0001
0100
0010
1000
0001
0100
0010
0001
0100
0010
1000
0001
0100
0010
1000
,
0100
0100
0001
0001
1100
0011
0101
1010
,
0010
0000
0000
0000
0001
0000
1000
0000
0000
0000
0010
0000
0001
0100
0000
0010
,
1000
0000
0000
0000
0100
0000
0001
0000
0000
0000
0100
0000
0010
1000
0000
0001
,
0001
0000
0000
0000
0010
0000
1000
0000
0000
0000
0010
0000
0100
0001
0000
1000
,
1000
0000
0000
0000
0000
0000
0001
0000
0000
0000
0001
0000
0000
0000
0010
1000
,
0100
0000
1000
0000
0100
0000
0010
0000
0001
1000
0000
0001
0000
0000
0000
0002
,
0000
0000
1003
0000
0010
0000
0100
0000
1001
0000
1001
1001
0000
0000
0000
0010
,
0000
0010
1000
0000
0001
0000
1000
0000
0010
0100
0000
0100
0000
0000
0100
0001
,
1000
0000
0001
0000
0200
0000
0301
0010
0000
0100
0010
0001
1000
0001
0010
2000
,
0000
0000
0010
3000
0100
0000
0001
0100
0010
1000
0001
0000
0100
0000
0001
0000
,
0001
0000
0100
0000
0010
0000
1000
0100
0001
0010
0001
0010
1000
0000
0002
0000
,
0000
0000
0013
0000
0100
0000
0001
0000
1000
0010
1000
0000
0101
0000
0000
0000
,
1001
0000
1001
0000
0110
0000
0110
0011
0000
1100
0000
1001
0011
0000
1001
0000
,
0110
0110
0000
0000
1001
1001
1000
0001
,
1100
1100
0010
0001
0101
0101
0010
1000
,
1001
0000
0000
0000
1001
0000
0010
0000
0000
0000
0100
0001
0110
1000
0000
0000
,
1000
0000
0000
0000
0001
0000
1000
0000
1000
0001
0100
0010
0000
0001
1000
0000
,
1001
0000
1001
0000
0010
0000
0100
0010
1000
0010
0100
0000
0001
1000
0000
0002
,
0000
0000
1003
0000
0001
0000
1000
0000
0010
0100
0010
0000
1000
0002
0000
0000
,
0000
0003
1000
0000
0010
0000
0010
1000
0010
1000
0010
1000
0000
0000
0000
0000
,
1000
0000
0001
0000
1000
0000
0001
0001
0000
0110
0000
0110
1001
0000
1001
0000
;
