#TITLE:Ike Ike;
#SUBTITLE:;
#ARTIST:Tri-Star;
#TITLETRANSLIT:;
#SUBTITLETRANSLIT:;
#ARTISTTRANSLIT:;
#CREDIT:;
#BANNER:ikeike-bn.PNG;
#BACKGROUND:ikeike-bg.png;
#LYRICSPATH:;
#CDTITLE:;
#MUSIC:Ike Ike.mp3;
#OFFSET:-6.170;
#SAMPLESTART:83.632;
#SAMPLELENGTH:12.500;
#SELECTABLE:YES;
#BPMS:0.000=156.000;
#STOPS:;
#BGCHANGES:;
// cache tags:
#FIRSTBEAT:0.000;
#LASTBEAT:239.000;
#SONGFILENAME:Songs/other/Ike Ike/Ike Ike.sm;
#HASMUSIC:1;
#HASBANNER:1;
#MUSICLENGTH:102.379;
// end cache tags

//---------------dance-double - ----------------
#NOTES:
     dance-double:
     :
     Easy:
     1:
     0.000,0.000,0.000,0.000,0.000,0.000,0.000,0.000,0.000,0.000:
00000000
00000000
00000000
00000000
;

//---------------dance-single - ----------------
#NOTES:
     dance-single:
     :
     Hard:
     9:
     0.632,0.613,0.361,0.147,0.161,401.000,37.000,15.000,0.000,0.000:
1000
0100
1000
0001
1000
0010
1000
0100
,
1000
0001
0010
0001
1000
0001
0100
0001
,
0010
0100
1000
0100
0010
0100
1000
0100
,
0010
0000
0001
0000
0100
0000
0010
0000
1000
0000
0001
0100
0001
0000
1000
0000
,
1001
0001
1000
0001
0100
0001
0010
0001
,
1000
0100
1000
0001
1000
0010
1000
0100
,
0010
0001
0010
0100
0010
0001
0010
0100
,
1000
1000
0001
2002
0000
0000
3003
1000
,
0100
0000
1000
0000
0100
0000
0010
0000
0001
0100
0000
0001
0100
0000
0001
0000
,
0100
0000
0001
0000
0100
0000
0010
0000
1000
0100
0000
1000
0100
0000
1000
0000
,
0001
0000
0010
0000
0001
0000
1000
0000
0100
0010
0000
0001
0010
0000
0010
0000
,
0100
0000
1000
0000
0001
0000
0100
0000
0001
1000
0000
0001
1000
0000
0001
0000
,
0010
0000
0001
0000
0010
0000
0100
0000
1000
0010
0000
1000
0010
0000
1000
0000
,
0010
0000
1000
0000
0010
0000
0100
0000
0001
0010
0000
0001
0010
0000
0001
0000
,
1000
0000
0100
0000
1000
0000
0001
0000
0010
0100
0000
1000
0100
0000
0100
0000
,
0010
0000
0001
0000
1000
0000
0001
0000
1001
0000
0000
1100
0000
0000
0101
0000
,
0110
0000
1001
0000
1000
1000
0100
0000
,
0000
0001
0100
0001
0100
1000
0100
1000
,
0100
0000
0101
0000
0001
0001
0100
0000
,
0000
0000
1000
0000
0100
0000
1000
0000
0100
0000
0001
0000
0000
0001
0000
0000
,
0100
0000
1100
0000
1000
0100
0010
0100
,
1000
0002
0100
0103
0000
0100
0010
0100
,
0010
0001
0010
2000
0000
0000
0000
3000
,
0000
0001
0100
1000
0000
1000
0100
0001
,
0000
0001
0010
0100
1100
0000
1000
0010
,
0000
0101
0000
0010
0000
0100
1000
0000
,
1000
0001
0100
0010
0000
0010
0010
1000
,
1000
0001
0001
0100
0101
0000
1001
0000
,
1100
0000
1001
0000
0100
1000
0100
0001
,
0000
0010
0000
1000
0000
0100
0001
0000
,
1000
0100
0010
0011
0000
1000
0100
1000
,
0010
0010
0000
0001
0000
0001
1000
0001
,
0100
0000
1000
0000
0000
0000
0000
0000
1010
0000
0000
0011
0000
0000
0110
0000
,
1001
1000
0001
1000
0001
1000
0100
0010
,
0000
0001
0010
0100
0000
1000
0100
0001
,
0000
1000
0100
0001
0100
1000
0010
0100
,
0000
0001
0100
1000
1100
0000
0110
0000
,
0101
0000
1001
0000
0100
0010
0100
0010
,
0000
1000
0010
0001
0000
1000
0010
0001
,
0000
0001
0010
1000
0200
0010
0010
0000
,
0010
0000
0310
0000
1002
0000
0000
0103
,
0000
1000
1000
0001
0001
1000
0100
0010
,
0000
0001
0010
0100
0000
1000
0010
0001
,
0000
1000
0100
0001
0100
0010
0001
0100
,
0000
0010
1000
0100
1100
0000
1010
0000
,
0011
0000
0101
0000
0010
0010
0100
0100
,
0000
1000
0100
1000
0000
0001
0100
0001
,
0000
1000
0100
0001
0100
1000
0002
0000
,
1000
0000
1003
0000
0220
0000
0330
2002
,
0000
0000
3003
0000
0100
0010
0100
2002
,
0000
0000
3003
0001
0010
0001
0010
0100
,
1000
0010
0000
1000
0010
0000
1000
0000
0010
0000
1000
0000
0010
0000
0100
0000
,
0001
0010
0000
0001
0010
0000
0001
0000
1000
0000
0100
0000
1000
0000
0001
0000
,
0010
0100
0000
1000
0100
0000
0100
0000
0010
0000
0001
0000
1000
0000
0010
0000
,
1000
0001
0000
1000
0001
0000
1000
0000
0100
0000
1000
0000
0100
0000
0010
0000
,
0001
0100
0000
0001
0100
0000
0001
0000
0100
0000
0001
0000
0100
0000
0010
0000
,
1000
0100
0000
1000
0100
0000
1000
0000
0001
0000
0010
0000
0001
0000
1000
0000
,
0100
0010
0000
0001
0010
0000
0010
0000
0100
0000
1000
0000
0001
0000
1000
0000
,
1001
0000
0000
0011
0000
0000
1010
0000
0110
0000
0000
0000
2002
0000
0000
0000
,
0000
0000
0000
3003
;

//---------------dance-single - ----------------
#NOTES:
     dance-single:
     :
     Easy:
     4:
     0.335,0.373,0.254,0.000,0.000,214.000,26.000,0.000,0.000,0.000:
1000
0000
1000
0000
,
0001
0000
0001
0000
,
1000
1000
0001
0001
,
1000
1000
0001
0001
,
1001
0100
0001
0100
,
1000
0010
0001
0010
,
1000
0100
0001
0010
,
1001
0000
0000
0000
,
0000
0000
0100
0100
,
0001
0001
0100
0100
,
1000
1000
0001
0101
,
1000
1100
0010
0100
,
0010
0100
1001
1001
,
0100
0010
1001
1001
,
0010
0100
1001
1001
,
1000
0100
0001
0010
,
1001
0000
1000
0100
,
0000
0010
0001
0100
,
0010
1000
0100
0001
,
0000
0100
1000
0010
,
0100
0001
0010
0010
,
0100
0100
1000
1000
,
0001
0001
0010
0100
,
1000
0100
0010
0001
,
0000
1000
0100
1000
,
0100
0010
0001
0010
,
0001
0100
0001
0100
,
0001
1000
0010
1000
,
0010
0100
1001
0100
,
0001
0100
1000
0100
,
0001
0010
1000
0010
,
0001
0010
1000
0100
,
0100
0100
0000
0000
,
1000
0001
1001
1000
,
0001
1000
0001
0010
,
0100
0010
0100
1000
,
0100
0001
0100
1000
,
0001
0100
1000
0001
,
1001
0001
0010
1000
,
0100
0010
0100
1000
,
0010
0001
0100
0000
,
0100
0010
1001
0100
,
0001
0010
0100
0100
,
0010
0100
1000
0010
,
0001
0010
1000
0001
,
0100
0010
0100
1000
,
0100
0010
0100
0010
,
0010
1000
0010
0010
,
0001
0100
1000
0000
,
0010
0000
1001
1001
,
0000
0000
0000
0000
,
0010
0010
1000
1000
,
0010
0010
0001
0001
,
1000
1010
0001
0011
,
0100
0010
0100
0010
,
1001
1001
0010
0100
,
1001
1001
0100
0010
,
1001
1001
0001
0010
,
1000
0100
0001
1001
;

//---------------dance-single - ----------------
#NOTES:
     dance-single:
     :
     Medium:
     6:
     0.448,0.409,0.166,0.078,0.088,296.000,17.000,8.000,0.000,0.000:
1000
1000
0001
0001
,
1000
1000
0001
0001
,
1000
0010
0100
0001
,
0001
0000
0010
0000
0100
1000
0001
0000
,
1001
0100
0001
0100
,
1000
0010
0100
0001
,
0100
1000
0100
0001
,
1000
0001
2000
0002
0000
0000
3003
1000
,
0000
0000
1000
0000
0000
0000
0001
0000
0001
0000
0000
0001
0000
0000
0100
0000
,
0000
0000
0100
0000
0000
0000
0010
0000
0010
0000
0000
0010
0000
0000
1000
0000
,
0000
0000
1000
0000
0000
0000
0001
0000
0001
0000
0000
0010
0000
0000
0010
0000
,
0000
0000
0001
0000
0000
0000
1000
0000
1000
0000
0000
0100
0000
0000
0001
0000
,
0100
0000
1000
0000
0000
0000
0100
0000
0001
0000
0000
0001
0000
0000
1000
0000
,
0000
0000
0001
0000
0000
0000
1000
0000
1000
0000
0000
1000
0000
0000
0100
0000
,
0000
0000
1000
0000
0000
0000
0010
0000
0100
0000
0000
0100
0000
0000
0100
0000
,
0000
0000
0001
0000
0000
0000
0100
0000
0010
0000
0000
1001
0000
0000
0010
0000
,
0100
0000
1001
0000
0100
0010
0100
0000
,
1000
0100
0001
0100
,
1000
0000
0001
0000
0010
0100
0010
0000
,
1000
0000
0000
0000
0001
0000
0000
0000
1000
0000
0001
0000
0000
0001
0000
0000
,
0001
0000
1000
0000
0100
1000
0100
0000
,
0100
0000
0010
0000
0010
0001
0010
0000
,
0001
0000
0001
1000
0001
0000
1000
0001
,
0000
0001
1000
0100
0000
1000
0001
0010
,
0000
1000
0100
0000
0010
0000
0001
0000
,
0100
0000
1000
0000
0010
0100
0001
0000
,
1000
0000
0010
0000
0100
0000
0001
0010
,
0100
0000
1000
0100
0010
0000
0011
0000
,
1001
0000
1100
0000
0010
0100
0001
0000
,
0001
1000
0000
0100
0000
0001
0100
0000
,
1000
0000
0001
1000
0000
0100
0000
0010
,
0001
0000
0000
0100
0000
0001
0010
0000
,
0100
0000
1000
0000
0000
0000
0000
0000
0010
0000
0000
0100
0000
0000
0010
0000
,
1000
0001
1000
0001
0000
0100
0001
0010
,
0000
0100
0001
0010
0000
0100
1000
0010
,
0000
0100
1000
0010
0000
0010
0100
0010
,
0000
1000
0100
0000
1100
0000
0101
0000
,
1100
0000
0101
0000
0001
1000
0001
1000
,
0000
0010
1000
0100
0000
0010
1000
0100
,
0000
0010
0001
0100
0010
1000
0100
0000
,
0000
0100
0010
0000
2000
0000
0000
3001
,
0000
0010
0100
0010
0000
1000
0100
0001
,
0000
0001
0100
1000
0000
1000
0100
0001
,
0000
0001
0100
1000
0000
1000
0001
1000
,
0000
0100
0010
0000
1010
0000
0011
0000
,
1010
0000
0011
0000
0100
0010
0100
0010
,
0000
0001
0100
1000
0000
1000
0100
0001
,
0000
0001
1000
0010
0100
0001
1000
0000
,
0000
0001
1000
0000
0200
0000
0000
0320
,
0000
0000
0030
0000
1000
0100
0010
0002
,
0000
0000
0003
0100
0000
0100
0000
0010
,
0010
0000
0000
0010
0000
0000
1000
0000
0000
0000
1000
0000
0000
0000
0001
0000
,
0001
0000
0000
0001
0000
0000
0100
0000
0000
0000
0100
0000
0000
0000
0010
0000
,
0010
0000
0000
1000
0000
0000
1000
0000
0000
0000
0010
0000
0000
0000
0100
0000
,
0100
0000
0000
0001
0000
0000
0010
0000
0001
0000
0100
0000
0000
0000
0001
0000
,
0010
0000
0000
0010
0000
0000
0100
0000
0000
0000
0010
0000
0000
0000
0100
0000
,
0100
0000
0000
0100
0000
0000
0001
0000
0000
0000
0100
0000
0000
0000
1000
0000
,
0001
0000
0000
0001
0000
0000
0001
0000
0000
0000
0010
0000
0000
0000
0100
0000
,
1000
0000
0000
0001
0000
0000
1001
0000
0110
0000
0000
0000
2002
0000
0000
0000
,
0000
0000
0000
3003
;
