#TITLE:Go Go Sing;
#SUBTITLE:;
#ARTIST:Outsider ft. Whale;
#TITLETRANSLIT:;
#SUBTITLETRANSLIT:;
#ARTISTTRANSLIT:;
#CREDIT:Lachlan Miller;
#BANNER:../Zeppelin_bn.png;
#BACKGROUND:../bg_Zeppelin.png;
#LYRICSPATH:;
#CDTITLE:../cdtitle_ZAiA.png;
#MUSIC:Outsider ft. Whale - Go Go Sing.ogg;
#OFFSET:-0.940;
#SAMPLESTART:35.640;
#SAMPLELENGTH:23.240;
#SELECTABLE:YES;
#DISPLAYBPM:166.000;
#BPMS:0.000=166.000;
#STOPS:;
#BGCHANGES:;
// cache tags:
#FIRSTBEAT:29.500;
#LASTBEAT:480.000;
#SONGFILENAME:Songs/Cirque du Zeppelin/Go Go Sing - [Zaia]/Go Go Sing.sm;
#HASMUSIC:1;
#HASBANNER:1;
#MUSICLENGTH:177.789;
// end cache tags

//---------------dance-single - ----------------
#NOTES:
     dance-single:
     :
     Challenge:
     12:
     0.850,1.000,0.382,0.461,0.568,908.000,68.000,82.000,0.000,0.000:
0000
0000
0000
0000
,
0000
0000
0000
0000
,
0000
0000
0000
0000
,
0000
0000
0000
0000
,
0000
0000
0000
0000
,
0000
0000
0000
0000
,
0000
0000
0000
0000
,
0000
0000
0000
0001
0000
1000
0010
0100
,
0002
0000
2003
0000
3002
0000
0203
0310
,
2000
0000
3001
0000
0010
0000
0100
1000
,
0010
0100
0001
0010
0100
0010
0001
2000
,
0000
0000
3010
0200
0000
0301
0010
0100
,
2000
0000
3020
0000
2030
0000
3002
0103
,
0020
0000
1030
0000
0001
0010
0100
0100
,
1000
0010
0000
0100
0001
0000
0010
0100
,
1000
1000
0000
0001
0000
0100
0010
0000
,
1001
0000
0001
0100
0001
2000
0000
3020
,
0000
0000
0000
0030
0000
0100
0001
0001
,
0010
0000
0000
0001
0000
0000
1000
0000
0000
0000
0010
0000
0000
0000
0100
0000
,
0000
0010
0000
1000
0000
0001
0010
0000
,
0100
0000
1000
0010
0100
0002
0000
0023
,
0000
0000
0000
0030
0000
0100
0010
0010
,
0001
2000
0000
3010
0200
0000
0301
2000
,
0000
0000
3200
0000
0000
0000
2300
0000
3010
0100
0001
0100
0001
0000
1000
0000
,
0001
0000
1000
0100
0010
0000
0001
0100
0020
0000
2030
0000
3001
0000
0010
0000
,
0100
1000
0001
0100
0001
0010
0100
1000
0001
0000
0100
0000
0010
0000
0000
0000
,
0100
0001
0010
0001
1000
0000
0010
0100
0001
0000
0010
0000
0001
0000
1000
0001
,
0010
0100
1000
0001
0100
0000
0010
1000
0001
0000
0010
0000
0011
0000
0000
0000
,
0001
0100
0001
1000
0010
1000
0100
1000
0001
0010
0001
0100
0010
1000
0010
0100
,
0001
0010
0100
1000
0010
0100
0001
1000
0001
0010
0001
0100
0010
0000
0000
0000
,
1000
0010
0100
0001
0010
0001
1000
0010
0100
0001
1000
0100
0010
0000
0001
0000
,
1000
0000
0010
0100
0001
0000
0010
0100
2000
0000
3002
0000
0203
0000
0300
0000
,
0110
0000
0010
0000
1000
0000
0001
1000
0100
0000
0010
0000
0001
0000
1000
0000
,
0010
0000
0100
0001
0010
0000
0100
1000
0001
0000
0100
0000
0001
0000
0010
0000
,
0100
1000
0001
0100
0010
0000
0100
0001
1000
0000
0100
0000
0010
0000
0100
0000
,
1000
0010
0100
0000
0001
0000
0010
0001
0100
0000
0010
0000
1010
0000
0000
0000
,
1000
0010
0100
0001
1000
0100
0010
0001
1000
0010
1000
0100
1000
0001
0010
0001
,
0100
0010
1000
0001
0010
0001
1000
0010
0100
0000
0001
0000
0020
0000
0030
0000
,
0100
0000
0010
0001
1000
0000
0010
0100
0001
0000
1000
0000
0100
0000
0010
0000
,
0100
1000
0001
0100
0010
0100
0001
1000
0200
0000
0320
0000
0031
0000
2000
0000
,
3001
0100
0010
0100
0001
0000
0010
0100
1000
0000
0001
0000
0100
0000
0001
0000
,
0011
1100
0101
1010
,
1000
0010
1000
0001
0100
0001
0010
0100
1000
0000
0001
0000
0100
0000
0010
0000
,
1010
0000
0011
0000
1100
0000
0101
0100
,
0010
0000
1000
0001
0100
0000
0001
0000
0010
0100
1000
0001
1000
0000
0010
0000
,
0100
0001
0010
0001
1000
0100
1000
0010
0100
0001
1000
0001
0010
0000
0100
0000
,
1001
0000
0010
0000
1001
0000
1000
0001
0100
0000
0010
0000
1010
0000
1000
0000
,
1001
0011
0000
0110
0000
1100
0000
0000
,
1000
0001
0100
0010
1000
0001
0010
0100
1000
0000
0010
0000
0100
0000
0001
0000
,
0011
1100
1010
0101
,
0001
0100
0010
1000
0100
1000
0001
0010
0001
0000
1000
0000
0010
0000
0100
0000
,
0101
0000
1010
0000
0011
0000
1100
0100
,
0010
0000
0100
1000
0001
0000
0100
0000
0010
1000
0001
1000
0100
0000
0010
0000
,
0100
1000
0010
0100
0001
0010
0100
1000
0001
0100
0010
0100
0001
0000
0010
0000
,
0200
0000
1300
0000
0020
0000
1030
0100
2000
0000
3010
0000
0100
0000
0001
0000
,
0010
0000
0100
1000
0001
0100
0010
1000
0100
0010
0001
0010
0001
1000
0001
0100
,
0020
0000
2030
0000
3002
0000
0023
0130
,
2000
0000
3001
0000
0100
0000
0010
1000
,
0100
0010
0001
0100
0010
0100
0001
1000
,
0000
0000
0100
0020
0000
0031
0100
0010
,
2000
0000
3200
0000
2300
0000
3002
0013
,
0200
0000
1300
0000
0001
0100
0010
0010
,
1000
0200
0000
0310
0002
0000
0103
0010
,
1000
1000
0000
0001
0000
0010
0100
0000
,
1001
0000
0001
0010
0001
2000
0000
3200
,
0000
0000
0000
0300
0000
0010
0001
0001
,
0100
0000
0000
0001
0000
0000
1000
0000
0000
0000
0100
0000
0000
0000
0010
0000
,
0000
0100
0000
1000
0000
0001
0100
0000
,
0010
0000
1000
0100
0010
0002
0000
0203
,
0000
0000
0000
0300
0000
0010
0100
0100
,
0001
2000
0000
3100
0020
0000
0031
2000
,
0000
0000
3020
0000
0000
0000
2030
0000
3100
0010
0001
0010
0001
0000
1000
0000
,
0001
0000
0100
0010
1000
0000
0001
1000
0100
0000
0010
0000
0110
0000
0000
0000
,
0100
1000
0001
0100
0010
0100
0001
0010
0100
0000
1000
0000
0010
0000
0000
0000
,
0100
0001
0010
0001
1000
0000
0010
0100
0001
1000
0010
1000
0100
0000
0010
0000
,
0001
0100
0001
0010
0100
1000
0001
0000
,
1001
0000
0000
0000
1001
0000
0000
0000
1000
0000
0010
0100
0001
1000
0100
0010
,
0001
0000
0100
0000
0010
0000
1000
0000
1001
0000
0001
0010
0001
1000
0000
0000
,
1010
0000
0000
0000
1010
0000
0000
0000
0010
0000
0100
0001
0010
0000
0100
1000
,
0001
0010
0001
0100
0010
0000
0100
0000
0101
0000
0001
0000
0100
0001
0000
0000
,
1000
0010
0100
0001
1000
0010
1000
0100
1000
0001
0010
0001
0100
0001
1000
0100
,
0010
0000
0100
1000
0001
0000
0100
0000
0110
0000
0010
0000
1010
0000
0000
0000
,
1000
0000
0010
0100
0001
0000
0010
0000
0011
0000
0001
0000
1001
0000
0000
0000
,
1000
0001
0010
0100
1000
0001
0100
0010
0100
0000
0001
0000
1000
0000
0000
0000
,
0100
0010
0001
1000
0001
0100
0010
1000
0100
1000
0001
0010
0001
0000
0100
0000
,
0010
0000
1000
0100
0010
0000
0001
0000
0100
0001
1000
0001
0010
0000
0100
0000
,
1000
0001
0100
0100
1001
1001
0110
0000
,
0001
1000
0001
0010
0100
0010
0001
1000
0020
0000
0230
0000
0301
0000
2000
0000
,
3001
0010
0100
0010
0001
0000
0100
0010
1000
0000
0001
0000
0010
0000
0001
0000
,
0101
1010
0011
1100
,
1000
0100
1000
0001
0010
0001
0100
0010
1000
0000
0001
0000
0010
0000
0100
0000
,
1100
0000
0101
0000
1010
0000
0011
0010
,
0100
0000
1000
0001
0010
0000
0001
0000
0100
0010
1000
0001
1000
0000
0100
0000
,
0010
0001
0100
0001
1000
0010
1000
0100
0010
0001
1000
0001
0100
0000
0010
0000
,
1001
0000
0100
0000
1001
0000
1000
0001
0010
0000
0100
0000
1100
0000
1000
0000
,
1001
0101
0000
0110
0000
1010
0000
0000
,
1000
0001
0010
0100
1000
0001
0100
0010
1000
0000
0100
0000
0010
0000
0001
0000
,
0101
1010
1100
0011
,
0001
0010
0100
1000
0010
1000
0001
0100
0001
0000
1000
0000
0100
0000
0010
0000
,
0011
0000
1100
0000
0101
0000
1010
0010
,
0100
0000
0010
1000
0001
0000
0010
0000
0100
1000
0001
1000
0010
0000
0100
0000
,
0010
1000
0100
0010
0001
0100
0010
1000
0001
0010
0100
0010
0001
0000
0100
0000
,
0020
0000
1030
0000
0200
0000
1300
0010
2000
0000
3100
0000
0010
0000
0001
0000
,
0100
0000
0010
1000
0001
0010
0100
1000
0010
0100
0001
0100
0001
1000
0001
0010
,
0200
0000
2300
0000
3002
0000
0203
0310
,
2000
0000
3001
0000
0010
0000
0100
1000
,
0010
0100
0001
0010
0100
0010
0001
2000
,
0000
0000
3010
0200
0004
0300
0000
0000
,
2003
0000
3020
0000
2030
0000
3002
0103
,
0020
0000
1030
0000
0001
0010
0100
0100
,
1000
0010
0000
0100
0001
0000
0010
0100
,
1000
1000
0000
0001
0000
0100
0010
0000
,
1001
0000
0001
0100
0001
2000
0000
3020
,
0000
0000
0000
0030
0000
0100
0001
0001
,
0010
0000
0000
0001
0000
0000
1000
0000
0000
0000
0010
0000
0000
0000
0100
0000
,
0000
0010
0000
1000
0400
0000
0000
0000
,
1300
0000
0001
0100
0010
2000
0000
3200
,
0000
0000
0000
0300
0000
0010
0100
0100
,
1000
0002
0000
0103
0020
0000
1030
0002
,
0000
0000
0023
0000
0000
0000
0032
0000
0103
0010
1000
0010
1000
0000
0001
0000
,
1000
0000
0000
0000
;

//---------------dance-single - ----------------
#NOTES:
     dance-single:
     :
     Hard:
     10:
     0.730,0.911,0.281,0.427,0.236,782.000,50.000,76.000,0.000,0.000:
0000
0000
0000
0000
,
0000
0000
0000
0000
,
0000
0000
0000
0000
,
0000
0000
0000
0000
,
0000
0000
0000
0000
,
0000
0000
0000
0000
,
0000
0000
0000
0000
,
0000
0000
0000
1000
0000
0001
0100
0010
,
2000
0000
3002
0000
2003
0000
3020
0130
,
0002
0000
1003
0000
0100
0000
0010
0001
,
0100
0010
1000
0100
0010
0100
1000
0002
,
0000
0000
0103
0020
0000
1030
0100
0010
,
0002
0000
0203
0000
0302
0000
2003
3010
,
0200
0000
0301
0000
1000
0100
0010
0010
,
0001
0100
0000
0010
1000
0000
0100
0010
,
0001
0001
0000
1000
0000
0010
0100
0000
,
1001
0000
1000
0010
1000
0002
0000
0203
,
0000
0000
0000
0300
0000
0010
1000
1000
,
0100
0000
0000
1000
0000
0000
0001
0000
0000
0000
0100
0000
0000
0000
0010
0000
,
0000
0100
0000
0001
0000
1000
0100
0000
,
0010
0000
0001
0100
0010
2000
0000
3200
,
0000
0000
0000
0300
0000
0010
0100
0100
,
1000
0002
0000
0103
0020
0000
1030
0002
,
0000
0000
0023
0000
0000
0000
0032
0000
0103
0010
1000
0010
1000
0000
0001
0000
,
1000
0000
0001
0010
0100
0000
1000
0010
0200
0000
0302
0000
1003
0000
0100
0000
,
0010
0001
1000
0000
0010
0000
1000
0001
1000
0000
0010
0000
0100
0000
0000
0000
,
0010
1000
0010
1000
0001
0000
0100
0010
1000
0000
0100
0000
1000
0000
0001
1000
,
0001
0000
0100
0000
0010
0000
0100
0001
1000
0000
0100
0000
1000
0000
0000
0000
,
0001
1000
0001
0000
0100
0000
0010
1000
0001
0000
0010
0000
0100
0000
1000
0000
,
0001
0100
0001
0010
0100
1000
0010
0000
,
1000
0000
0010
0100
0010
0000
1000
0000
0001
0010
0100
0000
0010
0000
0001
0000
,
1000
0000
0010
0100
0001
0000
0010
0100
2000
0000
3002
0000
0203
0000
0300
0000
,
0110
0000
0010
0000
1000
0000
0001
1000
0100
0000
0010
0000
0001
0000
1000
0000
,
0010
0000
0100
0001
0010
0000
0100
1000
0001
0000
0100
0000
0001
0000
0010
0000
,
0100
1000
0001
1000
0001
0000
0100
0001
1000
0000
0100
0000
0010
0000
0100
0000
,
1000
0010
0100
0000
0001
0000
0010
0001
1000
0000
0010
0000
1010
0000
0000
0000
,
1000
0010
0100
0001
0010
0100
1000
0010
,
1000
0100
0010
0001
0100
0001
0020
0030
,
0100
0000
0010
0001
1000
0000
0001
0100
0001
0000
1000
0000
0100
0000
0010
0000
,
0100
1000
0001
1000
0001
0000
0010
0000
0200
0000
0320
0000
0031
0000
2000
0000
,
3001
0100
0001
0010
0100
1000
0001
1000
,
1001
0110
1001
0110
,
1000
0000
0010
0100
0001
0000
0010
0100
1000
0000
0001
0000
0100
0000
0010
0000
,
1010
0000
0101
0000
1010
0000
0101
0100
,
0010
0000
1000
0001
0100
0000
0001
0000
0010
0001
1000
0001
1000
0000
0010
0000
,
0100
0001
0010
0001
1000
0100
0010
0100
,
1000
0010
1000
0001
1000
0100
0010
0100
,
1000
0001
0000
0010
0000
0100
0000
0000
,
1000
0100
1000
0010
0100
0001
1000
0001
,
1001
0110
1001
0110
,
0001
0000
0010
0100
1000
0000
0010
0100
0001
0000
1000
0000
0100
0000
0010
0000
,
0011
0000
1100
0000
0011
0000
1100
0100
,
0010
0000
0001
1000
0100
0000
1000
0000
0010
1000
0001
1000
0001
0000
0010
0000
,
0100
1000
0010
1000
0001
0100
0010
0100
,
0001
0010
0001
1000
0001
0100
0010
0100
,
0001
1000
0000
0010
0000
0100
0000
0000
,
0020
0000
2030
0000
3002
0000
0023
0130
,
2000
0000
3001
0000
0100
0000
0010
1000
,
0100
0010
0001
0100
0010
0100
0001
1000
,
0000
0000
0100
0020
0000
0031
0100
0010
,
2000
0000
3200
0000
2300
0000
3002
0013
,
0200
0000
1300
0000
0001
0100
0010
0010
,
1000
0200
0000
0310
0002
0000
0103
0010
,
1000
1000
0000
0001
0000
0010
0100
0000
,
1001
0000
0001
0010
0001
2000
0000
3200
,
0000
0000
0000
0300
0000
0010
0001
0001
,
0100
0000
0000
0001
0000
0000
1000
0000
0000
0000
0100
0000
0000
0000
0010
0000
,
0000
0100
0000
1000
0000
0001
0100
0000
,
0010
0000
1000
0100
0010
0002
0000
0203
,
0000
0000
0000
0300
0000
0010
0100
0100
,
0001
2000
0000
3100
0020
0000
0031
2000
,
0000
0000
3020
0000
0000
0000
2030
0000
3100
0010
0001
0010
0001
0000
1000
0000
,
0001
0000
0100
0010
1000
0000
0001
1000
0100
0000
0010
0000
0001
0000
0000
0000
,
0100
0001
0010
0001
1000
0010
0100
0000
,
0010
1000
0001
1000
0001
0000
0100
0010
1000
0000
0001
0000
0010
0000
0100
0000
,
1000
0010
1000
0100
0010
0001
1000
0000
,
1001
0000
1001
0000
0001
0100
0001
1000
,
0001
0100
0010
1000
1001
0001
1000
0000
,
1010
0000
0000
0000
1010
0000
0000
0000
0010
0000
0100
0001
1000
0000
0100
1000
,
0001
1000
0100
0000
0010
0000
0001
0000
1001
0000
1000
0000
0001
0000
0000
0000
,
1000
0010
0100
0010
1000
0100
0010
0001
,
0010
0000
0100
1000
0001
0000
0100
0000
0010
0000
1000
0000
0001
0000
0000
0000
,
1000
0000
0010
0100
0001
0000
0010
0000
0001
0000
0001
0000
1000
0000
0000
0000
,
0001
1000
0100
1000
0010
1000
0001
0000
,
0010
0100
1000
0001
1000
0000
0010
0000
0100
0000
0001
0000
1000
0000
0010
0000
,
0100
0000
0001
0010
0100
0000
1000
0000
0010
1000
0001
1000
0100
0000
0010
0000
,
0001
1000
0010
0010
1000
0001
1001
0000
,
1000
0000
0001
0010
0001
0000
1000
0000
0020
0000
0230
0000
0301
0000
2000
0000
,
3001
0010
0100
0010
0001
0000
0100
0010
1000
0000
0001
0000
0010
0000
0001
0000
,
0101
1010
0011
1100
,
1000
0100
1000
0001
0010
0001
0100
0010
1000
0000
0001
0000
0010
0000
0100
0000
,
1100
0000
0101
0000
1010
0000
0011
0010
,
0100
0000
1000
0001
0010
0000
0001
0000
0100
0010
1000
0001
1000
0000
0100
0000
,
0010
0001
0100
0001
1000
0010
1000
0100
0010
0001
1000
0001
0100
0000
0010
0000
,
1001
0000
0100
0000
1001
0000
1000
0001
0010
0000
0100
0000
1000
0000
0001
0000
,
1000
0010
0000
0110
0000
1010
0000
0000
,
1000
0010
1000
0100
0010
0001
1000
0001
,
1001
0110
1001
0110
,
0001
0000
0100
0010
1000
0000
0100
0010
0001
0000
1000
0000
0010
0000
0100
0000
,
0101
0000
1010
0000
0101
0000
1010
0010
,
0100
0000
0001
1000
0010
0000
1000
0000
0100
1000
0001
1000
0001
0000
0100
0000
,
0010
1000
0100
1000
0001
0010
0100
0010
,
0001
0100
0001
1000
0001
0010
0100
0010
,
0001
1000
0000
0100
0000
0010
0000
0000
,
0200
0000
2300
0000
3002
0000
0203
0310
,
2000
0000
3001
0000
0010
0000
0100
1000
,
0010
0100
0001
0010
0100
0010
0001
2000
,
0000
0000
3010
0200
0004
0300
0000
0000
,
2003
0000
3020
0000
2030
0000
3002
0103
,
0020
0000
1030
0000
0001
0010
0100
0100
,
1000
0010
0000
0100
0001
0000
0010
0100
,
1000
1000
0000
0001
0000
0100
0010
0000
,
1001
0000
1000
0010
1000
0002
0000
0203
,
0000
0000
0000
0300
0000
0010
1000
1000
,
0100
0000
0000
1000
0000
0000
0001
0000
0000
0000
0100
0000
0000
0000
0010
0000
,
0000
0100
0000
0001
0040
0000
0000
0000
,
0031
0000
1000
0010
0100
0002
0000
0023
,
0000
0000
0000
0030
0000
0100
0010
0010
,
0001
2000
0000
3010
0200
0000
0301
2000
,
0000
0000
3200
0000
0000
0000
2300
0000
3010
0100
0001
0100
0001
0000
1000
0000
,
0001
0000
0000
0000
;

//---------------dance-single - ----------------
#NOTES:
     dance-single:
     :
     Medium:
     9:
     0.667,0.675,0.276,0.439,0.008,703.000,49.000,78.000,0.000,0.000:
0000
0000
0000
0000
,
0000
0000
0000
0000
,
0000
0000
0000
0000
,
0000
0000
0000
0000
,
0000
0000
0000
0000
,
0000
0000
0000
0000
,
0000
0000
0000
0000
,
0000
0000
0000
1000
0000
0001
0100
0010
,
2000
0000
3002
0000
2003
0000
3020
0130
,
0002
0000
1003
0000
0100
0000
0010
0001
,
0100
0010
1000
0100
0010
0100
1000
0002
,
0000
0000
0103
0020
0000
1030
0100
0010
,
0002
0000
0203
0000
0302
0000
2003
3010
,
0200
0000
0301
0000
1000
0100
0010
0010
,
0001
0100
0000
0010
1000
0000
0100
0010
,
0001
0001
0000
1000
0000
0010
0100
0000
,
1001
0000
1000
0010
1000
0002
0000
0203
,
0000
0000
0000
0300
0000
0010
1000
1000
,
0100
0000
0000
1000
0000
0000
0001
0000
0000
0000
0100
0000
0000
0000
0010
0000
,
0000
0100
0000
0001
0000
1000
0100
0000
,
0010
0000
0001
0100
0010
2000
0000
3200
,
0000
0000
0000
0300
0000
0010
0100
0100
,
1000
0002
0000
0103
0020
0000
1030
0002
,
0000
0023
0000
0032
0103
0010
1000
0001
,
1000
0001
0010
0001
0200
0302
1003
0100
,
0010
0001
0100
0010
1000
0010
0100
0000
,
0010
1000
0001
0100
0010
1000
0001
0010
,
0001
0100
0010
0100
0001
0010
0100
0000
,
1000
0010
0100
0010
1000
0010
0100
0001
,
1000
0100
1000
0010
0100
0001
0010
0000
,
0001
0010
0100
1000
0001
0100
0010
1000
,
0001
0010
0001
1000
0002
2003
3200
0300
,
0110
0010
0001
1000
0100
0010
0001
1000
,
0010
0100
0001
0010
0100
0010
0001
0100
,
0010
1000
0001
0010
0001
0100
0010
0100
,
0001
0010
0100
1000
0010
1000
1001
0000
,
1000
0010
0100
0001
0010
0100
1000
0010
,
1000
0100
0010
0001
0100
0001
0020
0030
,
0100
0010
0001
1000
0001
1000
0100
0010
,
0100
1000
0001
0010
0200
0320
0031
2000
,
3001
0100
0001
0010
0100
1000
0001
1000
,
1001
0110
1001
0110
,
1000
0010
0100
0001
0010
0100
1000
0010
,
1010
0000
0101
0000
1010
0000
0101
0100
,
0010
1000
0100
0010
0001
0100
0010
1000
,
0100
1000
0010
1000
0001
0100
0010
0100
,
0001
0010
0001
1000
0001
0100
0010
0100
,
0001
1000
0000
0010
0000
0100
0000
0000
,
0001
0100
0001
0010
0100
1000
0001
1000
,
1001
0110
1001
0110
,
0001
0010
0100
1000
0010
0100
0001
0010
,
0011
0000
1100
0000
0011
0000
1100
0100
,
0010
0001
1000
0010
0100
0001
1000
0100
,
0010
0001
0100
0001
1000
0100
0010
0100
,
1000
0010
1000
0001
1000
0100
0010
0100
,
1000
0001
0000
0010
0000
0100
1000
0001
,
0020
0000
0032
0000
2003
0000
3020
0130
,
0002
0000
1003
0000
0100
0000
0010
0001
,
0100
0010
1000
0100
0010
0100
1000
0001
,
0000
0000
0100
0020
0000
1030
0100
0010
,
0002
0000
0203
0000
0302
0000
2003
3010
,
0200
0000
0301
0000
1000
0100
0010
0010
,
0001
0200
0000
0310
2000
0000
3100
0010
,
0001
0001
0000
1000
0000
0010
0100
0000
,
1001
0000
0001
0010
0001
2000
0000
3200
,
0000
0000
0000
0300
0000
0010
0001
0001
,
0100
0000
0000
0001
0000
0000
1000
0000
0000
0000
0100
0000
0000
0000
0010
0000
,
0000
0100
0000
1000
0000
0001
0100
0000
,
0010
0000
1000
0100
0010
0002
0000
0203
,
0000
0000
0000
0300
0000
0010
0100
0100
,
0001
2000
0000
3100
0020
0000
0031
2000
,
0000
3020
0000
2030
3100
1000
0001
1000
,
0001
0100
0010
1000
0100
0010
0001
0000
,
0100
0001
0010
0001
1000
0010
0100
0000
,
0010
1000
0001
0100
0010
1000
0010
0100
,
0001
0010
0001
0100
0010
1000
0001
0000
,
1001
0000
1001
0000
1000
0100
1000
0001
,
1000
0100
0010
0001
1001
1000
0001
0000
,
0011
0000
0011
0000
0010
0100
1000
0001
,
0010
0100
0010
0001
1001
1000
0001
0000
,
1000
0100
0010
0100
1000
0010
0100
0001
,
0100
0010
1000
0010
0100
0001
1000
0000
,
0001
0100
0001
0100
0001
0001
1000
0000
,
0001
1000
0010
1000
0100
1000
0001
0000
,
0100
0010
1000
0100
0010
0001
1000
0100
,
0010
0001
0100
0001
1000
0001
0010
0100
,
1000
0001
0100
0100
0001
1000
1001
0000
,
0001
1000
0001
1000
0200
0320
0031
2000
,
3001
0100
0010
0100
0001
1000
0100
1000
,
1010
0101
1100
0011
,
0001
1000
0010
0100
0001
1000
0100
0010
,
0011
0000
1010
0000
0101
0000
1100
0100
,
0010
0001
1000
0100
0010
0001
0100
0010
,
1000
0100
1000
0001
0100
0001
0010
0100
,
1001
0000
1001
0000
1001
1000
0001
1000
,
0001
0100
0000
0110
0000
0101
0000
0000
,
0001
0100
0001
0010
0100
1000
0001
1000
,
1001
0110
1001
0110
,
1000
0010
0100
0001
0010
0001
1000
0010
,
1010
0000
0101
0000
1010
0000
0101
0100
,
0010
1000
0001
0100
0010
1000
0100
0010
,
0001
1000
0010
1000
0001
0100
0010
0100
,
0001
0010
0001
1000
0001
0100
0010
0100
,
0001
1000
0000
0010
0000
0100
0000
0000
,
0020
0000
2030
0000
3002
0000
0023
0130
,
2000
0000
3001
0000
0100
0000
0010
1000
,
0100
0010
0001
0100
0010
0100
0001
2000
,
0000
0000
3100
0020
0002
0030
0000
0000
,
2003
0000
3200
0000
2300
0000
3002
0013
,
0200
0000
1300
0000
0001
0100
0010
0010
,
1000
0100
0000
0010
0001
0000
0100
0010
,
1000
1000
0000
0001
0000
0010
0100
0000
,
1001
0000
1000
0100
1000
0002
0000
0023
,
0000
0000
0000
0030
0000
0100
1000
1000
,
0010
0000
0000
1000
0000
0000
0001
0000
0000
0000
0010
0000
0000
0000
0100
0000
,
0000
0010
0000
0001
0200
0000
0000
0000
,
0301
0000
1000
0100
0010
0002
0000
0203
,
0000
0000
0000
0300
0000
0010
0100
0100
,
0001
2000
0000
3100
0020
0000
0031
2000
,
0000
3020
0000
2030
3100
0010
0001
1000
,
0001
0000
0000
0000
;
