#TITLE:Midas River;
#SUBTITLE:;
#ARTIST:Yoko Shimomura;
#TITLETRANSLIT:;
#SUBTITLETRANSLIT:;
#ARTISTTRANSLIT:;
#CREDIT:;
#BANNER:../fthescorept1bn.png;
#BACKGROUND:../fthescorept1bg.png;
#LYRICSPATH:;
#CDTITLE:;
#MUSIC:Midas River.ogg;
#OFFSET:-0.416;
#SAMPLESTART:17.440;
#SAMPLELENGTH:15.050;
#SELECTABLE:YES;
#BPMS:0.000=126.940;
#STOPS:;
#BGCHANGES:;
// cache tags:
#FIRSTBEAT:4.000;
#LASTBEAT:156.000;
#SONGFILENAME:Songs/Fuck The Score Part I/Midas River [Dossar]/Midas River.sm;
#HASMUSIC:1;
#HASBANNER:1;
#MUSICLENGTH:79.777;
// end cache tags

//---------------dance-single - ----------------
#NOTES:
     dance-single:
     :
     Hard:
     13:
     1.000,1.000,0.000,0.000,1.000,612.000,0.000,0.000,0.000,0.000:
0000
0000
0000
0000
,
1000
0100
0010
0001
1000
0100
0010
0001
0100
0010
1000
0001
0100
0010
1000
0001
,
0010
0000
0100
0000
1000
0000
0001
0000
0010
0000
0100
0000
1000
0000
0001
0000
0100
0000
0010
0000
1000
0000
0001
0000
0100
0000
0010
0000
1000
0001
0100
0001
,
1000
0010
0100
0001
1000
0010
0100
0001
0010
0100
1000
0001
0010
0100
1000
0001
,
0100
0010
1000
0001
0100
0010
1000
0001
0010
0100
1000
0010
0100
0001
0010
0100
,
1000
0000
0000
0000
0001
0100
0001
1000
0100
0000
0000
0000
1000
0000
0000
0000
0001
0000
0000
0000
1000
0100
0010
0001
1000
0000
0000
0000
0001
0000
0000
0000
,
0100
0000
0000
0000
0001
1000
0010
1000
0001
0000
0000
0000
0100
0000
0000
0000
0001
0100
0001
1000
0010
0100
0001
1000
0010
1000
0001
0100
0010
1000
0001
0100
,
0001
0000
0000
0000
1000
0010
1000
0001
0100
0000
0000
0000
0001
0000
0000
0000
1000
0000
0000
0000
0001
0010
0100
1000
0001
0000
0000
0000
0010
0000
0000
0000
,
0100
0000
0000
0000
1000
0100
0010
0001
1000
0000
0000
0000
0001
0000
0000
0000
1000
0010
0100
0001
1000
0001
0100
0010
1000
0001
1000
0010
0100
0001
1000
0000
,
0010
0000
0100
0001
0100
0000
0010
1000
0010
0000
0100
0001
0100
0000
0010
1000
,
0010
0000
1000
0100
1000
0000
0001
0010
0001
0000
1000
0100
1000
0000
0001
0010
,
0001
0000
0100
0010
0100
0000
0001
1000
0001
0000
0100
0010
0100
0000
0001
1000
,
0001
0000
0000
0000
1000
0000
0010
0000
1000
0000
0000
0000
0001
0000
0010
0000
0001
0000
0000
0000
1000
0100
0010
0001
1000
0000
0000
0000
0001
0010
0100
1000
,
0001
0000
1000
0010
1000
0000
0001
0100
0001
0000
1000
0010
1000
0000
0001
0100
,
0001
0000
1000
0100
1000
0000
0001
0010
0001
0000
1000
0100
1000
0000
0001
0010
,
0001
0000
0010
0100
0010
0000
0001
1000
0001
0000
0010
0100
0010
0001
1000
0010
,
1000
0010
1000
0001
0100
0001
1000
0010
0100
0001
1000
0010
1000
0001
0100
0010
1000
0001
0100
0001
1000
0000
0010
0000
0100
0000
0001
0000
0100
0000
0010
0000
,
1000
0100
0010
0001
1000
0100
0010
0001
0100
0010
1000
0001
0100
0010
1000
0001
,
0010
0000
0100
0000
1000
0000
0001
0000
0010
0000
0100
0000
1000
0000
0001
0000
0100
0000
0010
0000
1000
0000
0001
0000
0100
0000
0010
0000
1000
0001
0100
0001
,
1000
0010
0100
0001
1000
0010
0100
0001
0010
0100
1000
0001
0010
0100
1000
0001
,
0100
0010
1000
0001
0100
0010
1000
0001
0010
0100
1000
0010
0100
0001
0010
0100
,
1000
0000
0000
0000
0001
0100
0010
1000
0001
0000
0000
0000
1000
0000
0000
0000
0001
0000
0000
0000
1000
0100
0010
0001
1000
0000
0000
0000
0001
0000
0000
0000
,
0100
0000
0000
0000
0001
1000
0010
0100
0001
0000
0000
0000
0100
0000
0000
0000
0001
0100
0001
1000
0010
1000
0001
0100
0010
1000
0001
0100
0001
1000
0010
0100
,
0001
0000
0000
0000
1000
0010
1000
0001
0100
0000
0000
0000
0001
0000
0000
0000
1000
0000
0000
0000
0001
0010
0100
1000
0001
0000
0000
0000
0010
0000
0000
0000
,
0100
0000
0000
0000
1000
0100
0010
0001
1000
0000
0000
0000
0001
0000
0000
0000
1000
0010
0100
0001
1000
0001
0100
0010
1000
0001
1000
0010
0100
0001
1000
0000
,
0010
0000
0100
0001
0100
0000
0010
1000
0010
0000
0100
0001
0100
0000
0010
1000
,
0010
0000
1000
0100
1000
0000
0001
0010
0001
0000
1000
0100
1000
0000
0001
0010
,
0001
0000
0100
0010
0100
0000
0001
1000
0001
0000
0100
0010
0100
0000
0001
1000
,
0001
0000
0000
0000
1000
0000
0010
0000
1000
0000
0000
0000
0001
0000
0010
0000
0001
0000
0000
0000
1000
0100
0010
0001
1000
0000
0000
0000
0001
0010
0100
1000
,
0001
0000
1000
0010
1000
0000
0001
0100
0001
0000
1000
0010
1000
0000
0001
0100
,
0001
0000
1000
0100
1000
0000
0001
0010
0001
0000
1000
0100
1000
0000
0001
0010
,
0001
0000
0010
0100
0010
0000
0001
1000
0001
0000
0010
0100
0010
0001
1000
0010
,
1000
0010
1000
0001
0100
0001
1000
0010
0100
0001
1000
0010
1000
0001
0100
0010
1000
0001
0100
0001
1000
0000
0010
0000
0100
0000
0001
0000
0100
0000
0010
0000
,
1000
0100
0010
0001
1000
0100
0010
0001
0100
0010
1000
0001
0100
0010
1000
0001
,
0010
0000
0100
0000
1000
0000
0001
0000
0010
0000
0100
0000
1000
0000
0001
0000
0100
0000
0010
0000
1000
0000
0001
0000
0100
0000
0010
0000
1000
0001
0100
0001
,
1000
0010
0100
0001
1000
0010
0100
0001
0010
0100
1000
0001
0010
0100
1000
0001
,
0100
0010
1000
0001
0100
0010
1000
0001
0010
0100
1000
0010
0100
0001
0010
0100
,
1000
0000
0000
0000
0001
0100
0001
1000
0100
0000
0000
0000
1000
0000
0000
0000
0001
0000
0000
0000
1000
0100
0010
0001
1000
0000
0000
0000
0001
0000
0000
0000
,
0100
0000
0000
0000
0001
1000
0010
1000
0001
0000
0000
0000
0100
0000
0000
0000
0001
0100
0001
1000
0010
0100
0001
1000
0010
1000
0001
0100
0010
1000
0001
0100
,
0001
0000
0000
0000
;

//---------------dance-single - ----------------
#NOTES:
     dance-single:
     :
     Challenge:
     14:
     1.000,1.000,0.000,0.000,1.000,612.000,0.000,0.000,0.000,0.000:
0000
0000
0000
0000
,
1000
0100
0010
0001
1000
0100
0010
0001
0100
0010
1000
0001
0100
0010
1000
0001
,
0010
0000
0100
0000
1000
0000
0001
0000
0010
0000
0100
0000
1000
0000
0001
0000
0100
0000
0010
0000
1000
0000
0001
0000
0100
0000
0010
0000
1000
0100
0010
0001
,
1000
0010
0100
0001
1000
0010
0100
0001
0010
0100
1000
0001
0010
0100
1000
0001
,
0100
0010
1000
0001
0100
0010
1000
0001
0010
0100
1000
0010
0100
0001
0010
0100
,
1000
0000
0000
0000
0001
0100
0010
1000
0100
0000
0000
0000
1000
0000
0000
0000
0001
0000
0000
0000
1000
0100
0010
0001
0100
0000
0000
0000
0001
0000
0000
0000
,
0100
0000
0000
0000
0001
0100
0010
1000
0100
0000
0000
0000
0010
0000
0000
0000
0001
0100
0010
1000
0100
0010
0001
1000
0010
1000
0001
0100
0010
1000
0100
0010
,
0001
0000
0000
0000
1000
0010
0100
0001
0010
0000
0000
0000
0001
0000
0000
0000
1000
0000
0000
0000
0001
0010
0100
1000
0010
0000
0000
0000
0100
0000
0000
0000
,
0001
0000
0000
0000
1000
0100
0010
0001
0100
0000
0000
0000
0001
0000
0000
0000
1000
0010
0100
0001
0010
0100
1000
0010
1000
0100
0010
0001
0100
0010
1000
0000
,
0001
0000
0100
0001
0100
0000
0010
1000
0010
0000
0100
0001
0100
0000
0010
1000
,
0010
0000
1000
0100
1000
0000
0001
0010
0001
0000
1000
0100
1000
0000
0001
0010
,
0001
0000
0100
0010
0100
0000
0001
1000
0001
0000
0100
0010
0100
0000
0001
1000
,
0001
0000
0000
0000
1000
0000
0010
0000
1000
0000
0000
0000
0001
0000
0010
0000
0001
0000
0000
0000
1000
0100
0010
0001
0100
0000
0000
0000
0001
0010
0100
1000
,
0010
0000
1000
0010
1000
0000
0001
0100
0001
0000
1000
0010
1000
0000
0001
0100
,
0001
0000
1000
0100
1000
0000
0001
0010
0001
0000
1000
0100
1000
0000
0001
0010
,
0001
0000
0010
0100
0010
0000
0001
1000
0001
0000
0010
0100
0010
0001
1000
0010
,
1000
0010
0100
0001
0010
0100
1000
0010
0100
0001
0010
0100
1000
0010
0100
0001
1000
0100
0010
0001
1000
0000
0010
0000
0100
0000
0001
0000
0100
0000
0010
0000
,
1000
0100
0010
0001
1000
0100
0010
0001
0100
0010
1000
0001
0100
0010
1000
0001
,
0010
0000
0100
0000
1000
0000
0001
0000
0010
0000
0100
0000
1000
0000
0001
0000
0100
0000
0010
0000
1000
0000
0001
0000
0100
0000
0010
0000
1000
0100
0010
0001
,
1000
0010
0100
0001
1000
0010
0100
0001
0010
0100
1000
0001
0010
0100
1000
0001
,
0100
0010
1000
0001
0100
0010
1000
0001
0010
0100
1000
0010
0100
0001
0010
0100
,
1000
0000
0000
0000
0001
0100
0010
1000
0100
0000
0000
0000
1000
0000
0000
0000
0001
0000
0000
0000
0100
0010
1000
0100
0010
0000
0000
0000
0001
0000
0000
0000
,
0100
0000
0000
0000
0010
1000
0100
0010
0001
0000
0000
0000
0100
0000
0000
0000
0001
0010
0100
1000
0010
0100
0001
0010
0100
1000
0010
1000
0100
0010
0001
0100
,
0010
0000
0000
0000
1000
0100
0010
0001
0100
0000
0000
0000
0001
0000
0000
0000
1000
0000
0000
0000
0001
0010
0100
1000
0010
0000
0000
0000
0100
0000
0000
0000
,
0001
0000
0000
0000
1000
0100
0010
0001
0100
0000
0000
0000
0001
0000
0000
0000
1000
0010
0100
0001
0010
0100
1000
0010
0100
0001
0010
0100
1000
0001
0100
0000
,
0010
0000
0100
0001
0100
0000
0010
1000
0010
0000
0100
0001
0100
0000
0010
1000
,
0010
0000
1000
0100
1000
0000
0001
0010
0001
0000
1000
0100
1000
0000
0001
0010
,
0001
0000
0100
0010
0100
0000
0001
1000
0001
0000
0100
0010
0100
0000
0001
1000
,
0001
0000
0000
0000
1000
0000
0010
0000
1000
0000
0000
0000
0001
0000
0010
0000
0001
0000
0000
0000
0100
0010
1000
0100
0010
0000
0000
0000
0001
0100
0010
1000
,
0100
0000
1000
0010
1000
0000
0001
0100
0001
0000
1000
0010
1000
0000
0001
0100
,
0001
0000
1000
0100
1000
0000
0001
0010
0001
0000
1000
0100
1000
0000
0001
0010
,
0001
0000
0010
0100
0010
0000
0001
1000
0001
0000
0010
0100
0010
0001
1000
0010
,
1000
0001
0010
0100
1000
0010
0100
0010
1000
0100
0010
0001
0100
0001
0010
0100
1000
0010
0100
0001
1000
0000
0010
0000
0100
0000
0001
0000
0100
0000
0010
0000
,
1000
0100
0010
0001
1000
0100
0010
0001
0100
0010
1000
0001
0100
0010
1000
0001
,
0010
0000
0100
0000
1000
0000
0001
0000
0010
0000
0100
0000
1000
0000
0001
0000
0100
0000
0010
0000
1000
0000
0001
0000
0100
0000
0010
0000
1000
0100
0010
0001
,
1000
0010
0100
0001
1000
0010
0100
0001
0010
0100
1000
0001
0010
0100
1000
0001
,
0100
0010
1000
0001
0100
0010
1000
0001
0010
0100
1000
0010
0100
0001
0010
0100
,
1000
0000
0000
0000
0010
0100
0001
0010
0100
0000
0000
0000
1000
0000
0000
0000
0001
0000
0000
0000
1000
0100
0010
0001
0100
0000
0000
0000
0001
0000
0000
0000
,
1000
0000
0000
0000
0010
1000
0100
0010
0001
0000
0000
0000
0100
0000
0000
0000
0001
0100
0010
1000
0100
0010
0001
1000
0010
1000
0001
0100
0010
1000
0100
0010
,
0001
0000
0000
0000
;
