#TITLE:Gloomy Spiral Mountain;
#SUBTITLE:(Banjo-Tooie);
#ARTIST:Rareware;
#TITLETRANSLIT:;
#SUBTITLETRANSLIT:;
#ARTISTTRANSLIT:;
#CREDIT:;
#BANNER:gsm.png;
#BACKGROUND:gsm-bg.png;
#LYRICSPATH:;
#CDTITLE:kykaCD.png;
#MUSIC:gloomy_spiral_mountain.mp3;
#OFFSET:-0.220;
#SAMPLESTART:37.012;
#SAMPLELENGTH:12.000;
#SELECTABLE:YES;
#BPMS:0.000=80.115,72.000=79.795,112.000=80.135;
#STOPS:;
#BGCHANGES:;
// cache tags:
#FIRSTBEAT:0.000;
#LASTBEAT:168.000;
#SONGFILENAME:Songs/toune 2/gloomy/gsm.sm;
#HASMUSIC:1;
#HASBANNER:1;
#MUSICLENGTH:132.231;
// end cache tags

//---------------dance-single - ----------------
#NOTES:
     dance-single:
     :
     Challenge:
     10:
     0.333,0.318,0.212,0.053,0.170,273.000,28.000,7.000,0.000,0.000:
1001
1010
1001
0011
,
0110
1001
1010
1001
,
0001
0000
0000
0000
0010
0000
0000
0100
1000
0000
0010
0000
0100
0000
0000
0000
,
0001
0000
0000
0010
0100
0000
1000
0000
0010
0000
0000
0000
1000
0000
0100
0000
,
1000
0000
0000
0000
0010
0000
0000
0100
0001
0000
0010
0000
0100
0000
1000
0000
,
0020
0000
0000
0000
0000
0000
0000
0000
0000
0030
0100
0000
0001
0000
0010
0000
,
0100
0000
0000
0000
1000
0000
0000
0010
0100
0000
0100
0000
1000
0000
0000
0000
,
0010
0000
0000
1000
0100
0000
0010
0000
0001
0000
0000
0000
0001
0000
0100
0000
,
0010
0000
0000
0000
1000
0000
0000
0100
1100
0000
0000
0000
0110
0000
0000
0000
,
0011
0000
0000
0100
1100
0000
0010
0000
0100
0000
0001
0000
0010
0000
0100
0000
,
1000
0000
0000
0000
0010
0000
0000
0100
0011
0000
0100
0000
0010
0000
0000
0000
,
0010
0000
0000
0000
0100
0000
0000
0001
0011
0000
0100
0000
0100
0000
0000
0000
,
1010
0000
0000
0000
0100
0000
0000
1000
0010
0000
0100
0000
0001
0000
0000
0000
,
0001
0000
0000
0000
0011
0000
0000
0100
1100
0000
0010
0000
0100
0000
0001
0000
,
0010
0000
0000
0000
1000
0000
0000
0001
0100
0000
1000
0000
0010
0000
0000
0000
,
0100
0000
0000
0001
0010
0000
0100
0000
1000
0000
0010
0000
0100
0000
0001
0000
,
0010
0000
0100
1000
0000
0001
1000
0000
0010
0000
0010
0001
0000
0100
0010
0000
,
0100
0000
0001
1000
0000
0010
1000
0000
0010
0000
1000
0000
0100
0000
0010
0000
,
1000
0000
0000
0000
0100
0000
0000
0010
0001
0000
0100
0000
0010
0000
0000
0000
,
1000
0000
0000
0100
0010
0000
0001
0000
0100
0000
0000
0000
0001
0000
0010
0000
,
0001
0000
0000
0000
0100
0000
0000
0010
1000
0000
0100
0000
0010
0000
0001
0000
,
0200
0000
0000
0000
0000
0000
0000
0000
0000
0300
0010
0000
1000
0000
0100
0000
,
0010
0000
0000
0000
0001
0000
0000
0100
0010
0000
0010
0000
0001
0000
0000
0000
,
0100
0000
0000
0001
0010
0000
0100
0000
1000
0000
0000
0000
1000
0000
0010
0000
,
0100
0000
0000
0000
0001
0000
0000
0010
0011
0000
0000
0000
0110
0000
0000
0000
,
1100
0000
0000
0010
0011
0000
0100
0000
0010
0000
1000
0000
0100
0000
0010
0000
,
0001
0000
0000
0000
0100
0000
0000
0010
1100
0000
0010
0000
0100
0000
0000
0000
,
0100
0000
0000
0000
0010
0000
0000
1000
1100
0000
0010
0000
0010
0000
0000
0000
,
0101
0000
0000
0000
0010
0000
0000
0001
0100
0000
0010
0000
1000
0000
0000
0000
,
1000
0000
0000
0000
1100
0000
0000
0010
0011
0000
0100
0000
0010
0000
1000
0000
,
0100
0000
0000
0000
0001
0000
0000
1000
0010
0000
0001
0000
0100
0000
0000
0000
,
0010
0000
0000
1000
0100
0000
0010
0000
0001
0000
0100
0000
0010
0000
1000
0000
,
0100
0000
0010
0001
0000
1000
0001
0000
0100
0000
0100
1000
0000
0010
0100
0000
,
1000
0000
0010
0100
0000
0001
0010
0000
0100
0000
1000
0000
0100
0000
0010
0000
,
0001
0000
0000
0010
0100
0000
1000
0000
0020
0000
0000
0000
0000
0000
0000
0030
,
0100
0000
0000
0001
0010
0000
0100
0000
2000
0000
0000
0000
0000
0000
0000
3000
,
0001
0000
0000
0100
0010
0000
0100
0000
0020
0000
0000
0000
0000
0000
0000
0030
,
0001
0010
0100
1000
0100
1000
0100
0010
,
0010
0000
0000
0100
0001
0000
0010
0000
0200
0000
0000
0000
0000
0000
0000
0300
,
1000
0000
0000
0010
0100
0000
0001
0000
0020
0000
0000
0000
0000
0000
0000
0000
,
0130
0000
0000
1000
0010
0000
0100
0000
0001
0000
0010
0000
0100
0000
1000
0000
,
0010
0000
0000
0100
0001
0000
0010
0000
0100
0000
1000
0000
1010
0000
0000
0000
,
1001
0000
0000
0000
;

//---------------dance-single - ----------------
#NOTES:
     dance-single:
     :
     Hard:
     9:
     0.318,0.318,0.106,0.053,0.170,273.000,14.000,7.000,0.000,0.000:
1001
0101
1001
1100
,
0110
1001
0101
1001
,
1000
0000
0000
0000
0100
0000
0000
0010
0001
0000
0100
0000
0010
0000
0000
0000
,
1000
0000
0000
0100
0010
0000
0001
0000
0100
0000
0000
0000
0001
0000
0010
0000
,
0001
0000
0000
0000
0100
0000
0000
0010
1000
0000
0100
0000
0010
0000
0001
0000
,
0200
0000
0000
0000
0000
0000
0000
0000
0000
0300
0010
0000
1000
0000
0100
0000
,
0010
0000
0000
0000
0001
0000
0000
0100
0010
0000
0010
0000
0001
0000
0000
0000
,
0100
0000
0000
0001
0010
0000
0100
0000
1000
0000
0000
0000
1000
0000
0010
0000
,
0100
0000
0000
0000
0001
0000
0000
0010
0001
0000
0000
0000
0010
0000
0000
0000
,
0100
0000
0000
0010
0001
0000
0100
0000
0010
0000
1000
0000
0100
0000
0010
0000
,
0001
0000
0000
0000
0100
0000
0000
0010
1000
0000
0010
0000
0100
0000
0000
0000
,
0100
0000
0000
0000
0010
0000
0000
1000
0100
0000
0010
0000
1000
0000
0000
0000
,
0101
0000
0000
0000
0010
0000
0000
0001
0100
0000
0010
0000
1000
0000
0000
0000
,
1000
0000
0000
0000
1100
0000
0000
0010
0001
0000
0100
0000
0010
0000
1000
0000
,
0100
0000
0000
0000
0001
0000
0000
1000
0010
0000
0001
0000
0100
0000
0000
0000
,
0010
0000
0000
1000
0100
0000
0010
0000
0001
0000
0100
0000
0010
0000
1000
0000
,
0100
0000
0010
0001
0000
1000
0001
0000
0100
0000
0100
0001
0000
0010
0100
0000
,
1000
0000
1000
0001
0000
0100
0001
0000
0100
0000
0001
0000
0010
0000
0100
0000
,
1000
0000
0000
0000
0010
0000
0000
0100
1000
0000
0010
0000
0100
0000
0000
0000
,
0001
0000
0000
0010
0100
0000
1000
0000
0010
0000
0000
0000
1000
0000
0100
0000
,
1000
0000
0000
0000
0010
0000
0000
0100
0001
0000
0010
0000
0100
0000
1000
0000
,
0020
0000
0000
0000
0000
0000
0000
0000
0000
0030
0100
0000
0001
0000
0010
0000
,
0100
0000
0000
0000
1000
0000
0000
0010
0100
0000
0100
0000
1000
0000
0000
0000
,
0010
0000
0000
1000
0100
0000
0010
0000
0001
0000
0000
0000
0001
0000
0100
0000
,
0010
0000
0000
0000
1000
0000
0000
0100
1000
0000
0000
0000
0100
0000
0000
0000
,
0001
0000
0000
0100
1000
0000
0010
0000
0100
0000
0001
0000
0010
0000
0100
0000
,
1000
0000
0000
0000
0010
0000
0000
0100
0001
0000
0100
0000
0010
0000
0000
0000
,
0010
0000
0000
0000
0100
0000
0000
0001
0010
0000
0100
0000
0100
0000
0000
0000
,
1010
0000
0000
0000
0100
0000
0000
1000
0010
0000
0100
0000
0001
0000
0000
0000
,
0001
0000
0000
0000
0011
0000
0000
0100
1000
0000
0010
0000
0100
0000
0001
0000
,
0010
0000
0000
0000
1000
0000
0000
0001
0100
0000
1000
0000
0010
0000
0000
0000
,
0100
0000
0000
0001
0010
0000
0100
0000
1000
0000
0010
0000
0100
0000
0001
0000
,
0010
0000
0100
1000
0000
0001
1000
0000
0010
0000
0010
1000
0000
0100
0010
0000
,
0001
0000
0100
0010
0000
1000
0100
0000
0010
0000
0001
0000
0010
0000
0100
0000
,
1000
0000
0000
0100
0010
0000
0001
0000
0200
0000
0000
0000
0000
0000
0000
0300
,
0010
0000
0000
1000
0100
0000
0010
0000
0002
0000
0000
0000
0000
0000
0000
0003
,
1000
0000
0000
0010
0100
0000
0010
0000
0200
0000
0000
0000
0000
0000
0000
0300
,
1000
0100
0010
0001
0010
0001
0010
0100
,
1000
0000
0000
0010
1000
0000
0100
0000
0020
0000
0000
0000
0000
0000
0000
0030
,
0001
0000
0000
0100
0010
0000
1000
0000
0200
0000
0000
0000
0000
0000
0000
0000
,
0310
0000
0000
0001
0100
0000
0010
0000
1000
0000
0100
0000
0010
0000
0001
0000
,
0100
0000
0000
0010
1000
0000
0100
0000
0010
0000
0001
0000
0101
0000
0000
0000
,
1001
0000
0000
0000
;

//---------------dance-single - ----------------
#NOTES:
     dance-single:
     :
     Medium:
     7:
     0.241,0.270,0.068,0.053,0.113,207.000,9.000,7.000,0.000,0.000:
0110
0011
1010
1001
,
0011
0110
1001
1010
,
0010
0000
0000
0000
0001
0000
0000
0100
1000
0000
0000
0000
0100
0000
0000
0000
,
0010
0000
0000
0001
0100
0000
0000
0000
0001
0000
0000
0000
1000
0000
0000
0000
,
1000
0000
0000
0000
0001
0000
0000
0100
0010
0000
0000
0000
0100
0000
1000
0000
,
0002
0000
0000
0013
,
0100
0000
0000
0000
1000
0000
0000
0001
0100
0000
0000
0000
1000
0000
0000
0000
,
0001
0000
0000
1000
0100
0000
0000
0000
0010
0000
0000
0000
0010
0000
0000
0000
,
0001
1000
1000
0100
,
0001
0000
0000
0100
1000
0000
0001
0000
0100
0000
0000
0000
0001
0000
0100
0000
,
1000
0000
0000
0000
0001
0000
0000
0100
0001
0000
0000
0000
0001
0000
0000
0000
,
0001
0000
0000
0000
0100
0000
0000
0010
0001
0000
0000
0000
0100
0000
0000
0000
,
1000
0000
0000
0000
0100
0000
0000
1000
0001
0000
0000
0000
0010
0000
0000
0000
,
0010
0000
0000
0000
0001
0000
0000
0100
1000
0000
0000
0000
0100
0000
0010
0000
,
0001
0000
0000
0000
1000
0000
0000
0010
0100
0000
0000
0000
0001
0000
0000
0000
,
0100
0000
0000
0010
0001
0000
0100
0000
1000
0000
0000
0000
0100
0000
0010
0000
,
0001
0000
0000
1000
0000
0000
1000
0000
0001
0000
0000
0010
0000
0000
0001
0000
,
0100
0000
0010
0000
0001
1000
0100
0000
,
0001
0000
0000
0000
1000
0000
0000
0010
0100
0000
0000
0000
0010
0000
0000
0000
,
0001
0000
0000
1000
0010
0000
0000
0000
1000
0000
0000
0000
0100
0000
0000
0000
,
0100
0000
0000
0000
1000
0000
0000
0010
0001
0000
0000
0000
0010
0000
0100
0000
,
2000
0000
0000
3001
,
0010
0000
0000
0000
0100
0000
0000
1000
0010
0000
0000
0000
0100
0000
0000
0000
,
1000
0000
0000
0100
0010
0000
0000
0000
0001
0000
0000
0000
0001
0000
0000
0000
,
1000
0100
0100
0010
,
1000
0000
0000
0010
0100
0000
1000
0000
0010
0000
0000
0000
1000
0000
0010
0000
,
0100
0000
0000
0000
1000
0000
0000
0010
1000
0000
0000
0000
1000
0000
0000
0000
,
1000
0000
0000
0000
0010
0000
0000
0001
1000
0000
0000
0000
0010
0000
0000
0000
,
0100
0000
0000
0000
0010
0000
0000
0100
1000
0000
0000
0000
0001
0000
0000
0000
,
0001
0000
0000
0000
1000
0000
0000
0010
0100
0000
0000
0000
0010
0000
0001
0000
,
1000
0000
0000
0000
0100
0000
0000
0001
0010
0000
0000
0000
1000
0000
0000
0000
,
0010
0000
0000
0001
1000
0000
0010
0000
0100
0000
0000
0000
0010
0000
0001
0000
,
1000
0000
0000
0100
0000
0000
0100
0000
1000
0000
0000
0001
0000
0000
1000
0000
,
0010
0000
0001
0000
1000
0100
0010
1000
,
0001
0000
0000
0000
0100
0000
0000
0000
0002
0000
0000
0000
0000
0000
0000
0003
,
0100
0000
0000
0000
0001
0000
0000
0000
2000
0000
0000
0000
0000
0000
0000
3000
,
0010
0000
0000
0000
0001
0000
0000
0000
0002
0000
0000
0000
0000
0000
0000
0003
,
0010
0100
0100
0100
,
0001
0000
0000
0000
0010
0000
0000
0000
0200
0000
0000
0000
0000
0000
0000
0300
,
1000
0100
0002
0000
,
1003
0000
0000
0010
0001
0000
0000
0000
0010
0000
0001
0000
0100
0000
0000
0000
,
0001
0000
0000
0100
0010
0000
0000
0000
0100
0000
1000
0000
0100
0000
0000
0000
,
1010
0000
0000
0000
;

//---------------dance-single - ----------------
#NOTES:
     dance-single:
     :
     Easy:
     4:
     0.177,0.159,0.008,0.053,0.000,156.000,1.000,7.000,0.000,0.000:
0001
0001
0001
0001
,
1000
1000
1000
1000
,
0010
1000
0100
0001
,
0010
0001
1000
0100
,
0100
1000
0010
0001
,
2000
0000
0000
3010
,
0001
0100
0001
0100
,
1000
0001
0010
0010
,
1000
0100
0100
0001
,
1000
0100
0001
1000
,
0100
1000
1000
1000
,
1000
0001
1000
0001
,
0100
0001
1000
0010
,
0010
1000
0100
0001
,
1000
0100
0001
1000
,
0001
1000
0100
0001
,
1000
0000
1000
0000
,
0001
0010
1000
0001
,
1000
0100
0001
0010
,
1000
0010
0100
0001
,
0001
0100
1000
0010
,
0200
0000
0000
1300
,
0010
0001
0010
0001
,
0100
0010
1000
1000
,
0100
0001
0001
0010
,
0100
0001
0010
0100
,
0001
0100
0100
0100
,
0100
0010
0100
0010
,
0001
0010
0100
1000
,
1000
0100
0001
0010
,
0100
0001
0010
0100
,
0010
0100
0001
0010
,
0100
0000
0100
0000
,
0010
1000
0100
0010
,
1000
0000
0000
0000
0001
0000
0000
0000
2000
0000
0000
0000
0000
0000
0000
3000
,
0001
0000
0000
0000
1000
0000
0000
0000
0200
0000
0000
0000
0000
0000
0000
0300
,
0010
0000
0000
0000
1000
0000
0000
0000
2000
0000
0000
0000
0000
0000
0000
3000
,
0010
0001
0001
0001
,
1000
0000
0000
0000
0010
0000
0000
0000
0002
0000
0000
0000
0000
0000
0000
0003
,
0100
0001
2000
0000
,
3100
1000
0010
0001
,
1000
0010
0001
0001
,
0110
0000
0000
0000
;

//---------------dance-single - ----------------
#NOTES:
     dance-single:
     :
     Beginner:
     1:
     0.116,0.143,0.053,0.000,0.000,100.000,7.000,0.000,0.000,0.000:
1000
1000
1000
1000
,
0001
0001
0001
0001
,
0100
0000
0010
0000
,
1000
0100
0010
0000
,
0001
0000
0100
0010
,
1000
0000
0000
0000
,
0001
0000
0100
0000
,
0010
1000
0010
0000
,
0100
0000
0001
0000
,
1000
0001
0100
0001
,
0010
0000
0001
0000
,
0100
0000
0010
0000
,
1000
0000
0010
0000
,
0100
0000
0001
0000
,
1000
0000
0100
0000
,
0010
0000
0001
0000
,
0100
0000
0010
0000
,
1000
0000
0100
0000
,
0010
0000
0100
0000
,
0001
0010
0100
0000
,
1000
0000
0010
0100
,
0001
0000
0000
0000
,
1000
0000
0010
0000
,
0100
0001
0100
0000
,
0010
0000
1000
0000
,
0001
1000
0010
1000
,
0100
0000
1000
0000
,
0010
0000
0100
0000
,
0001
0000
0100
0000
,
0010
0000
1000
0000
,
0001
0000
0010
0000
,
0100
0000
1000
0000
,
0010
0000
0100
0000
,
0001
0000
0010
0000
,
0100
0000
1100
0000
,
0010
0000
0011
0000
,
0100
0000
0110
0000
,
1000
0001
1000
0001
,
0100
0000
0110
0000
,
0010
0000
1010
0000
,
1000
0000
1001
0000
,
0001
0000
0100
0001
,
1001
0000
0000
0000
;
