#TITLE:Am I Awake;
#SUBTITLE:;
#ARTIST:They Might Be Giants;
#TITLETRANSLIT:;
#SUBTITLETRANSLIT:;
#ARTISTTRANSLIT:;
#CREDIT:;
#BANNER:Am I Awake.png;
#BACKGROUND:Am I Awake-bg.png;
#LYRICSPATH:;
#CDTITLE:;
#MUSIC:Am I Awake.mp3;
#OFFSET:0.000;
#SAMPLESTART:34.260;
#SAMPLELENGTH:12.000;
#SELECTABLE:YES;
#BPMS:0.000=160.000,112.000=80.000,132.000=100.000,133.000=110.000,134.000=120.000,144.000=160.000,176.000=80.000,204.000=160.000;
#STOPS:;
#BGCHANGES:;
// cache tags:
#FIRSTBEAT:8.000;
#LASTBEAT:204.500;
#SONGFILENAME:Songs/Chaomix Pack One/Am I Awake/Am I Awake.sm;
#HASMUSIC:1;
#HASBANNER:1;
#MUSICLENGTH:100.838;
// end cache tags

//---------------dance-single - E. Holniker----------------
#NOTES:
     dance-single:
     E. Holniker:
     Beginner:
     1:
     0.132,0.228,0.010,0.000,0.000,92.000,1.000,0.000,0.000,0.000:


0000
0000
0000
0000
,
0000
0000
0000
0000
,
0000
0000
0000
0000
,
0000
0000
0000
0000
,
0000
0000
0000
0000
,
0000
0000
0000
0000
,
1000
0000
0010
0000
,
1000
0000
0000
0000
,
0100
0000
0010
0000
,
0100
0000
0000
0000
,
1000
0000
0001
0000
,
1000
0000
0000
0000
,
0010
0000
0100
0000
,
0010
0000
0000
0000
,
1000
0000
0100
0000
,
1000
0000
0000
0000
,
0001
0000
0001
0000
,
0001
0000
0000
0000
,
0100
0000
0100
0000
,
0100
0000
0000
0000
,
1000
0000
1000
0000
,
1000
0000
0000
0000
,
0010
0000
0010
0000
,
0010
0000
0000
0000
,
1000
0000
0100
0000
,
1000
0000
0000
0000
,
0001
0000
1000
0000
,
0001
0000
0000
0000
,
1000
0010
1000
0000
,
0001
0100
0010
0000
,
1000
0100
1000
0000
,
0010
0010
0010
0000
,
0100
0100
0100
0000
,
1000
0000
0000
0001
,
0000
0000
1000
0000
,
0000
0001
0000
0000
,
1000
0000
0010
0000
,
0100
0000
0000
0000
,
0001
0000
1000
0000
,
0010
0000
0000
0000
,
1000
0000
0100
0000
,
0010
0000
0000
0000
,
1000
0000
0001
0000
,
1000
0000
0000
0000
,
1000
1000
1000
1000
,
0010
0010
0010
0010
,
0001
0001
0001
0001
,
0100
0100
0100
0100
,
1000
1000
0010
0010
,
0001
0001
0100
0100
,
1000
1000
0010
0000
,
1001
0000
0000
0000
;

//---------------dance-single - E. Holniker----------------
#NOTES:
     dance-single:
     E. Holniker:
     Challenge:
     10:
     0.494,0.580,0.129,0.476,0.238,288.000,13.000,48.000,0.000,16.000:








0000
0000
0000
0000
,
0000
0000
0000
0000
,
1000
1010
0100
0101
,
1000
0000
1000
0010
0100
0000
0100
0001
,
0100
0000
0100
0010
1000
0000
1000
0100
,
0010
0000
0010
0001
0010
0000
0010
0100
,
1000
0000
1010
0000
0101
0000
0100
0001
,
1000
0000
0000
0010
1000
0000
0000
1000
,
0001
0100
0000
0010
1000
0000
0100
0000
,
0020
0000
0002
0100
,
2033
0000
0000
0000
,
0200
3300
2000
0200
,
0010
0000
0000
3300
0002
0000
0020
0000
,
0100
0000
0000
0000
0000
0000
0000
0033
2000
0000
0000
0000
0000
0000
0000
0000
,
0020
0000
0000
0000
0001
0000
0000
0000
0001
0000
0000
3030
0000
0000
0000
0000
,
0002
0000
2000
3003
,
0010
1000
0010
1000
0010
0000
0001
0000
0010
0000
0100
0000
0010
0001
0010
0001
,
0010
0000
0100
0000
0010
0000
1000
0000
0100
0010
0100
0010
0100
0000
1000
0000
,
0001
0000
0100
0000
0001
0010
0001
0010
0001
0000
0010
0000
1000
0000
0100
0000
,
0010
0100
0010
0100
0010
0000
0100
0000
0010
0000
0001
0000
0100
0010
0100
0010
,
0100
0000
0010
0000
1000
0000
0100
0000
0010
0100
1000
0100
0010
0000
0100
0000
,
0010
0001
0010
0100
0010
1000
0010
0000
,
0101
1100
0110
0101
,
1000
0010
1000
0001
0100
0010
0001
0000
,
1010
0100
0010
0001
0010
0100
1000
0010
,
0200
0300
0002
0003
0020
0030
0200
0300
,
2000
3000
0200
0300
0020
0030
0001
0000
,
2002
0000
0000
0000
0010
0000
3003
0010
,
0100
0000
0000
0000
0000
0001
0000
0010
0000
0000
0000
0000
0000
0001
0000
0010
0000
0000
0000
0000
0000
1000
0000
0100
0000
0000
0000
0000
0000
0010
0000
0001
,
0000
0000
0000
0000
0000
0100
0000
1000
0000
0000
0000
0000
0000
0100
0000
0010
0000
0000
0000
0000
0000
0001
0000
0100
0000
0000
0000
0000
0000
1000
0000
0100
,
0000
0000
0000
0000
0000
0010
0000
0100
0000
0000
0000
0000
0001
0000
0000
0000
1000
0000
0000
0000
0100
0000
0000
0000
0010
0000
0000
0000
0001
0000
0000
0000
,
1000
0010
1000
0010
0200
0000
2000
0000
,
0001
3300
0100
0000
0010
0001
2200
0000
,
0000
3300
0002
0003
0020
0000
0200
0000
,
1000
1000
0001
0001
,
1000
0000
0030
0000
2000
0000
0000
0000
0001
0000
0000
0000
0000
3300
0000
0000
,
1000
0100
1000
0100
0010
0000
0001
0000
0010
0000
0001
0000
0100
0010
0100
0010
,
1000
0000
0100
0000
1000
0000
0100
0000
0010
0100
0010
0100
0001
0000
0010
0000
,
0100
0000
1000
0000
0100
1000
0100
1000
0010
0000
0001
0000
0010
0000
1000
0000
,
0100
0000
0010
0000
0001
0000
0010
0000
0100
0000
1000
0100
1000
0100
1000
0000
,
0100
0010
0001
0010
0100
1000
1001
0000
,
2002
0000
0000
0000
0000
0000
0000
3003
,
0200
2300
3020
0230
,
0301
1000
0010
0100
0010
0001
0010
0100
,
2000
3020
0230
0302
,
1003
0100
1000
0100
0020
0000
0000
0000
,
0032
0000
0200
0003
0320
0000
0230
0300
,
1000
0100
0010
0002
0020
0000
1000
0033
,
1000
0000
0000
0000
0100
0000
0000
0000
1000
0000
0000
0000
0100
0000
0000
0000
0010
0000
0000
0000
0001
0000
0000
0000
0010
0000
0000
0000
0000
0100
0000
0010
,
0000
0000
0000
0000
0000
0010
0000
1000
0000
0000
0000
0000
0000
1000
0000
0100
0000
0000
0000
0000
0001
0000
0000
0000
1000
0000
0000
0000
0020
0000
0000
0000
,
2000
0000
0000
0000
0001
0000
0000
3030
;

//---------------dance-single - E. Holniker----------------
#NOTES:
     dance-single:
     E. Holniker:
     Hard:
     8:
     0.334,0.431,0.119,0.496,0.000,174.000,12.000,50.000,0.000,18.000:





0000
0000
0000
0000
,
0000
0000
0000
0000
,
1000
0000
0010
0000
,
0100
0000
1000
0000
,
0010
0010
0100
0100
,
1000
1000
0001
0001
,
1100
1010
0011
0101
,
2020
0000
0000
3030
,
1000
0100
0010
0001
,
0022
0000
0000
0000
0000
0033
0000
0000
,
1000
0100
1000
0100
,
2020
0000
0000
3000
0030
0000
0000
0000
,
0100
0100
0010
0010
,
1000
1000
0100
0100
,
1000
0100
1000
0001
,
0020
0000
0000
0030
,
1000
0100
1000
0100
,
1000
0100
0010
0100
0001
0000
0100
0000
,
1000
0010
0100
0010
,
0001
0010
1000
0100
0010
0000
0100
0000
,
1000
0001
0100
0010
,
1000
0010
0100
0010
0001
0000
0010
0000
,
2000
0000
0000
3000
0200
0000
0000
0000
,
0320
0000
0000
0030
0002
0000
0000
0000
,
1003
0010
1000
0010
,
0100
0100
0010
0010
,
1000
1000
0100
0100
,
2020
0000
0000
3030
,
2000
3020
0230
0302
,
2003
3020
0230
0302
,
2003
0000
3200
0000
0320
0032
0023
0230
,
2300
3000
0000
0200
,
2300
0000
3000
0000
0020
0000
0230
0300
,
2000
0000
0000
0200
0000
0000
0020
0000
,
0000
0002
0000
0033
0020
0000
0300
0230
,
0000
3000
0000
0000
0300
0000
0000
0000
,
1000
0010
0100
0001
,
1000
0100
0001
0100
,
0010
0010
1000
0001
,
0100
1000
0010
0100
,
0001
1000
0100
0010
,
0100
1000
0100
0010
0100
0000
0010
0000
,
0001
1000
0010
1000
,
0010
0100
0001
1000
,
2200
0010
0010
3310
,
0202
0000
0010
0000
0010
0000
0010
0303
,
0022
0000
1000
0000
1000
0000
1000
0033
,
2020
0001
0001
3031
,
2000
0100
0010
0001
,
3020
0000
1000
0000
0100
0000
0001
0030
,
0200
0000
2000
0010
,
0001
3300
0000
0000
0000
0000
0000
0000
;

//---------------dance-single - E. Holniker----------------
#NOTES:
     dance-single:
     E. Holniker:
     Medium:
     4:
     0.356,0.429,0.030,0.823,0.000,165.000,3.000,83.000,0.000,1.000:

0000
0000
0000
0000
,
0000
0000
0000
0000
,
1000
0000
0010
0000
,
0100
0000
0001
0000
,
1000
0100
1000
0100
,
0010
0010
0100
0100
,
1000
0010
1000
0010
,
1010
0000
0000
0000
,
0100
0010
0100
0010
,
0200
0000
0000
0000
0000
0300
0000
0000
,
1000
0100
1000
0100
,
2000
0000
0000
0000
0000
3000
0000
0000
,
0010
0100
1000
0010
,
0100
0000
0002
0000
1000
0000
1000
0003
,
0020
1030
0100
0010
,
0002
1000
1000
0023
,
2000
0030
3200
0000
0320
0000
0032
0000
,
0023
0230
2300
3020
,
0130
0200
2300
3200
,
0320
0230
0302
0203
,
2300
3010
0200
0301
,
2002
0000
3003
0000
,
1000
1000
0100
0100
,
0010
0001
1000
0010
,
0100
0001
1000
0010
,
0100
0100
0001
0001
,
1000
0010
1000
0100
,
2200
0000
0000
0000
0000
0000
0000
3300
,
0002
0203
0320
2030
,
3200
2300
3020
0230
,
0302
2003
3020
0230
,
2300
3200
0320
0032
,
0023
0230
2300
3020
,
0230
0000
0000
0302
0000
0000
2000
0000
,
0020
3003
0000
0030
0200
0000
0000
0300
,
0002
0000
2000
0003
0000
0000
3000
0000
,
1000
0100
0010
0001
,
0010
0100
1000
0010
,
0100
0001
1000
0100
,
0010
0100
0001
0010
,
0100
1000
0010
0001
,
1000
0000
0001
0000
0100
0000
0010
2000
,
0020
0000
0000
3030
,
0000
0000
0000
0000
,
2000
3200
0320
0032
,
0023
0230
0320
0230
,
2300
3200
2300
3020
,
0230
0302
2003
3020
,
2030
3200
0320
0032
,
0203
2300
3020
0032
,
0203
0000
2300
0000
3020
0000
0000
0030
;

//---------------dance-single - E. Holniker----------------
#NOTES:
     dance-single:
     E. Holniker:
     Easy:
     2:
     0.186,0.228,0.000,0.109,0.000,120.000,0.000,11.000,0.000,0.000:

0000
0000
0000
0000
,
0000
0000
0000
0000
,
1000
0000
0000
0000
,
0001
0000
0000
0000
,
0100
0000
0000
0000
,
0010
0000
0000
0000
,
1000
1000
0100
0100
,
0010
0000
0000
0000
,
1000
0010
1000
0010
,
0100
0000
0000
0000
,
0001
1000
0001
1000
,
0010
0000
0000
0000
,
1000
0100
0010
0100
,
0010
0000
0001
0000
,
1000
0010
0100
0010
,
1000
0000
0100
0000
,
0001
0100
0010
0100
,
1000
0010
0100
0000
,
0001
1000
0100
0010
,
0100
1000
0010
0000
,
0100
0001
1000
0100
,
0010
0100
0010
0000
,
0001
0000
1000
0000
,
0010
0000
0100
0000
,
0001
0000
1000
0000
,
0010
0000
1000
0000
,
0100
0000
0010
0000
,
0200
0000
0000
0300
,
1000
0010
0100
0001
,
1000
0100
1000
0100
,
0010
0001
0010
0100
,
1000
0010
0100
0001
,
1000
0100
1000
1000
,
0100
0000
0000
1000
,
0000
0000
0010
0000
,
0000
0100
0000
0000
,
1000
0000
0100
0000
,
1000
0000
0100
0000
,
0010
0000
0001
0000
,
0010
0000
0001
0000
,
0010
0000
0100
0000
,
0010
0000
0100
0000
,
1000
0000
1000
0000
,
0010
0000
0010
0000
,
0002
0000
0203
0000
,
0320
0000
2030
0000
,
3200
0000
0320
0000
,
0032
0000
2003
3000
,
0010
1000
0010
1000
,
0001
0100
0010
2000
,
0200
0000
0000
0000
,
3300
0000
0000
0000
;
