#TITLE:What Lies Beyond;
#SUBTITLE:Legend of the Bone Carver (2006);
#ARTIST:Pyramaze;
#TITLETRANSLIT:;
#SUBTITLETRANSLIT:;
#ARTISTTRANSLIT:;
#CREDIT:SulferDragon;
#BANNER:whatliesbeyond-bn.png;
#BACKGROUND:whatliesbeyond-bg.png;
#LYRICSPATH:;
#CDTITLE:!SulferDragon.png;
#MUSIC:03 - What Lies Beyond.mp3;
#OFFSET:-1.105;
#SAMPLESTART:40.555;
#SAMPLELENGTH:15.000;
#SELECTABLE:YES;
#BPMS:0.000=97.000,32.000=194.000,60.000=97.000,76.000=194.000,224.000=97.000,286.000=194.000;
#STOPS:286.000=0.620
;
#BGCHANGES:;
// cache tags:
#FIRSTBEAT:0.000;
#LASTBEAT:499.500;
#SONGFILENAME:Songs/Astronomic Metal Collection 2/(SulferDragon) What Lies Beyond/03 - What Lies Beyond.sm;
#HASMUSIC:1;
#HASBANNER:1;
#MUSICLENGTH:192.862;
// end cache tags

//---------------dance-single - ----------------
#NOTES:
     dance-single:
     :
     Hard:
     12:
     1.000,1.000,1.000,0.119,1.000,1201.000,330.000,23.000,0.000,0.000:
2000
0000
0000
0000
,
3200
0000
0000
0000
,
0320
0000
0000
0000
,
0032
0000
0000
0000
,
0103
0010
0100
0000
0010
0000
1000
0000
0011
0000
0001
0000
0000
0000
0000
0000
0100
0010
0100
0000
0010
0000
1000
0000
0011
0000
0001
0000
0000
0000
0000
0000
,
0100
0010
0100
0000
0010
0000
1000
0000
0011
0000
0001
0000
0000
0000
0000
0000
0100
0010
0100
0000
0010
0000
1000
0000
0011
0000
0001
0000
0000
0000
0000
0000
,
0010
1000
0010
0000
1000
0000
0001
0000
1100
0000
0100
0000
0000
0000
0000
0000
0010
1000
0010
0000
1000
0000
0001
0000
1100
0000
0100
0000
0000
0000
0000
0000
,
0010
1000
0010
0000
1000
0000
0001
0000
1100
0000
0100
0000
0000
0000
0000
0000
0010
1000
0010
0000
1000
0000
0001
0000
1100
0000
0010
0000
1100
0000
1001
0000
,
0000
0000
0100
0001
1100
0000
0001
1000
0001
0000
1000
0100
1001
0000
0010
0100
,
0010
0000
0100
0001
1100
0000
0010
1000
0010
0000
1000
0010
1000
0010
1001
0000
,
0000
0000
0100
0001
1100
0000
0001
1000
0001
0000
1000
0100
1001
0000
0010
0100
,
0010
0000
1000
0010
1100
0000
0001
0010
0001
0000
0100
0001
0100
0001
1100
0000
,
0000
0000
0010
0100
0011
0000
1000
0010
1000
0000
0001
0010
0101
0000
1000
0001
,
1000
0000
0010
1000
0011
0000
0100
0010
0100
0000
0001
0010
0001
0010
1001
0000
,
0000
0000
0100
1000
0101
0000
1000
0001
1000
0000
0010
1000
0011
0000
0100
0001
,
1100
0000
0000
0000
0000
0000
1010
0000
0000
0000
0000
0000
0110
0000
0000
0000
0101
0000
0000
0000
0001
0000
1000
0100
0011
0000
0011
0000
1100
0000
0000
0000
,
0001
0000
1000
1000
0101
1000
0001
0010
1010
0000
1000
0001
1010
1010
0100
0000
,
0001
0000
0000
0000
1000
0000
0001
0000
1010
0000
1010
0000
0000
0000
0100
0000
0011
0000
0000
0000
0001
0000
0100
0010
1001
0000
1001
0000
0010
0000
0000
0000
,
0001
0000
1000
1000
0101
0010
0001
0000
1001
0000
1000
0001
1010
0000
0100
0000
,
1001
0000
0010
1000
0001
0000
0100
0000
0001
0000
0100
0010
0100
0010
0100
0010
,
1000
0000
0010
0000
1010
0000
0010
0000
1000
0010
1000
0000
0011
0000
0100
0001
,
0100
0000
0001
0000
1100
0010
1000
0000
0001
0100
0001
0000
1100
0000
0011
0000
,
0000
0000
0100
0000
0101
0000
0100
0000
0001
0100
0001
0000
1100
0000
0010
1000
,
0010
0000
0100
0000
1001
0010
0001
0000
1000
0100
1000
0000
0011
0000
1100
0000
,
0000
0000
0001
0000
0101
0000
0001
0000
1000
0001
1000
0000
0011
0000
0100
0010
,
0100
0000
0010
0000
1001
0100
1000
0000
0001
0010
0001
0000
1100
0000
0011
0000
,
0000
0000
0100
0001
1100
0000
0001
0000
1000
0000
1000
0000
1010
0000
0101
0000
,
0000
0000
0100
0001
1100
0000
0010
0000
1000
0000
0001
0000
1100
0000
0011
0000
,
0000
0000
1000
0000
1001
0000
1000
0000
0011
1000
0001
0000
1100
0000
0010
0100
,
0010
0000
1000
0000
0101
1000
0100
0000
1010
0001
1000
0000
0011
0000
1100
0000
,
0000
0000
0010
0000
0110
0000
0010
0000
1001
0010
1000
0000
0101
0000
0010
0001
,
1010
0000
0001
0000
0110
0001
1100
0000
0010
1000
0010
0000
1100
0000
0011
0000
,
0000
0000
0100
0000
0101
0000
0100
0000
1010
0100
0010
0000
1100
0000
0001
1000
,
0001
0000
0100
0000
0011
0100
0001
0000
1100
0010
1000
0000
0011
0000
1100
0000
,
0000
0000
0001
1000
0101
0000
1000
0000
0011
0000
0001
0000
1001
0000
0010
0000
,
1100
0000
0010
0000
1010
0000
0010
0000
1000
0000
0101
0010
1001
0000
0110
0000
,
1010
0001
0010
0100
0010
1100
0000
0010
,
0000
0000
1000
0000
0101
0000
1000
0001
0010
0000
1001
0000
0100
0000
1000
0000
,
0000
0001
1010
0100
0010
1100
0000
0010
,
0000
0000
1000
0000
0101
0000
1000
0001
0010
0000
1001
0000
0100
0000
1000
0000
,
0000
0001
1010
0100
0010
1100
0000
0010
,
0000
1000
0101
1000
0010
1001
0100
1000
,
0001
0010
0101
1000
0100
0010
1100
0001
,
0000
0000
0100
0000
1010
0000
0001
0000
0000
0000
0010
0001
0100
0001
1000
0001
,
1010
0100
0001
1000
0010
1000
0100
1000
0010
0001
1100
0001
1000
0100
0010
0001
,
0010
0100
1000
0010
0101
0010
1000
0001
0010
0100
1001
0100
0010
0001
1000
0001
,
1000
0100
0010
0100
1010
0001
0100
0001
0010
0001
1100
0010
1000
0100
0010
0100
,
1000
0001
1000
0010
0101
0010
1000
0001
0010
0100
1001
0100
0010
0001
1000
0100
,
0010
0100
0001
0100
1010
0001
0100
0001
0010
0001
1100
0010
1000
0001
0010
0001
,
0100
0010
1000
0010
0101
0010
1000
0100
0010
0100
1001
0010
0100
0010
1000
0100
,
0001
0100
0010
1000
0101
0010
1000
0010
0100
0001
0010
0001
1100
0010
1000
0010
,
0100
0001
0100
0001
1010
0100
1000
0001
1000
0100
0010
1001
0110
1001
0110
1001
,
0110
0110
1010
0110
0000
0110
0110
0101
,
0000
0000
0110
0000
0110
0000
1010
0000
0000
0000
1010
0100
1010
0000
0000
0000
,
0110
0110
1010
0110
0000
0110
0110
0101
,
1000
0000
0110
0000
0101
0000
1000
0000
0010
0000
0100
0010
0101
0000
1000
0000
0100
0000
0010
0000
0001
0000
0010
0000
,
1100
0000
0000
0000
0000
0000
0000
0000
0000
0001
0000
0000
0000
0000
0000
0000
0000
0000
0100
0000
0000
0001
0000
0000
1010
0000
0000
0000
0000
0000
0000
0000
0000
1001
0000
0000
0000
0000
0000
0000
0000
0000
0010
0000
1000
0000
0001
0000
,
0100
0000
0000
0000
0000
0000
1000
0000
0000
0000
0000
0000
0010
0000
0100
0010
1001
0000
0000
0000
0000
0000
0101
0000
0000
0000
0000
0000
1010
0000
0000
0000
,
1100
0000
0000
0001
0000
0000
0100
0001
1010
0000
0000
1100
0000
0000
0011
0000
,
0110
0000
0000
1000
0000
0001
0010
1000
0101
0000
0000
0110
0000
1100
1010
0000
,
1100
0000
0000
0001
0000
0000
0100
0001
1010
0000
0000
1001
0000
0000
1010
0000
,
1100
0000
0000
0000
0000
0000
1000
0000
0000
0000
0000
0000
0010
0000
1000
0100
0011
0000
0000
0000
0000
0000
0110
0000
0000
0000
0000
0000
1010
0000
0000
0000
,
1100
0000
0000
0001
0000
0000
0100
0001
1010
0000
0000
1001
0000
0000
1010
0000
,
1100
0000
0000
0000
0000
0000
0000
0000
0000
0000
0000
0000
1000
0000
0000
0000
0000
0000
0000
0000
1100
0000
0000
0000
0010
0000
0000
0000
1000
0000
0001
0000
0110
0000
0000
0000
0000
0000
0000
0000
0100
0000
0000
0000
0001
0000
0000
0000
0100
0000
0000
0000
0010
0000
0000
0000
1000
0001
0000
0000
0010
0000
0000
0000
,
1100
0000
0000
0101
0000
0000
1100
0000
0110
0000
0000
1000
0000
0000
0010
0000
,
0100
0000
0000
0000
0000
0000
0000
0000
0000
1000
0000
0000
0000
0000
0000
0000
0000
0000
0010
0000
1000
0000
0100
0000
0011
0000
0000
0000
0000
0000
0000
0000
0000
0101
0000
0000
0000
0000
0000
0000
0000
0000
1100
0000
0000
0000
0000
0000
,
1010
0000
0000
0101
0000
0000
1100
0000
0110
0000
0000
1000
0000
0000
0010
1000
,
0100
0000
0000
0000
0000
0000
0000
0000
0000
0000
0000
0000
1000
0000
0000
0000
0000
0000
0000
0000
0000
0000
0000
0000
0010
0000
0000
0000
0001
0000
0010
0000
1100
0000
0000
0000
0000
0000
0000
0000
0000
0000
0000
0000
0110
0000
0000
0000
0000
0000
0000
0000
1100
0000
0000
0000
1010
0001
0000
0000
0100
0000
0000
0000
,
1100
0000
0000
0101
0000
0000
1100
0000
0110
0000
0000
1000
0000
0000
0010
1000
,
0100
0000
0000
0000
0000
0000
1000
0000
0000
0000
0000
0000
0010
0000
0100
0010
1001
0000
0000
0000
0000
0000
0101
0000
0000
0000
0000
0000
1010
0000
0000
0000
,
1100
0000
0000
0000
0000
0000
0101
0000
0000
0000
0000
0000
1100
0000
0000
0000
1010
0000
0000
0000
0000
0000
1000
0000
0000
0000
0000
0000
0010
0000
1000
0010
,
0101
0101
0101
0101
0101
0101
0101
0101
0101
0000
0000
0000
0000
0000
0000
0000
,
0200
0000
0000
0000
,
0302
0000
0000
0000
0023
0000
0000
0230
,
0000
0000
0000
0000
,
1300
0000
0000
0100
0000
0000
0010
0000
0000
0001
0000
0000
0100
0000
0000
1000
0000
0000
0100
0000
0000
0010
0000
0000
0001
0000
0100
0000
0010
0000
0001
0000
0010
0000
0100
0000
1000
0000
0000
0001
0000
0000
0010
0000
0000
0100
0000
0000
,
2000
0000
0000
0000
0000
0000
0000
0000
0000
0000
0000
0000
3010
0001
0100
0000
,
0001
0010
0100
1000
0010
1000
0100
1000
,
0020
0000
0000
0000
0000
0000
0000
0000
0000
0000
0000
0000
0000
0000
0000
0000
0000
0000
0000
0000
0000
0000
0000
0000
0000
0000
0000
0000
0000
0000
0000
0000
0000
0000
0000
0000
0000
0000
0000
0000
0000
0000
0000
0030
0100
0000
0000
0000
0000
0000
0000
0000
0000
0000
0000
0000
1000
0000
0000
0000
0000
0000
0000
0000
,
0020
0000
0000
0000
0000
0030
0000
0000
,
1000
0100
0010
0100
1000
0010
0001
1000
0100
0010
0001
0010
0200
0000
0000
0300
0000
0000
1000
0100
0010
1000
0100
0010
,
0100
0000
0001
0000
1000
0000
0100
0000
0010
0000
0001
0000
0020
0000
0000
0000
0000
0000
0030
0000
0000
0000
0000
0000
1000
0000
0100
0000
0001
0000
1000
0000
0010
0000
0001
0000
0010
0000
0100
0000
1000
0000
0011
0000
0000
1000
0000
0000
,
0001
0000
0000
0010
0000
0000
0100
0000
0010
0000
0001
0000
0010
0000
0000
0100
0000
0000
0001
0000
0000
1000
0000
0000
0001
0000
0000
0010
0000
0000
0100
0000
0010
0000
0001
0000
0010
0000
0000
0100
0000
0000
0001
0000
0000
1000
0000
0000
,
0001
0000
0000
0000
0000
0000
0000
0000
1000
0000
0000
0000
0000
0000
0000
0000
0010
0000
0000
0000
0000
0000
0000
0000
0001
0000
0000
0000
0000
0000
0000
0000
0100
0000
0000
0000
0000
0000
0000
0000
1000
0000
0000
0000
0000
0000
0000
0000
0010
0000
0000
0000
0000
0000
0000
0000
0000
0000
0000
0000
0100
0000
0000
0000
0000
0000
0000
0000
0000
0000
0000
0000
0001
0000
0000
0000
0000
0000
0000
0000
0000
0000
0000
0000
1000
0000
0000
0000
0000
0000
0000
0000
0000
0000
0000
0000
0001
0000
0000
0000
0000
0000
0000
0000
1000
0000
0000
0000
0000
0000
0000
0000
0010
0000
0000
0000
0000
0000
0000
0000
0001
0000
0000
0000
0000
0000
0000
0000
0100
0000
0000
0000
0000
0000
0000
0000
1000
0000
0000
0000
0000
0000
0000
0000
0010
0000
0000
0000
0000
0000
0000
0000
0000
0000
0000
0000
0100
0000
0000
0000
0000
0000
0000
0000
0000
0000
0000
0000
0001
0000
0000
0000
0000
0000
0000
0000
0000
0000
0000
0000
1000
0000
0000
0000
0000
0000
0100
0000
0000
0000
0000
0000
,
0002
0000
0000
0000
0000
0000
0000
0003
0010
0000
0010
0000
,
0002
0000
0000
0000
0000
0000
0000
0003
0010
0000
0010
0000
,
1000
0000
0001
0000
1000
0000
0010
0000
1000
0000
0100
0000
,
0020
0000
0000
0000
0000
0000
0000
0000
0030
0000
0100
0001
1010
0000
1010
0000
,
0101
1000
0100
0010
0101
1000
0100
0010
,
0001
0100
0010
0010
1001
0100
1000
0120
,
0030
1000
0100
0010
0101
1000
0100
0010
,
0001
0100
0010
0010
1001
0100
1000
0120
,
0030
1000
0100
0010
1001
0100
1000
0010
,
0001
0100
0010
0010
1001
0100
1000
0120
,
0030
1000
0100
0010
0101
1000
0100
0010
,
0001
0000
0100
0000
0010
0000
0010
0001
1100
0000
0110
0000
1000
0000
0120
0000
,
0030
0100
0010
0001
1010
0100
0010
0001
,
1000
0010
0100
0100
0011
1000
0001
0120
,
0030
0100
0010
0001
1010
0100
0010
0001
,
1000
0010
0100
0100
0011
1000
0001
0120
,
0030
0100
0010
0001
1010
0100
0010
0001
,
1000
0010
0100
0100
0011
1000
0001
0120
,
0030
0100
0010
0001
1010
0100
0010
0000
,
0000
0000
0000
1000
0100
0010
1000
0100
0001
0100
0010
0001
0100
0010
0001
0010
0100
0001
0100
0010
0100
1000
0000
0000
,
0011
1000
0001
0100
1000
0100
0010
1000
0010
0001
1100
0010
1000
0001
0010
0100
,
1000
0100
1000
0010
0101
1000
0100
0010
0001
0010
1100
0001
0100
0010
0001
0010
,
0100
1000
0100
0010
0101
1000
0001
0100
0010
1000
0110
1000
0001
0010
0100
0010
,
0001
1000
0100
0010
0101
0010
0100
1000
0010
0001
0110
0001
0100
0010
1000
0001
,
0100
0001
1000
0001
1100
0010
1000
0100
1000
0010
0101
1000
0100
0010
0001
1000
,
0100
0010
0001
0010
1001
0100
0001
0100
0010
0100
1010
0001
0010
0001
1000
0100
,
0001
0100
0010
1000
0110
0001
0100
0010
0100
0001
1000
0001
1010
0100
1000
0010
,
1000
0001
0010
0001
0110
1000
0100
1000
0010
0001
0110
1001
0110
1001
0110
1001
,
0110
0000
0001
0000
1001
0000
0001
0000
1100
0001
0100
0000
0011
0000
1000
0010
,
1000
0000
0001
0000
1100
0001
1000
0000
0101
1000
0100
0000
1010
0000
0101
0000
,
0000
0000
0100
0000
0101
0000
0100
0000
1010
0100
0010
0000
1100
0000
0001
0100
,
0011
0000
1000
0000
0101
1000
0011
0000
1000
0010
1000
0000
0011
0000
1100
0000
,
0000
0000
0010
0000
0110
0000
0010
0000
1100
0010
1000
0000
0011
0000
0100
0001
,
0100
0000
0001
0000
1010
0100
1000
0000
0101
0010
0001
0000
1100
0000
0011
0000
,
0000
0000
0100
0001
1100
0000
0010
0000
1001
0000
1000
0000
1100
0000
0011
0000
,
1100
0000
0001
0000
0101
0000
0001
0000
0100
0000
1010
0001
0110
0000
1001
0000
,
0110
0110
1010
0110
0000
0110
0110
0101
,
0000
0110
0110
1010
0000
1010
1010
0000
,
0110
0110
1010
0110
0000
0110
0110
0101
,
0000
0110
0110
1010
0000
1010
1010
0000
,
0101
1010
0101
0000
0101
0000
0101
0000
0101
0000
0101
0000
0101
0000
0101
0000
;
