#TITLE:Genie in a Bottle;
#SUBTITLE:;
#ARTIST:Christina Aguilera;
#TITLETRANSLIT:;
#SUBTITLETRANSLIT:;
#ARTISTTRANSLIT:;
#CREDIT:;
#BANNER:Banner.jpg;
#BACKGROUND:Christina-Aguilera-christina-aguilera-34631_1024_768.jpg;
#LYRICSPATH:;
#CDTITLE:Alejo.png;
#MUSIC:01 Genie In a Bottle.mp3;
#OFFSET:-0.399;
#SAMPLESTART:47.139;
#SAMPLELENGTH:13.040;
#SELECTABLE:YES;
#BPMS:0.000=175.960;
#STOPS:;
#BGCHANGES:;
// cache tags:
#FIRSTBEAT:0.000;
#LASTBEAT:426.000;
#SONGFILENAME:Songs/Definitive Keyboard Megapack/Genie in a bottle(Alejostone)/genie.sm;
#HASMUSIC:1;
#HASBANNER:1;
#MUSICLENGTH:217.184;
// end cache tags

//---------------dance-single - ----------------
#NOTES:
     dance-single:
     :
     Hard:
     20:
     1.000,1.000,1.000,0.465,1.000,1406.000,364.000,101.000,0.000,89.000:

1001
0101
0110
1010
0000
0000
0101
0000
,
0000
1001
0000
0010
0101
1010
0110
0001
,
2020
3030
0000
0000
0000
0000
0000
0000
0100
0000
0000
0000
0000
0000
0000
0000
0100
0000
0000
0000
0000
0000
0000
0000
0001
0000
0000
0000
0000
0000
0000
0000
1101
0000
0000
0000
0000
0000
0000
0000
0010
0000
0000
0000
0000
0000
0000
0000
0010
0000
0000
0000
0000
0000
0000
0000
0010
0000
0000
0000
0000
0000
0000
0000
,
0001
1000
1001
0001
1011
0101
0010
1000
,
0101
0000
0110
0000
1000
0000
0020
0030
1101
0000
0020
0030
0001
0000
1100
0000
,
1010
0000
0010
0100
0010
0100
0010
0000
1101
0000
1010
0000
1010
0000
0011
0100
,
1011
0001
0101
1000
1101
0010
0010
1100
,
1001
0100
0011
1000
1011
0010
1001
0101
,
1010
0000
1000
0000
0101
0000
0020
0030
1101
0000
0200
0300
0001
0000
0101
0000
,
1010
0000
0010
0100
0010
0100
0010
0000
1010
0000
0101
0010
1100
0000
0001
0100
,
1010
0001
0100
0010
1000
0100
1010
0001
1010
0100
0001
0010
1001
0100
1011
0100
,
0010
0100
1011
0100
1000
0010
1101
0010
0100
0000
0010
0000
0100
0000
0001
0010
,
1000
0010
0101
1000
0100
0001
1010
0100
0010
1000
0101
1000
0101
0010
1100
0010
,
0101
0000
1000
0001
1000
0001
1000
0000
1101
0000
1010
0000
0110
0000
1000
0010
,
0101
0010
1100
0001
1010
0100
1001
0010
1101
0010
1001
0100
0001
0010
0100
1000
,
0100
0010
0001
0010
1000
0000
0020
0030
1101
0000
0002
0003
1010
0000
0100
0000
,
1011
0100
0010
1000
0101
1000
0101
0010
1100
0001
1010
0001
1010
0100
0011
0100
,
1011
0000
1000
0010
1000
0010
1000
0000
0011
0000
1000
0001
1010
0100
0010
1000
,
0011
0100
1001
0010
1000
0100
1001
0010
0001
1000
0100
0010
0101
1000
1010
0100
,
0011
0000
0010
0000
1001
0000
0010
0000
1001
0010
0100
1000
0101
0010
0001
0100
,
1001
0010
0100
0010
1000
0100
1000
0001
0010
0100
1000
0001
0100
0010
1000
0001
,
1000
0000
0001
1000
0001
1000
0001
0000
1010
0000
0100
0010
1100
0000
0001
0000
,
0101
0010
1000
0101
0010
1000
0100
0011
1100
0010
0100
0001
1010
0100
0011
1000
,
0101
0010
0100
0010
1000
0101
1000
0001
0110
0001
1100
0001
1000
0011
1000
0010
,
1100
0010
0101
0010
1100
0011
1000
0001
0110
1000
0010
1001
0010
0100
0010
1001
,
0100
0000
0001
0100
0001
0100
0001
0000
1010
0000
0100
0010
1001
0000
0110
0000
,
2100
0000
0000
3002
0023
0000
2030
0000
,
0000
0000
3102
0010
0203
0010
1000
0001
,
0011
1010
1001
1010
1001
0011
1310
1001
,
0010
0000
0100
0010
0100
0010
0100
0000
0101
0000
0010
0100
0011
0000
1000
0100
,
0002
0000
0000
2003
3002
0000
0023
1000
,
0100
0001
2130
0001
3120
0001
1000
0000
,
1100
0101
1001
1100
1031
0101
1100
0011
,
1010
0000
0010
0100
0010
0100
0010
0000
1100
0000
0101
1000
0011
0000
1001
0000
,
1101
0000
0000
0010
0000
0000
1001
0000
0000
0100
0000
0000
1011
0100
0010
0001
1000
0100
0010
0100
0010
0001
1000
0100
,
0001
0010
0100
1000
0001
0010
1000
0100
0010
0100
0010
0001
1000
0010
0100
0001
1000
0100
0010
0001
1000
0010
0100
0001
,
0010
0100
1000
0001
0010
1000
0100
0010
0001
0010
0100
0010
1001
0000
0000
0000
0000
0000
0101
0000
0000
0000
0000
0000
,
1001
0000
0100
0010
0100
0010
0100
0000
1010
0000
1001
0000
0010
0000
0101
0000
,
1010
0100
0001
0100
0001
1000
0010
1000
0001
0100
0001
0100
0010
1000
0010
0001
0010
0100
1000
0001
0100
0010
1000
0001
,
0010
0100
1000
0001
0100
0010
1000
0100
0010
0001
1000
0100
0010
0001
1000
0010
0100
0001
1000
0010
0100
0001
1000
0010
,
0100
0000
0001
0000
1000
0000
0010
0000
0100
0000
1000
0000
0010
0000
0100
0000
0001
0000
0010
0000
0100
0000
0010
0000
1101
0000
0000
0000
0000
0000
0101
0000
0000
0000
0000
0000
1001
0000
0000
0010
0000
0000
0101
0000
0000
0000
0000
0000
,
1001
0000
0001
0100
0001
0100
0001
0000
1011
0000
0100
0000
1010
0000
0101
0000
,
1001
0100
0010
1000
0001
0100
1000
0001
0100
0010
1000
0001
0010
1000
0001
0100
0010
0100
0001
0010
0001
1000
0100
1000
,
0001
0010
0001
0100
0010
0100
0001
0010
0100
1000
0001
0010
0100
1000
0001
0100
0010
1000
0001
0100
0010
1000
0001
0010
,
0100
0001
1000
0001
1000
0100
0010
1000
0100
0010
1000
0001
0100
0000
0000
0000
0000
0000
1010
0000
0000
0000
0000
0000
,
1001
0000
0100
0010
0100
0010
0100
0000
1011
0000
0100
0000
0011
0000
1001
0000
,
0101
0010
1000
0010
0100
0001
0100
0010
0001
1000
0100
0010
0100
0010
0001
1000
0100
0010
0100
0010
0001
1000
0010
1000
,
0010
0100
0001
0100
0001
1000
0010
1000
0010
0100
0001
0100
0001
0010
1000
0010
1000
0100
0001
0100
0001
1000
0100
0010
,
0001
1000
0010
0100
0001
1000
0100
0010
0001
1000
0010
0100
0001
1000
0010
1000
0100
0001
0010
0001
0010
0100
1000
0001
,
0010
0000
0010
0100
0010
0100
0010
0000
1201
0300
2000
0000
0011
0000
3102
0000
,
0003
1000
0200
0300
0010
0100
0000
0002
,
0213
0300
0000
0000
1010
0000
0200
0300
0000
0000
0020
0000
0131
0000
0020
0000
,
1031
0000
0000
0000
0101
0000
0110
0000
0000
0000
1001
0000
0000
0000
0200
0300
,
0000
0000
0010
0100
0010
0100
0010
0000
1101
0000
0010
0000
1100
0000
0101
0000
,
1001
0000
0020
0031
2000
3010
0000
0000
,
0010
2000
3000
0010
0001
1020
0030
0100
,
0000
0000
0100
0000
0001
1000
0101
0000
1010
0000
0001
1000
0101
0000
0010
0000
,
1100
0001
0100
0010
0100
0010
0100
0000
1011
0000
0100
0000
0011
0000
1001
0000
,
0110
0001
1010
0100
0011
1000
0001
0100
1011
0100
0010
1000
0111
1000
0101
1000
,
0110
0001
1100
0001
1100
0010
1001
0010
1011
0100
1011
0100
1010
0001
1110
0001
,
0110
1000
0010
1000
0111
1000
0011
0100
0010
1000
0111
1000
1000
0100
1010
0101
,
0010
0000
0100
0010
0100
0010
0100
0000
1011
0000
0100
0000
1001
0000
0101
0000
,
1010
0100
0010
0001
1100
0001
0010
0001
1100
0010
1000
0010
0001
0010
0100
0010
,
0001
0010
0100
1000
0100
0010
0001
0010
1001
0000
1100
0000
1001
0000
1000
0000
,
1100
0000
1000
0000
0110
0000
2010
3000
0010
0000
0210
0300
1010
0000
0101
0000
,
1001
0000
0010
0100
0010
0100
0010
0000
1011
0000
0100
0000
1010
0000
0101
0000
,
1001
0010
0101
0010
0101
1000
0110
1000
0110
0001
1010
0001
1010
0100
1001
0100
,
1001
0010
1001
0010
1001
0100
1011
0100
1001
0010
0101
0010
0101
1000
0111
1000
,
0110
0001
1110
0001
1100
0010
1101
0010
1001
0100
1011
0100
0011
1000
0111
1000
,
0011
0000
1000
0001
1000
0001
1000
0000
0101
0000
0010
0000
1100
0000
0101
0000
,
2010
3102
0003
1020
0000
0030
0201
0300
,
1020
0002
2033
0000
3001
2000
3000
0102
,
0003
0010
0200
0000
2301
3102
0003
0020
,
2130
0000
0001
0010
3110
0001
0110
0000
2001
0000
3201
0000
0000
0000
0310
0000
,
1101
0010
1000
0010
0100
0001
1000
0010
0100
0001
0010
0100
1000
0001
0010
1000
0001
0010
1000
0100
0010
1000
0100
0010
,
0001
1000
0001
0010
1000
0010
0100
0001
0100
0010
1000
0100
0010
1000
0100
0001
0010
0100
0001
0010
0100
1000
0001
1000
,
0011
0101
1010
0011
0101
1010
0011
0101
,
1010
0000
0010
0100
0010
0100
0010
0000
0101
0000
1010
0000
0011
0000
0101
0000
,
1010
0001
0100
0010
0001
0100
0010
1000
0001
0100
1000
0001
0100
0010
1000
0100
0010
1000
0100
0001
0010
0100
0001
0010
,
0100
0001
0010
1000
0001
0010
1000
0001
0100
1000
0001
0100
2000
0000
0000
3020
0000
0000
0230
0000
0000
2300
0000
0000
,
3011
0000
0101
0000
1010
0000
0011
0000
0101
0000
1010
0000
0021
0030
0201
0300
,
1002
0003
0010
1000
0100
1000
0010
0000
1101
0000
0111
0000
1011
0000
1110
0000
,
0111
0000
0000
0000
0000
0000
0000
0000
0000
0000
0000
0000
1000
0100
0010
0001
1000
0010
0100
0001
1000
0100
0010
0001
,
1000
0010
0100
0001
1000
0010
0100
1000
0010
0100
0001
0010
0001
1000
0010
0100
0001
0010
0001
1000
0010
0100
0001
0010
,
0100
1000
0001
0100
0010
1000
0001
0010
0100
0001
0010
0001
1000
0000
0000
0001
0000
0000
1000
0000
0000
0101
0000
0000
,
1010
0000
0100
0001
0010
0001
0100
0000
0011
0000
1000
0000
0101
0000
1010
0000
,
1100
0010
0001
1000
0100
0010
0001
0100
1000
0010
0001
0100
1000
0001
0010
0100
1000
0001
0010
0001
1000
0001
0010
0001
,
1000
0100
0010
0100
0001
0100
0010
0100
0001
0010
1000
0100
1000
0001
0010
0100
1000
0001
0100
0010
1000
0001
0100
0010
,
1000
0100
0010
1000
0001
0010
0100
1000
0100
0010
0001
0010
0100
0000
0000
1001
0000
0000
0101
0000
0000
1010
0000
0000
,
0101
0000
0010
0100
0001
0100
0010
0000
1100
0000
0001
0000
1010
0000
0101
0000
,
0110
0000
0000
0000
0000
0000
1000
0000
0000
0000
0000
0000
0002
0000
0000
0003
0000
0000
0000
0000
0000
0000
0000
0000
0001
0000
0010
0000
0100
0000
1000
0000
0001
0000
0100
0000
0001
0000
1000
0000
0100
0000
0010
0000
0001
0000
1000
0000
,
0010
1000
0001
0010
0100
1000
0001
0100
0001
1000
0100
0010
0001
1000
0010
1000
0100
0010
0100
0001
0010
0001
1000
0100
,
1000
0001
0100
0001
1000
0010
1000
0100
0001
0100
0001
1000
0100
0010
0001
0100
0001
0100
0010
1000
0010
0001
0010
0100
,
1000
0000
1000
0100
1000
0100
1000
0000
0101
0000
0010
0000
1100
0000
0101
0000
,
1010
0100
0001
0010
1001
0010
0100
0001
0010
1000
0100
0010
1000
0001
0100
0010
1000
0001
0100
0010
1000
0100
0010
0001
,
1000
0100
0010
0001
1000
0010
0100
0001
1000
0100
0010
0001
1000
0010
0100
0001
1000
0010
0100
0001
0010
0001
1000
0100
,
1000
0001
0010
0100
1000
0001
0010
0001
1000
0100
1000
0010
0100
0001
0010
0100
0001
1000
0100
1000
0001
0010
0100
0010
,
0101
0000
0010
1000
0010
1000
0010
0000
1100
0000
0010
0000
0101
0000
1010
0000
,
1101
0000
0022
0033
1100
0000
2002
3003
0110
0000
0022
0033
1010
0000
0200
0300
,
1100
0010
0101
0010
0100
0000
0022
0033
1001
0000
2021
3030
0202
0303
2020
3030
,
0100
0001
1110
0001
1100
0010
1101
0010
1001
0100
1011
0100
0011
1000
0111
1000
,
0101
0000
0010
0001
1100
0001
0100
0000
0011
0000
0001
0000
1100
0000
1001
0000
,
0211
0300
2022
3033
1100
0000
0202
0303
0010
0000
2102
3003
0010
0000
2200
3300
,
0011
0000
0222
0333
2020
3030
0220
0330
0010
0000
2002
3003
1000
0000
2200
3300
,
2200
3310
1101
0010
0101
1000
0111
1000
0011
0100
1011
0100
1001
0010
1101
0010
,
0101
0000
0010
0100
0010
0100
0010
0000
1001
0000
0100
0000
0011
0000
0101
0000
,
2202
0000
3303
0000
;
