#TITLE:DROP OUT 320.5	survivor MAX;
#SUBTITLE:-There Goes The Neighborhood Mix-;
#ARTIST:320.5;
#TITLETRANSLIT:;
#SUBTITLETRANSLIT:;
#ARTISTTRANSLIT:;
#CREDIT:;
#BANNER:banner.png;
#BACKGROUND:background.png;
#LYRICSPATH:;
#CDTITLE:kamek.png;
#MUSIC:dropout320.ogg;
#OFFSET:-0.007;
#SAMPLESTART:19.442;
#SAMPLELENGTH:12.000;
#SELECTABLE:YES;
#BPMS:0.000=320.500,104.000=300.000,136.000=320.500,168.000=150.000,176.000=75.000,178.000=300.000,180.000=320.500,406.000=160.260,410.000=320.500;
#STOPS:178.000=0.840
,449.000=0.200
;
#BGCHANGES:;
// cache tags:
#FIRSTBEAT:40.000;
#LASTBEAT:458.000;
#SONGFILENAME:Songs/Beyond Legends/Drop Out 320/dropout320.sm;
#HASMUSIC:1;
#HASBANNER:1;
#MUSICLENGTH:92.175;
// end cache tags

//---------------dance-single - MANIAC----------------
#NOTES:
     dance-single:
     MANIAC:
     Hard:
     11:
     1.000,1.000,0.770,0.152,0.119,573.000,71.000,14.000,0.000,0.000:

0000
0000
0000
0000
,
0000
0000
0000
0000
,
0000
0000
0000
0000
,
0000
0000
0000
0000
,
0000
0000
0000
0000
,
0000
0000
0000
0000
,
0000
0000
0000
0000
,
0000
0000
0000
0000
,
0000
0000
0000
0000
,
0000
0000
0000
0000
,
1000
0000
0001
0100
0000
0100
0010
0000
,
0010
0000
1000
0100
0000
0100
0010
0000
,
0001
0000
0100
0010
0000
0010
0100
0000
,
1100
0001
0100
0010
,
1000
0001
0100
0010
0000
0010
0100
0000
,
1000
0100
0010
0001
0000
0001
0100
0000
,
0010
1000
0100
0010
0000
0001
0100
0000
,
0101
0010
1000
0100
,
1001
0000
1000
0100
0010
0000
0001
0000
,
0001
0100
0000
0100
0010
0000
0110
0000
,
0101
0000
0001
0100
0010
0000
1000
0000
,
1000
0100
0000
0100
0010
0000
1100
0000
,
1010
0000
0010
1000
0100
0000
0010
0000
,
0100
0000
0100
0010
0000
0010
0100
0000
,
0110
0000
0000
1100
0000
0000
0101
0000
,
1000
0100
0010
0001
0100
0010
1000
0100
,
0010
0001
0010
0001
0010
0001
0010
0001
,
0010
0001
0010
0001
0010
0001
0010
0001
,
0100
0001
0100
0001
0100
0001
0100
0001
,
0100
0001
0100
0010
0000
0110
0000
0000
,
1000
0100
1000
0100
1000
0100
1000
0100
,
1000
0100
1000
0100
1000
0100
1000
0100
,
0010
0100
0010
0100
0010
0100
0010
0100
,
0010
0100
0010
0100
0000
1001
0000
0000
,
1010
1100
1000
0010
,
0101
0011
0100
0010
,
1010
0101
0100
0010
,
1100
0011
1000
0001
,
0100
0110
0010
0110
,
1000
1100
0001
0011
,
1001
0110
1001
0110
,
1000
0100
0010
0001
0100
0010
1000
0100
,
0010
0001
0000
0001
0100
0000
0100
0010
0000
0010
1000
0000
1100
0000
0011
0000
,
1000
0100
0000
0100
0010
0000
0010
0001
0000
0001
0100
0000
0101
0000
1010
0000
,
2002
0000
0000
0000
0000
0000
0000
0000
0000
0000
0000
0000
0000
0000
0000
0000
0000
3003
0000
0000
0000
0000
0000
0000
0000
0000
0000
0000
0000
0000
0000
0000
,
0100
0000
0110
0000
1000
0100
0010
0000
,
0001
0100
0010
1000
,
0001
0100
0010
1000
,
0001
0000
0100
0000
0010
1000
0100
0000
,
1010
0000
0101
0000
1000
0100
0000
0100
,
0010
0000
0010
0001
0000
0001
0100
0000
,
0010
1000
0100
0000
1010
0000
0101
0000
,
1001
0110
2002
0000
,
0000
0000
3003
0000
1000
0100
1000
0100
,
0000
0000
0011
0000
0001
0100
0001
0100
,
0000
0000
1010
0000
0010
1000
0100
0010
,
0000
0000
0000
1000
0100
0010
2002
0000
,
0000
0000
3003
0000
0001
0010
0001
0010
,
0000
0000
1100
0000
1000
0010
1000
0010
,
0000
0000
0101
0000
0100
0001
0010
0100
,
0000
1100
0011
0101
,
1010
0000
0110
0000
1000
0100
0010
0001
,
0000
0000
0101
0000
0001
0100
0010
1000
,
0000
0000
1100
0000
1000
0100
0000
0100
,
0010
0000
0010
0001
0100
0000
0110
0000
,
1000
0001
1000
0000
0001
0100
0010
1000
,
0000
1000
0100
0000
1000
0100
0010
0001
,
0000
0001
0100
0000
0010
1000
0000
1000
,
0100
0000
0100
0010
0001
0100
0010
1000
,
0100
0010
0001
0000
0010
1000
0100
0010
,
0000
0010
0001
0000
1001
0000
0110
0000
,
0000
0110
0000
0000
0100
0001
0010
0100
,
0000
0100
1000
0000
1001
0000
0110
0000
,
0000
0110
0000
0000
1000
0100
1000
0100
,
0000
0010
0001
0000
0001
0100
0001
0100
,
0000
0010
1000
0000
1000
0100
0010
0001
,
0000
0001
0100
0000
0220
0000
0000
0000
,
0000
0000
0330
0000
1000
0100
1000
0000
,
0001
0100
0001
0000
1000
0010
1000
0000
,
0001
0010
0001
0000
1000
0100
0010
0000
,
0001
0100
0010
0000
0010
1000
0100
0000
,
0010
0001
0100
0000
1000
0100
0010
0001
,
0100
0010
1000
0100
0010
0001
0100
0010
,
1000
0000
0000
0100
0000
0000
0010
0000
0000
0001
0000
0000
1000
0000
0000
0000
1000
0000
0000
0000
1000
0000
0000
0000
,
0000
0000
0000
0000
0000
0000
0001
0000
0001
0000
0001
0000
,
0000
0000
0000
0000
0000
0000
0100
0000
0100
0000
0100
0000
,
0010
0000
0010
0000
0010
0000
2002
0000
0000
0000
0000
0000
,
0000
0000
3003
0000
1000
0100
1000
0000
,
0001
0100
0001
0000
1000
0010
1000
0000
,
0001
0010
0001
0000
0100
0010
0100
0000
,
0001
1000
0001
0000
0100
0010
1000
0000
,
0100
0010
0001
0000
1000
0100
0010
0000
,
0001
0100
0010
0000
1000
0001
0100
0000
,
0001
1000
0100
0000
0010
0001
0100
0000
,
0010
1000
0100
0000
0220
0000
0000
0000
,
0000
0000
0330
0000
1000
0100
1000
0100
,
0010
0001
0010
0001
0100
0001
0100
0001
,
0100
0010
0100
0010
1000
0010
1000
0010
,
1000
0100
1000
0100
0010
0100
0010
0001
,
0100
0010
0100
0010
1000
0100
0010
0001
,
0100
0010
1000
0100
0010
0001
0100
0010
,
1000
0000
0100
0000
0010
0000
0001
0000
1000
0100
0000
0010
0001
0000
0001
0100
,
0000
0010
1000
0000
1000
0100
0010
0001
1000
0000
0100
0000
0010
0000
0001
0000
,
0100
0010
1000
0001
0100
0010
1000
0100
,
0010
0101
1010
1100
,
0011
0110
1001
1100
,
0001
0100
0010
1000
0100
0010
0001
0100
,
0010
1000
0100
0010
0001
0100
0010
1000
,
0100
0010
0001
0100
0001
0100
0010
1000
,
0100
0010
0001
0100
0010
0100
0001
0000
,
0000
0000
0000
0000
0010
1000
0010
1000
,
0000
0010
0001
0000
0100
0010
0000
1000
,
0100
0010
0001
0000
2002
0000
0000
0000
,
0000
0000
0000
0000
,
0000
0000
3003
0000
;

//---------------dance-single - ANOTHER----------------
#NOTES:
     dance-single:
     ANOTHER:
     Medium:
     9:
     0.753,1.000,0.749,0.325,0.076,387.000,69.000,30.000,0.000,0.000:

0000
0000
0000
0000
,
0000
0000
0000
0000
,
0000
0000
0000
0000
,
0000
0000
0000
0000
,
0000
0000
0000
0000
,
0000
0000
0000
0000
,
0000
0000
0000
0000
,
0000
0000
0000
0000
,
0000
0000
0000
0000
,
0000
0000
0000
0000
,
1000
0001
0100
0010
,
1000
0100
0010
0001
,
0100
0010
1000
0001
,
0100
0010
0110
0000
,
0001
0100
0010
1000
,
0100
0010
0001
0100
,
0010
1000
0100
0010
,
0001
1000
1001
0000
,
1000
0100
0010
0000
,
1010
0101
1001
0000
,
0001
0100
0010
0000
,
0011
1001
1100
0000
,
0001
0100
0010
0000
,
0010
1000
0100
0000
,
1000
0000
0000
0010
0000
0000
0001
0000
,
0001
0100
0010
1000
0100
0010
0001
0100
,
0020
0000
0000
0000
,
2000
0000
0000
0030
,
0200
0000
3000
0020
,
0000
0300
0002
0030
,
0203
0000
0320
2030
,
0000
3200
0320
0000
,
0032
0203
0310
1000
,
0100
0010
0001
0100
,
1001
0010
1000
0100
,
1001
0010
0001
0100
,
1001
1000
0100
0010
,
1001
0001
0100
0010
,
0000
1001
0000
1100
,
0000
0011
0000
1001
,
1010
1100
0011
0110
,
1100
0011
0101
1010
,
2000
0000
0001
0000
0000
0001
0000
0000
0100
0000
0000
0100
0000
0000
0010
0000
,
3002
0000
1000
0000
0000
1000
0000
0000
0100
0000
0000
0100
0000
0000
0013
0000
,
2002
0000
0000
0000
0000
0000
0000
0000
0000
0000
0000
0000
0000
0000
0000
0000
0000
3003
0000
0000
0000
0000
0000
0000
0000
0000
0000
0000
0000
0000
0000
0000
,
0000
0000
0000
0000
1000
0100
0010
0000
,
0001
0010
0100
1000
,
0001
0100
0010
1000
,
0100
0010
0001
0100
,
1100
0000
0011
0000
1000
0100
0000
0100
,
0010
0000
0010
0001
0000
0001
0100
0000
,
0010
1000
1100
0011
,
1001
0110
2002
0000
,
0000
0000
3003
0000
1000
0000
0000
0001
,
0000
0000
0100
0000
0010
0000
0000
1000
,
0000
0000
0100
0000
0010
0000
0000
0001
,
0000
0100
0010
1000
,
1001
0000
0000
0000
1100
0000
0000
0010
,
0000
0000
0001
0000
0101
0000
0000
0010
,
0000
0000
1000
0000
1100
0000
0000
0011
,
0000
1001
1000
0100
,
0010
0000
0001
0000
0110
0000
0000
1100
,
0000
0000
0011
0000
1010
0000
0000
0101
,
0000
0000
1001
0000
0110
0000
0000
1001
,
0000
0110
1000
0100
,
0010
0000
0001
0000
1100
0000
0000
0011
,
0000
0000
0101
0000
1010
0000
0000
1100
,
0000
0000
0011
0000
1001
0000
0000
0110
,
0000
0000
1001
0000
1000
0100
0010
0000
,
1100
0000
0011
0000
0001
0000
0000
0100
,
0000
0010
0100
0000
2002
0000
0000
0000
,
3003
0000
0000
0000
1100
0000
0000
0010
,
0000
0001
0100
0000
2002
0000
0000
0000
,
0000
0000
3003
0000
1000
0000
0000
0001
,
0000
0100
0010
0000
0001
0000
0000
0100
,
0000
0010
1000
0000
1100
0000
0000
0011
,
0000
0001
0100
0000
2002
0000
0000
0000
,
0000
0000
3003
0000
1000
0000
0100
0010
,
0000
0010
0001
0000
0001
0000
0100
0010
,
0000
0010
1000
0000
1000
0000
0100
0010
,
0000
0010
0001
0000
0001
0000
0100
0010
,
0000
1000
0100
0000
0010
0001
0100
0010
,
1000
0100
0010
0001
0100
0010
1000
0100
,
0010
0000
0000
0001
0000
0000
0100
0000
0000
0010
0000
0000
1000
0000
0000
0000
0100
0000
0000
0000
1000
0000
0000
0000
,
0000
0000
0000
0000
0000
0000
0001
0000
0100
0000
0001
0000
,
0000
0000
0000
0000
0000
0000
1000
0000
0010
0000
1000
0000
,
0001
0000
0010
0000
0001
0000
2002
0000
0000
0000
0000
0000
,
0000
3003
1000
0100
,
0010
0001
0100
0010
,
1000
0100
0001
0100
,
0010
1000
0100
0010
,
0001
0100
0010
1000
,
0001
0100
0010
1000
,
0100
0001
0010
0100
,
1000
0100
0001
0000
,
0000
0000
0000
0000
1000
0100
1000
0000
,
0001
0100
0010
1000
,
0100
0010
0001
0000
0001
0000
1000
0000
,
0100
0000
0010
0000
0001
0100
0001
0000
,
1000
0001
0100
0010
,
0010
1000
0100
0000
0010
0001
0100
0000
,
0010
0000
1000
0000
0100
0000
0000
0000
1000
0000
0000
0001
0000
0000
0100
0000
,
0000
0010
0000
0000
1000
0000
0001
0000
1000
0000
0100
0000
0010
0000
0000
0000
,
0001
0100
0010
1000
,
0011
0000
0001
0000
0100
0010
0100
0000
,
1100
0010
0001
0100
,
0010
0000
1000
0000
0001
0100
0001
0000
,
0010
0000
1000
0000
1000
0100
1000
0000
,
0010
0000
0001
0000
1000
0100
1000
0000
,
0001
0010
0001
0000
2002
0000
0000
0000
,
0000
0000
3003
0000
1000
0100
1000
0100
,
0000
0001
0100
0000
0001
0100
0000
0010
,
0100
0010
0100
0000
2002
0000
0000
0000
,
0000
0000
0000
0000
,
0000
0000
3003
0000
;

//---------------dance-single - BASIC----------------
#NOTES:
     dance-single:
     BASIC:
     Easy:
     7:
     0.544,0.739,0.206,0.293,0.000,305.000,19.000,27.000,0.000,0.000:

0000
0000
0000
0000
,
0000
0000
0000
0000
,
0000
0000
0000
0000
,
0000
0000
0000
0000
,
0000
0000
0000
0000
,
0000
0000
0000
0000
,
0000
0000
0000
0000
,
0000
0000
0000
0000
,
0000
0000
0000
0000
,
0000
0000
0000
0000
,
1000
0100
0010
0000
,
0001
0000
0100
0000
,
0010
1000
0100
0000
,
0001
0000
0100
0000
,
0010
1000
0100
0000
,
0010
0001
0100
0000
,
0010
1000
0100
0000
,
1001
0000
0000
0000
,
1000
0100
0010
0000
,
0001
0100
0010
0000
,
1000
0001
1000
0000
,
0001
0100
0010
0000
,
1000
0100
0010
0000
,
0001
0100
0010
0000
,
1000
0000
0000
0001
0000
0000
1000
0000
,
0001
0100
0010
0100
,
0001
0000
1000
0000
,
0100
0000
0010
0000
,
0001
0000
0000
1000
,
0000
0000
0100
0000
,
1000
0000
0001
0001
,
0000
0000
0100
0100
,
0000
0000
0010
0010
,
0000
0010
1000
0100
,
1000
0100
1000
0100
,
0010
0001
0010
0001
,
0001
0100
0010
1000
,
0100
0010
0010
0000
,
1000
0100
0010
0001
,
0100
0010
1000
0100
,
0001
0100
1000
0001
,
0100
1000
0100
0001
,
2000
0001
0100
3001
,
0002
1000
0100
1003
,
2002
0000
3003
0000
,
0000
0000
1000
0100
,
0010
0000
1000
0000
,
0001
0000
0001
0100
,
0010
0000
1100
0000
,
0011
0000
1000
0100
,
0010
0000
0001
0100
,
0010
0000
1000
0001
,
0100
0010
0200
0000
,
0000
0000
0300
0000
1000
0000
0000
0001
,
0000
0000
0100
0000
0010
0000
0000
0100
,
0000
0000
0010
0000
1000
0000
0000
0100
,
0000
0010
0001
0100
,
1001
0000
0000
0000
0100
0000
0000
0010
,
0000
0000
1000
0000
0001
0000
0000
0100
,
0000
0000
0010
0000
1000
0000
0000
0100
,
0000
0010
1100
0010
,
0001
0000
0100
0000
1000
0000
0000
1000
,
0000
0000
1000
0000
0001
0000
0000
0001
,
0000
0000
0001
0000
0110
0000
0000
0110
,
0000
0110
1000
0100
,
0010
0000
0001
0000
2000
0000
0000
3002
,
0000
0000
0203
0000
0320
0000
0000
2030
,
0000
0000
3200
0000
0320
0000
0000
0032
,
0000
0203
0310
1000
,
0100
0000
0010
0000
0001
0000
0000
0100
,
0000
0010
1001
0000
,
0000
0000
0000
0000
1000
0000
0000
0100
,
0000
0010
1001
0000
,
0000
0000
0000
0000
1000
0000
0000
0001
,
0000
0000
1000
0000
0010
0000
0000
0100
,
0000
0000
0010
0000
0001
0000
0100
0010
,
0000
0010
0100
0000
1001
0000
0000
0000
,
0000
0000
1000
0100
,
0010
0001
0100
0020
,
0200
0330
0001
0100
,
0010
1000
0100
0020
,
0200
0330
1000
0100
,
0010
0001
0100
2000
,
0002
3003
1010
0000
,
0000
0000
0101
0000
,
0000
0000
1100
0000
,
0011
0000
2002
0000
,
0000
3003
1000
0100
,
1000
0000
0001
0100
,
0001
0000
0010
1000
,
0010
0000
0001
0010
,
0001
0000
1000
0100
,
0010
0000
0001
0100
,
0010
0000
1000
0001
,
0100
0000
0220
0000
,
0330
0000
1000
0100
,
0010
0001
0100
0010
,
1000
0100
0010
0001
,
0100
0010
1000
0100
,
0001
0100
1000
0001
,
0100
1000
0100
0001
,
1000
0100
0010
0001
,
0100
0010
1000
0100
,
0010
0001
0100
0010
,
1000
0100
0001
0100
,
1000
0001
0100
1000
,
0100
0001
1000
0001
,
0100
0010
1000
0100
,
0010
0001
0100
0010
,
1000
0100
0001
0200
,
0000
0300
1000
0000
,
0001
0000
0100
0000
,
0010
0000
2002
0000
,
0000
0000
3003
0000
;
