#TITLE:sakura+sakura;
#SUBTITLE:;
#ARTIST:moro;
#TITLETRANSLIT:;
#SUBTITLETRANSLIT:;
#ARTISTTRANSLIT:;
#CREDIT:;
#BANNER:../speedcore rejects ban.png;
#BACKGROUND:../speedcore rejects bg.png;
#LYRICSPATH:;
#CDTITLE:;
#MUSIC:sakura+sakura.ogg;
#OFFSET:0.009;
#SAMPLESTART:100.086;
#SAMPLELENGTH:12.000;
#SELECTABLE:YES;
#DISPLAYBPM:250.000;
#BPMS:0.000=77.860,1.000=81.740,2.000=83.556,3.000=85.440,4.000=87.430,5.000=89.500,6.000=91.710,7.000=93.980,8.000=96.380,9.000=98.920,10.000=101.590,11.000=104.400,12.000=107.385,13.000=110.530,14.000=113.885,15.000=117.430,16.000=121.230,17.000=125.210,18.000=129.565,19.000=134.190,20.000=139.110,21.000=144.464,22.000=150.260,23.000=156.480,24.000=163.250,25.000=170.660,26.000=178.770,27.000=187.680,28.000=197.540,29.000=208.460,30.000=220.700,31.000=234.440,32.000=250.000,160.000=125.000,192.000=250.000;
#STOPS:;
#BGCHANGES:;
// cache tags:
#FIRSTBEAT:0.000;
#LASTBEAT:548.000;
#SONGFILENAME:Songs/Speedcore Rejects/sakura+sakura - [Garrett]/sakura.sm;
#HASMUSIC:1;
#HASBANNER:1;
#MUSICLENGTH:149.000;
// end cache tags

//---------------dance-single - G. Moese----------------
#NOTES:
     dance-single:
     G. Moese:
     Hard:
     17:
     1.000,1.000,0.268,0.242,1.000,1312.000,40.000,36.000,21.000,0.000:
1000
0001
1000
0001
,
1000
0001
1000
0001
,
1000
0001
1000
0001
,
1000
0001
1000
0001
,
1000
0001
1000
0001
,
1000
0001
1000
0001
,
1000
0001
1000
0001
,
1000
0001
1000
0001
,
1000
0001
0100
0010
1000
0001
0010
0100
,
1000
0000
0001
0000
0100
0000
0010
0000
1000
0000
0001
0000
0100
0001
0100
0001
,
0100
0010
1000
0001
0010
0100
1000
0001
,
0010
0000
0100
0000
1000
0000
0010
0000
0100
0000
0001
0000
1000
0000
0010
0100
,
0010
1000
0001
0010
0100
1000
0100
0010
,
0001
0000
1000
0000
0010
0000
0100
0000
0001
0000
1000
0000
0010
0000
0100
0001
,
0100
0010
1000
0001
0010
0001
0100
0010
,
1010
0000
0000
0101
0000
0000
1001
0000
,
0001
0000
0100
0000
0010
0000
1000
0000
0001
0000
0100
0000
0010
1000
0010
1000
,
0010
0000
0100
0000
0001
0000
1000
0000
0100
0000
0010
0000
0001
0000
1000
0001
,
1000
0010
1000
0100
0010
0001
0100
0010
,
1000
0000
0001
0000
0010
0000
0100
0000
1000
0000
0001
0000
0100
0010
0100
0010
,
0100
0000
0001
0000
1000
0000
0100
0000
0010
0000
0001
0000
1000
0010
0100
0010
,
1000
0000
0001
0000
0010
0000
0100
0000
1000
0000
0001
0000
0100
0000
0010
1000
,
0010
1000
0001
1000
0010
1000
0001
0010
,
0001
0000
0001
1000
0001
0000
0001
0000
,
1000
0010
0100
0001
0100
0001
1000
0010
0100
0001
0100
0001
1000
0010
0100
0010
,
1000
0001
0100
0010
1000
0010
1000
0001
0100
0001
1000
0001
4000
0000
0000
0000
,
3001
0100
0010
0100
0001
1000
0010
0100
0001
0100
0001
1000
0001
0100
0001
0100
,
0010
1000
0001
1000
0010
0100
0010
1000
0001
0100
0001
0000
0100
0000
0001
0000
,
1000
0100
0010
0001
0010
0001
1000
0100
1000
0100
0010
0001
1000
0100
0010
0100
,
1000
0001
0010
0100
0010
0001
1000
0100
0010
0001
1000
0001
4000
0000
0000
0000
,
3001
0010
0100
1000
0001
1000
0001
0010
0100
1000
0100
1000
0001
0010
0100
0010
,
0001
1000
0100
0010
0001
0000
1000
0000
0000
0000
0001
0000
1000
0000
0001
0000
,
1000
0010
0100
0010
1000
0001
0100
0010
0100
0001
0100
0001
1000
0010
0100
0001
,
1000
0001
0100
0010
0100
0001
1000
0001
0100
0001
0100
0010
4000
0000
0000
0000
,
3001
0010
0100
0010
0001
1000
0100
0010
0001
1000
0100
0010
0100
1000
0001
1000
,
0100
0010
0001
1000
0001
0000
1000
0000
0000
0000
1000
0000
0010
0000
0100
0000
,
0001
0100
0010
0100
0001
1000
0001
0100
0010
0100
0001
0100
0001
1000
0010
0100
,
0001
1000
0001
0100
0010
0100
0001
1000
0001
0100
0001
1000
0004
0000
0000
0000
,
1003
0100
0010
0100
1000
0001
0010
0100
1000
0001
0010
0100
0010
0001
1000
0001
,
0010
0100
1000
0001
1000
0000
0001
0000
0000
0000
0001
0000
0100
0000
0010
0000
,
1000
0102
1003
0102
,
1003
0000
0102
0000
0003
1000
0000
1000
,
0001
2100
3001
2100
,
3001
2100
3100
0100
,
1001
0100
1010
0001
,
1100
0010
1001
0100
,
1010
0001
0110
1000
,
0101
0010
0010
0010
,
1000
0100
M020
0030
1000
0100
M020
0030
,
1000
0100
0010
0001
1000
0100
0020
0030
,
0001
0010
020M
0300
0001
0010
020M
0300
,
0001
0001
0100
0100
0010
1000
0002
0003
,
1000
0010
M200
0300
1000
0010
M200
0300
,
1000
0010
0100
0001
1000
0010
0200
0300
,
0001
0100
M020
0030
0001
0100
M020
0030
,
0001
0100
0010
1000
0001
0001
0010
0010
,
0100
1000
0002
0003
01M0
1000
0002
0003
,
01M0
1000
0001
0100
0010
1000
0002
0003
,
10M0
0001
0200
0300
10M0
0001
0200
0300
,
100M
1000
0100
0100
0010
0001
2000
3000
,
0M10
1000
0002
0003
0M10
0001
2000
3000
,
0M10
1000
0001
0010
0100
1000
0001
0000
,
1000
0100
0020
0030
0001
0100
0020
0030
,
0100
0010
1000
0001
0010
0100
1000
0001
,
1000
0010
1000
0000
0001
0100
0001
0000
1000
0010
0100
0001
1000
0001
0100
0000
,
0010
1000
0010
0000
1000
0001
1000
0000
0001
0010
0100
1000
0001
0010
0001
0000
,
1000
0100
1000
0000
0001
0100
0001
0000
1000
0001
0100
0010
0100
0001
1000
0000
,
0001
0010
0001
0000
1000
0100
1000
0000
0001
0010
0100
1000
0001
0010
0100
0000
,
1000
0010
1000
0000
0001
0100
0001
0000
1000
0010
0100
0010
1000
0001
0100
0000
,
0010
0100
0010
0000
1000
0010
1000
0000
0001
1000
0001
1000
0100
0010
0001
0000
,
1000
0001
1000
0000
0001
0100
0001
0000
0100
0010
1000
0010
0100
0001
1000
0000
,
0001
0100
0001
0000
0100
0010
0100
0000
0010
0100
0010
0100
0001
1000
0010
0000
,
1000
0001
1000
0000
0001
0100
0001
0000
1000
0100
0010
0001
1000
0100
0010
0000
,
0001
0010
0001
0000
1000
0001
1000
0000
0001
0100
0010
1000
0010
0100
0001
0000
,
1000
0010
1000
0000
0001
0100
0001
0000
1000
0100
0010
0001
0010
0100
1000
0000
,
0001
0100
0001
0000
0100
0010
0100
0000
0010
1000
0010
1000
0001
0100
0010
0000
,
1000
0001
1000
0000
0001
0100
0001
0000
0100
0010
0100
0010
1000
0001
0100
0000
,
0010
0100
0010
0000
0100
0001
0100
0000
0001
1000
0001
0100
0010
1000
0001
0000
,
1000
0100
1000
0000
0001
0100
0001
0000
1000
0100
0010
0001
0010
0100
1000
0000
,
0001
0000
0001
0000
2000
3200
0320
0032
,
1003
0010
0100
0000
0010
0100
0001
0000
1000
0100
0010
0001
0010
0100
1000
0000
,
0001
0100
0010
0000
0100
0010
1000
0000
0010
0100
0001
1000
0010
0100
0001
0000
,
1000
0010
0100
0000
0001
1000
0100
0000
0010
0001
1000
0010
0100
0010
1000
0000
,
0001
0010
0100
0000
1000
0001
0010
0000
0100
1000
0001
0100
0010
0100
0001
0000
,
1000
0100
0010
0000
0001
1000
0010
0000
0100
0010
1000
0001
1000
0010
0100
0000
,
0001
0010
0100
0000
1000
0001
0010
0000
0100
1000
0100
1000
0001
0100
0010
0000
,
0100
0010
1000
0000
0001
0010
0100
0000
1000
0001
1000
0001
0100
0010
1000
0000
,
0001
0010
0100
0000
1000
0001
0010
0000
0001
0100
0010
1000
0010
0100
0001
0000
,
1000
0100
0010
0000
0001
0100
0010
0000
1000
0010
0100
0001
0100
0010
1000
0000
,
0001
0100
0010
0000
1000
0010
1000
0000
0001
1000
0010
0100
0001
1000
0001
0000
,
1000
0001
0100
0000
0010
1000
0001
0000
0010
0100
1000
0001
0010
0100
1000
0000
,
0001
1000
0100
0000
0010
0001
1000
0000
0010
0100
0001
1000
0100
0010
0001
0000
,
1000
0001
0100
0000
0010
0100
0010
0000
1000
0001
0010
0100
1000
0001
0100
0000
,
0010
1000
0001
0000
0010
0100
1000
0000
0001
0100
0001
0100
0010
1000
0010
0000
,
1000
0010
1000
0000
0010
0100
0001
0000
1000
0100
0010
0001
0010
0100
1000
0000
,
0001
1000
0010
0000
0100
0001
0010
0000
0100
1000
0001
1000
0001
1000
0001
0000
,
1000
0001
1000
0001
1000
0001
1000
0001
,
1000
0000
0000
0000
0000
0000
0000
0000
0000
0000
0000
0000
0000
0000
0000
0000
0000
0000
0000
0000
0000
0000
0000
0000
0001
0000
0000
0000
0000
0000
0000
0000
0000
0000
0000
0000
0000
0000
0000
0000
0000
0000
0000
0000
0000
0000
0000
0000
1000
0000
0000
0000
0000
0000
0000
0000
0000
0000
0000
0000
0000
0000
0000
0000
0000
0000
0000
0000
0000
0000
0000
0000
0001
0000
0000
0000
0000
0000
0000
0000
0000
0000
0000
0000
0000
0000
0000
0000
0000
0000
0000
0000
0000
0000
0000
0000
1000
0000
0000
0000
0000
0000
0000
0000
0000
0000
0000
0000
0000
0000
0000
0000
0000
0000
0000
0000
0000
0000
0000
0000
0001
0000
0000
0000
0000
0000
0000
0000
0000
0000
0000
0000
0000
0000
0000
0000
0000
0000
0000
0000
0000
0000
0000
0000
0200
0000
0000
0000
0000
0000
0000
0000
0000
0000
0000
0000
M00M
0000
0000
0000
0000
0000
0000
0000
0000
0000
0000
0300
0200
0000
0000
0000
0000
0000
0000
0000
0000
0000
0000
0000
0000
0000
0000
0000
0000
0000
0000
0000
0000
0000
0000
0000
,
0310
0100
0010
0100
0010
0100
0010
0100
,
0010
0000
0100
0000
0010
0000
0100
0000
0010
0000
0100
0000
0010
0001
1000
0001
,
1M00
0001
1000
0001
1000
0001
1000
0001
,
1000
0000
0000
0000
0000
0000
0000
0000
0000
0000
0000
0000
0000
0000
0000
0000
0000
0000
0000
0000
0000
0000
0000
0000
0001
0000
0000
0000
0000
0000
0000
0000
0000
0000
0000
0000
0000
0000
0000
0000
0000
0000
0000
0000
0000
0000
0000
0000
1000
0000
0000
0000
0000
0000
0000
0000
0000
0000
0000
0000
0000
0000
0000
0000
0000
0000
0000
0000
0000
0000
0000
0000
0001
0000
0000
0000
0000
0000
0000
0000
0000
0000
0000
0000
0000
0000
0000
0000
0000
0000
0000
0000
0000
0000
0000
0000
1000
0000
0000
0000
0000
0000
0000
0000
0000
0000
0000
0000
0000
0000
0000
0000
0000
0000
0000
0000
0000
0000
0000
0000
0001
0000
0000
0000
0000
0000
0000
0000
0000
0000
0000
0000
0000
0000
0000
0000
0000
0000
0000
0000
0000
0000
0000
0000
0020
0000
0000
0000
0000
0000
0000
0000
0000
0000
0000
0000
M00M
0000
0000
0000
0000
0000
0000
0000
0000
0000
0000
0030
0020
0000
0000
0000
0000
0000
0000
0000
0000
0000
0000
0000
0000
0000
0000
0000
0000
0000
0000
0000
0000
0000
0000
0030
,
0100
0001
0100
0001
0100
0001
0100
0001
,
0100
0001
0100
0001
4000
0000
3000
0000
,
0001
0100
0010
1000
0010
1000
0001
0100
0010
1000
0010
1000
0001
0100
0010
0100
,
0001
1000
0010
0100
0001
0100
0001
1000
0010
1000
0001
1000
0004
0000
0000
0000
,
1003
0010
0100
0010
1000
0001
0100
0010
1000
0010
1000
0001
1000
0010
1000
0010
,
0100
0001
1000
0001
0100
0010
0100
0001
1000
0010
1000
0000
0010
0000
1000
0000
,
0001
0010
0100
1000
0100
1000
0001
0010
0001
0010
0100
1000
0001
0010
0100
0010
,
0001
1000
0100
0010
0100
1000
0001
0010
0100
1000
0001
1000
0004
0000
0000
0000
,
1003
0100
0010
0001
1000
0100
1000
0100
0010
0001
0010
0001
1000
0100
0010
0100
,
1000
0001
0010
0100
1000
0000
0001
0000
0000
0000
1000
0000
0001
0000
1000
0000
,
0001
0100
0010
0100
0001
1000
0010
0100
0010
1000
0010
1000
0001
0100
0010
1000
,
0001
1000
0010
0100
0010
1000
0001
1000
0010
1000
0010
0100
0004
0000
0000
0000
,
1003
0100
0010
0100
1000
0001
0010
0100
1000
0001
0010
0100
0010
0001
1000
0001
,
0010
0100
1000
0001
1000
0000
0001
0000
0000
0000
0001
0000
0100
0000
0010
0000
,
1000
0010
0100
0010
1000
0001
1000
0010
0100
0010
1000
0010
1000
0001
0100
0010
,
1000
0001
1000
0010
0100
0010
1000
0001
1000
0010
1000
0001
4000
0000
0000
0000
,
3001
0010
0100
0010
0001
1000
0100
0010
0001
1000
0100
0010
0100
1000
0001
1000
,
0100
0010
0001
1000
0001
0000
1000
0000
0000
0000
1000
0000
0001
0000
1000
0000
,
0001
0000
0110
0000
0010
1000
0001
0000
,
0010
0000
0000
0000
0110
0000
0000
0000
0100
1000
0100
1000
0100
0000
0000
0000
,
0100
0000
0110
0000
0010
0001
1000
0000
,
0010
0000
0000
0000
0110
0000
0000
0000
0100
0000
0010
0100
0010
1000
0001
1000
,
0001
0000
1001
0000
0001
0010
0100
0000
,
1000
0000
0000
0000
1001
0000
0000
0000
1000
0010
1000
0010
1000
0000
0000
0000
,
0001
0000
1001
0000
1000
0010
0100
0000
,
0001
0000
0000
0000
1001
0000
0000
0000
0001
0010
0100
1000
0001
0010
0100
1000
,
0001
0000
0110
0000
0100
0001
1000
0000
,
0100
0000
0000
0000
0110
0000
0000
0000
0010
0001
0010
0001
0010
0000
0000
0000
,
0010
0000
0110
0000
0100
1000
0001
0000
,
0100
0000
0000
0000
0110
0000
0000
0000
0010
0000
0100
0010
0100
0001
1000
0001
,
1000
0000
1001
0000
1000
0100
0010
0000
,
0001
0000
0000
0000
1001
0000
0000
0000
0001
0100
0001
0100
0001
0000
0000
0000
,
1000
0000
1001
0000
0001
0100
0010
0000
,
1000
0000
0000
0000
1001
0000
0000
0000
1000
0100
0010
0001
1000
0100
0010
0001
,
2000
0000
0000
0000
,
3000
0000
0000
0000
;

//---------------dance-single - G. Moese----------------
#NOTES:
     dance-single:
     G. Moese:
     Challenge:
     18:
     1.000,1.000,0.161,0.242,1.000,1462.000,24.000,36.000,21.000,0.000:
1000
0001
1000
0001
,
1000
0001
1000
0001
,
1000
0001
1000
0001
,
1000
0001
1000
0001
,
1000
0001
1000
0001
,
1000
0001
1000
0001
,
1000
0001
1000
0001
,
1000
0001
1000
0001
,
1000
0001
0100
0010
1000
0001
0010
0100
,
1000
0000
0001
0000
0100
0000
0010
0000
1000
0000
0001
0000
0100
0001
0100
0001
,
0100
0010
1000
0001
0010
0100
1000
0001
,
0010
0000
0100
0000
1000
0000
0010
0000
0100
0000
0001
0000
1000
0000
0010
0100
,
0010
1000
0001
0010
0100
1000
0100
0010
,
0001
0000
1000
0000
0010
0000
0100
0000
0001
0000
1000
0000
0010
0000
0100
0001
,
0100
0010
1000
0001
0010
0001
0100
0010
,
1010
0000
0000
0101
0000
0000
1001
0000
,
0001
0000
0100
0000
0010
0000
1000
0000
0001
0000
0100
0000
0010
1000
0010
1000
,
0010
0000
0100
0000
0001
0000
1000
0000
0100
0000
0010
0000
0001
0000
1000
0001
,
1000
0010
1000
0100
0010
0001
0100
0010
,
1000
0000
0001
0000
0010
0000
0100
0000
1000
0000
0001
0000
0100
0010
0100
0010
,
0100
0000
0001
0000
1000
0000
0100
0000
0010
0000
0001
0000
1000
0010
0100
0010
,
1000
0000
0001
0000
0010
0000
0100
0000
1000
0000
0001
0000
0100
0000
0010
1000
,
0010
1000
0001
1000
0010
1000
0001
0010
,
0001
0000
0001
1000
0001
0000
0001
0000
,
1000
0010
0100
0001
0100
0001
1000
0010
0100
0001
0100
0001
1000
0010
0100
0010
,
1000
0001
0100
0010
1000
0010
1000
0001
0100
0001
1000
0001
4000
0000
0000
0000
,
3001
0100
0010
0100
0001
1000
0010
0100
0001
0100
0001
1000
0001
0100
0001
0100
,
0010
1000
0001
1000
0010
0100
0010
1000
0001
0100
0001
0000
0100
0000
0001
0000
,
1000
0100
0010
0001
0010
0001
1000
0100
1000
0100
0010
0001
1000
0100
0010
0100
,
1000
0001
0010
0100
0010
0001
1000
0100
0010
0001
1000
0001
4000
0000
0000
0000
,
3001
0010
0100
1000
0001
1000
0001
0010
0100
1000
0100
1000
0001
0010
0100
0010
,
0001
1000
0100
0010
0001
0000
1000
0000
0000
0000
0001
0000
1000
0000
0001
0000
,
1000
0010
0100
0010
1000
0001
0100
0010
0100
0001
0100
0001
1000
0010
0100
0001
,
1000
0001
0100
0010
0100
0001
1000
0001
0100
0001
0100
0010
4000
0000
0000
0000
,
3001
0010
0100
0010
0001
1000
0100
0010
0001
1000
0100
0010
0100
1000
0001
1000
,
0100
0010
0001
1000
0001
0000
1000
0000
0000
0000
1000
0000
0010
0000
0100
0000
,
0001
0100
0010
0100
0001
1000
0001
0100
0010
0100
0001
0100
0001
1000
0010
0100
,
0001
1000
0001
0100
0010
0100
0001
1000
0001
0100
0001
1000
0004
0000
0000
0000
,
1003
0100
0010
0100
1000
0001
0010
0100
1000
0001
0010
0100
0010
0001
1000
0001
,
0010
0100
1000
0001
1000
0000
0001
0000
0000
0000
0001
0000
0100
0000
0010
0000
,
1000
0102
1003
0102
,
1003
0000
0102
0000
0003
1000
0000
1000
,
0001
2100
3001
2100
,
3001
2100
3100
0100
,
1001
0100
1010
0001
,
1100
0010
1001
0100
,
1010
0001
0110
1000
,
0101
0010
0010
0010
,
1000
0100
M020
0030
1000
0100
M020
0030
,
1000
0100
0010
0001
1000
0100
0020
0030
,
0001
0010
020M
0300
0001
0010
020M
0300
,
0001
0001
0100
0100
0010
1000
0002
0003
,
1000
0010
M200
0300
1000
0010
M200
0300
,
1000
0010
0100
0001
1000
0010
0200
0300
,
0001
0100
M020
0030
0001
0100
M020
0030
,
0001
0100
0010
1000
0001
0001
0010
0010
,
0100
1000
0002
0003
01M0
1000
0002
0003
,
01M0
1000
0001
0100
0010
1000
0002
0003
,
10M0
0001
0200
0300
10M0
0001
0200
0300
,
100M
1000
0100
0100
0010
0001
2000
3000
,
0M10
1000
0002
0003
0M10
0001
2000
3000
,
0M10
1000
0001
0010
0100
1000
0001
0000
,
1000
0100
0020
0030
0001
0100
0020
0030
,
0100
0010
1000
0001
0010
0100
1000
0001
,
1000
0010
1000
0000
0001
0100
0001
0000
1000
0010
0100
0001
1000
0001
0100
0000
,
0010
1000
0010
0000
1000
0001
1000
0000
0001
0010
0100
1000
0001
0010
0001
0000
,
1000
0100
1000
0000
0001
0100
0001
0000
1000
0001
0100
0010
0100
0001
1000
0000
,
0001
0010
0001
0000
1000
0100
1000
0000
0001
0010
0100
1000
0001
0010
0100
0000
,
1000
0010
1000
0000
0001
0100
0001
0000
1000
0010
0100
0010
1000
0001
0100
0000
,
0010
0100
0010
0000
1000
0010
1000
0000
0001
1000
0001
1000
0100
0010
0001
0000
,
1000
0001
1000
0000
0001
0100
0001
0000
0100
0010
1000
0010
0100
0001
1000
0000
,
0001
0100
0001
0000
0100
0010
0100
0000
0010
0100
0010
0100
0001
1000
0010
0000
,
1000
0001
1000
0000
0001
0100
0001
0000
1000
0100
0010
0001
1000
0100
0010
0000
,
0001
0010
0001
0000
1000
0001
1000
0000
0001
0100
0010
1000
0010
0100
0001
0000
,
1000
0010
1000
0000
0001
0100
0001
0000
1000
0100
0010
0001
0010
0100
1000
0000
,
0001
0100
0001
0000
0100
0010
0100
0000
0010
1000
0010
1000
0001
0100
0010
0000
,
1000
0001
1000
0000
0001
0100
0001
0000
0100
0010
0100
0010
1000
0001
0100
0000
,
0010
0100
0010
0000
0100
0001
0100
0000
0001
1000
0001
0100
0010
1000
0001
0000
,
1000
0100
1000
0000
0001
0100
0001
0000
1000
0100
0010
0001
0010
0100
1000
0000
,
0001
0000
0001
0000
2000
3200
0320
0032
,
1003
0010
0100
0000
0010
0100
0001
0000
1000
0100
0010
0001
0010
0100
1000
0000
,
0001
0100
0010
0000
0100
0010
1000
0000
0010
0100
0001
1000
0010
0100
0001
0000
,
1000
0010
0100
0000
0001
1000
0100
0000
0010
0001
1000
0010
0100
0010
1000
0000
,
0001
0010
0100
0000
1000
0001
0010
0000
0100
1000
0001
0100
0010
0100
0001
0000
,
1000
0100
0010
0000
0001
1000
0010
0000
0100
0010
1000
0001
1000
0010
0100
0000
,
0001
0010
0100
0000
1000
0001
0010
0000
0100
1000
0100
1000
0001
0100
0010
0000
,
0100
0010
1000
0000
0001
0010
0100
0000
1000
0001
1000
0001
0100
0010
1000
0000
,
0001
0010
0100
0000
1000
0001
0010
0000
0001
0100
0010
1000
0010
0100
0001
0000
,
1000
0100
0010
0000
0001
0100
0010
0000
1000
0010
0100
0001
0100
0010
1000
0000
,
0001
0100
0010
0000
1000
0010
1000
0000
0001
1000
0010
0100
0001
1000
0001
0000
,
1000
0001
0100
0000
0010
1000
0001
0000
0010
0100
1000
0001
0010
0100
1000
0000
,
0001
1000
0100
0000
0010
0001
1000
0000
0010
0100
0001
1000
0100
0010
0001
0000
,
1000
0001
0100
0000
0010
0100
0010
0000
1000
0001
0010
0100
1000
0001
0100
0000
,
0010
1000
0001
0000
0010
0100
1000
0000
0001
0100
0001
0100
0010
1000
0010
0000
,
1000
0010
1000
0000
0010
0100
0001
0000
1000
0100
0010
0001
0010
0100
1000
0000
,
0001
1000
0010
0000
0100
0001
0010
0000
0100
1000
0001
1000
0001
1000
0001
0000
,
1000
0001
1000
0001
1000
0001
1000
0001
,
1000
0000
0000
0000
0000
0000
0000
0000
0000
0000
0000
0000
0000
0000
0000
0000
0000
0000
0000
0000
0000
0000
0000
0000
0001
0000
0000
0000
0000
0000
0000
0000
0000
0000
0000
0000
0000
0000
0000
0000
0000
0000
0000
0000
0000
0000
0000
0000
1000
0000
0000
0000
0000
0000
0000
0000
0000
0000
0000
0000
0000
0000
0000
0000
0000
0000
0000
0000
0000
0000
0000
0000
0001
0000
0000
0000
0000
0000
0000
0000
0000
0000
0000
0000
0000
0000
0000
0000
0000
0000
0000
0000
0000
0000
0000
0000
1000
0000
0000
0000
0000
0000
0000
0000
0000
0000
0000
0000
0000
0000
0000
0000
0000
0000
0000
0000
0000
0000
0000
0000
0001
0000
0000
0000
0000
0000
0000
0000
0000
0000
0000
0000
0000
0000
0000
0000
0000
0000
0000
0000
0000
0000
0000
0000
0200
0000
0000
0000
0000
0000
0000
0000
0000
0000
0000
0000
M00M
0000
0000
0000
0000
0000
0000
0000
0000
0000
0000
0300
0200
0000
0000
0000
0000
0000
0000
0000
0000
0000
0000
0000
0000
0000
0000
0000
0000
0000
0000
0000
0000
0000
0000
0000
,
0310
0100
0010
0100
0010
0100
0010
0100
,
0010
0000
0100
0000
0010
0000
0100
0000
0010
0000
0100
0000
0010
0001
1000
0001
,
1M00
0001
1000
0001
1000
0001
1000
0001
,
1000
0000
0000
0000
0000
0000
0000
0000
0000
0000
0000
0000
0000
0000
0000
0000
0000
0000
0000
0000
0000
0000
0000
0000
0001
0000
0000
0000
0000
0000
0000
0000
0000
0000
0000
0000
0000
0000
0000
0000
0000
0000
0000
0000
0000
0000
0000
0000
1000
0000
0000
0000
0000
0000
0000
0000
0000
0000
0000
0000
0000
0000
0000
0000
0000
0000
0000
0000
0000
0000
0000
0000
0001
0000
0000
0000
0000
0000
0000
0000
0000
0000
0000
0000
0000
0000
0000
0000
0000
0000
0000
0000
0000
0000
0000
0000
1000
0000
0000
0000
0000
0000
0000
0000
0000
0000
0000
0000
0000
0000
0000
0000
0000
0000
0000
0000
0000
0000
0000
0000
0001
0000
0000
0000
0000
0000
0000
0000
0000
0000
0000
0000
0000
0000
0000
0000
0000
0000
0000
0000
0000
0000
0000
0000
0020
0000
0000
0000
0000
0000
0000
0000
0000
0000
0000
0000
M00M
0000
0000
0000
0000
0000
0000
0000
0000
0000
0000
0030
0020
0000
0000
0000
0000
0000
0000
0000
0000
0000
0000
0000
0000
0000
0000
0000
0000
0000
0000
0000
0000
0000
0000
0030
,
0100
0001
0100
0001
0100
0001
0100
0001
,
0100
0001
0100
0001
4000
0000
3000
0000
,
0001
0100
0010
1000
0010
1000
0001
0100
0010
1000
0010
1000
0001
0100
0010
0100
,
0001
1000
0010
0100
0001
0100
0001
1000
0010
1000
0001
1000
0004
0000
0000
0000
,
1003
0010
0100
0010
1000
0001
0100
0010
1000
0010
1000
0001
1000
0010
1000
0010
,
0100
0001
1000
0001
0100
0010
0100
0001
1000
0010
1000
0000
0010
0000
1000
0000
,
0001
0010
0100
1000
0100
1000
0001
0010
0001
0010
0100
1000
0001
0010
0100
0010
,
0001
1000
0100
0010
0100
1000
0001
0010
0100
1000
0001
1000
0004
0000
0000
0000
,
1003
0100
0010
0001
1000
0100
1000
0100
0010
0001
0010
0001
1000
0100
0010
0100
,
1000
0001
0010
0100
1000
0000
0001
0000
0000
0000
1000
0000
0001
0000
1000
0000
,
0001
0100
0010
0100
0001
1000
0010
0100
0010
1000
0010
1000
0001
0100
0010
1000
,
0001
1000
0010
0100
0010
1000
0001
1000
0010
1000
0010
0100
0004
0000
0000
0000
,
1003
0100
0010
0100
1000
0001
0010
0100
1000
0001
0010
0100
0010
0001
1000
0001
,
0010
0100
1000
0001
1000
0000
0001
0000
0000
0000
0001
0000
0100
0000
0010
0000
,
1000
0010
0100
0010
1000
0001
1000
0010
0100
0010
1000
0010
1000
0001
0100
0010
,
1000
0001
1000
0010
0100
0010
1000
0001
1000
0010
1000
0001
4000
0000
0000
0000
,
3001
0010
0100
0010
0001
1000
0100
0010
0001
1000
0100
0010
0100
1000
0001
1000
,
0100
0010
0001
1000
0001
0000
1000
0000
0000
0000
1000
0000
0001
0000
1000
0000
,
0001
0100
0010
0100
0010
1000
0001
0100
0010
0100
0001
1000
0010
0100
0001
1000
,
0010
0100
0001
1000
0010
0100
0010
1000
0001
0100
0010
0100
0001
1000
0010
0100
,
0001
1000
0100
0010
0001
1000
0100
0010
0100
1000
0001
0010
0001
1000
0100
0010
,
0001
1000
0100
1000
0001
0010
0100
0010
0001
1000
0100
0010
0001
1000
0100
1000
,
0100
1000
0001
0100
0010
0100
0001
1000
0010
0100
0001
0100
0010
1000
0001
0100
,
0010
0100
0001
1000
0010
0100
0001
1000
0001
0100
0010
1000
0001
0100
0010
0100
,
0001
1000
0100
0010
0001
1000
0100
0010
0100
1000
0001
0010
0100
0010
0001
1000
,
0100
0010
0001
1000
0001
0010
0100
1000
0001
1000
0001
1000
0001
1000
0001
1000
,
0001
0100
0001
0100
0010
1000
0010
0100
0001
1000
0001
1000
0010
0100
0001
1000
,
0001
1000
0010
1000
0010
0100
0001
0100
0001
1000
0001
0100
0010
0100
0001
1000
,
0001
0010
0100
1000
0001
1000
0001
0010
0100
0010
0001
0010
0100
1000
0100
1000
,
0001
0010
0100
1000
0001
0010
0100
0010
0001
1000
0100
0010
0100
1000
0100
1000
,
0001
0100
0010
1000
0010
0100
0001
1000
0010
1000
0001
0100
0010
0100
0001
1000
,
0010
0100
0001
1000
0001
0100
0010
0100
0001
1000
0010
0100
0001
1000
0010
0100
,
0001
1000
0100
1000
0100
1000
0001
0100
0001
1000
0001
0010
0100
1000
0001
0010
,
0100
0010
0001
1000
0100
0010
0100
1000
0001
0100
0010
0100
0001
1000
0100
0010
,
0002
0000
0000
0000
,
0003
0000
0000
0000
;
