#TITLE:Shining Rouge;
#SUBTITLE:;
#ARTIST:Xenothium;
#TITLETRANSLIT:;
#SUBTITLETRANSLIT:;
#ARTISTTRANSLIT:;
#CREDIT:;
#BANNER:../Zeppelin_bn.png;
#BACKGROUND:../bg_Zeppelin.png;
#LYRICSPATH:;
#CDTITLE:../cdtitle_ZAiA.png;
#MUSIC:Xenothium - Shining Rouge.ogg;
#OFFSET:0.929;
#SAMPLESTART:80.660;
#SAMPLELENGTH:25.700;
#SELECTABLE:YES;
#BPMS:0.000=150.000;
#STOPS:;
#BGCHANGES:;
// cache tags:
#FIRSTBEAT:4.000;
#LASTBEAT:400.000;
#SONGFILENAME:Songs/Cirque du Zeppelin/Shining Rouge - [Zaia]/Shining Rouge.sm;
#HASMUSIC:1;
#HASBANNER:1;
#MUSICLENGTH:165.903;
// end cache tags

//---------------dance-single - 32/3-31-16----------------
#NOTES:
     dance-single:
     32/3-31-16:
     Challenge:
     13:
     1.000,0.995,0.000,0.121,1.000,1356.000,0.000,20.000,0.000,0.000:
0000
0000
0000
0000
,
1000
0001
0100
0010
1000
0001
0010
0001
1000
0100
1000
0001
1000
0010
0100
0001
,
0010
0100
1000
0001
1000
0010
0100
0010
1000
0001
0010
0001
0100
0001
1000
0010
,
1000
0001
0010
0100
0010
0001
1000
0001
1000
0100
0010
0001
0010
0001
0100
0010
,
1000
0001
1000
0100
1000
0010
0100
0001
1000
0100
0010
0100
1000
0001
1000
0010
,
0100
0001
1000
0100
0010
0001
1000
0010
1000
0001
0100
0001
1000
0001
0010
0100
,
1000
0010
0100
0001
1000
0001
0010
0100
0010
0001
1000
0010
1000
0100
1000
0001
,
0010
0001
1000
0010
0100
0010
1000
0001
1000
0001
0100
0010
1000
0010
1000
0100
,
0010
0001
1000
0001
0100
0001
0010
0100
1000
0001
0100
0010
0100
0001
0010
0001
,
1000
0001
0010
0100
1000
0001
0100
0001
1000
0010
1000
0001
1000
0100
0010
0001
,
0100
0010
1000
0001
1000
0100
0010
0100
1000
0001
0100
0001
0010
0001
1000
0100
,
1000
0001
0100
0010
0100
0001
1000
0001
1000
0010
0100
0001
0100
0001
0010
0100
,
1000
0001
1000
0010
1000
0100
0010
0001
1000
0010
0100
0010
1000
0001
1000
0100
,
0010
0001
1000
0010
0100
0001
1000
0100
1000
0001
0010
0001
1000
0001
0100
0010
,
1000
0100
0010
0001
1000
0001
0100
0010
0100
0001
1000
0100
1000
0010
1000
0001
,
0100
0001
1000
0100
0010
0100
1000
0001
1000
0001
0010
0100
1000
0100
1000
0010
,
0100
0001
1000
0001
0010
0001
0100
0010
1000
0001
0010
0100
0010
0001
0100
0001
,
1000
0100
0010
0100
1000
0001
1000
0010
0100
0001
1000
0001
0010
0001
0100
0010
,
0100
0001
1000
0100
1000
0001
1000
0010
0100
0001
1000
0100
1000
0010
1000
0001
,
0010
0100
1000
0001
1000
0010
0100
0001
1000
0100
0010
0100
1000
0001
0100
0001
,
0010
0100
1000
0001
1000
0010
1000
0100
0010
0100
1000
0001
0100
0010
0100
0001
,
1000
0001
0010
0100
0010
0001
1000
0001
0100
0010
1000
0001
1000
0100
1000
0010
,
0100
0010
1000
0001
0010
0001
1000
0001
0100
0010
1000
0001
0010
0001
0100
0001
,
1000
0100
0010
0001
1000
0001
0100
0010
1000
0001
0010
0100
0010
0001
1000
0010
,
1000
0100
0010
0001
1000
0001
0100
0001
0010
0100
0010
0001
0100
0001
1000
0100
,
1000
0010
0100
0010
1000
0001
1000
0100
0010
0001
1000
0001
0100
0001
0010
0100
,
0010
0001
1000
0010
1000
0001
1000
0100
0010
0001
1000
0010
1000
0100
1000
0001
,
0100
0010
1000
0001
1000
0100
0010
0001
1000
0010
0100
0010
1000
0001
0010
0001
,
0100
0010
1000
0001
1000
0100
1000
0010
0100
0010
1000
0001
0010
0100
0010
0001
,
1000
0001
0100
0010
0100
0001
1000
0001
0010
0100
1000
0001
1000
0010
1000
0100
,
0010
0100
1000
0001
0100
0001
1000
0001
0010
0100
1000
0001
0100
0001
0010
0001
,
1000
0010
0100
0001
1000
0001
0010
0100
1000
0001
0100
0010
0100
0001
1000
0100
,
1000
0010
0100
0001
1000
0001
0010
0001
0100
0010
0100
0001
0010
0001
1000
0010
,
0200
0000
0000
0000
,
0000
0000
0000
0000
,
0301
1000
0010
0000
0000
0100
0001
0010
,
0100
0000
0000
1000
0000
0000
0001
0000
,
0100
0000
0000
0010
0000
0000
2000
0000
,
3002
0000
0000
0023
0000
0000
0230
0000
,
2300
0000
3000
0002
,
0203
0000
0000
0320
0000
0000
2030
0000
,
3002
0003
0000
2000
,
3200
0000
0000
0320
0000
0000
0230
0000
,
1300
0001
0100
0000
0000
0010
1000
0001
,
0010
0000
0000
0100
0000
0000
1000
0000
,
0010
0000
0000
0100
0000
0000
0002
0000
,
0023
0000
0000
0230
0000
0000
2300
0000
,
3001
0010
0100
1000
0001
0010
0100
1000
0001
1000
0010
0100
0001
1000
0010
0100
,
0001
1000
0100
1000
0001
0100
0010
0100
0001
1000
0001
0010
0100
1000
0001
1000
,
0010
0100
0010
0100
0001
1000
0001
0010
0100
0010
0001
1000
0001
0100
0010
1000
,
0001
0000
0000
0000
,
1000
0010
1000
0100
0010
0001
0010
0100
1000
0010
1000
0001
0100
0001
0010
0100
,
1000
0010
0100
0001
0100
0010
1000
0100
1000
0001
0010
0001
1000
0010
1000
0001
,
1000
0001
0010
0100
1000
0100
0010
0001
0100
0010
0100
0001
1000
0010
1000
0001
,
0010
0100
0010
0001
1000
0001
0100
0010
1000
0010
0100
0001
0010
0100
0010
0001
,
1000
0001
0100
0001
0010
0100
1000
0100
0010
0001
0100
0001
1000
0010
1000
0100
,
0010
0001
0100
0010
1000
0010
0100
0001
0010
0001
1000
0100
1000
0001
0100
0001
,
1000
0001
1000
0100
0010
0001
0010
0100
1000
0010
0100
0010
1000
0001
0100
0001
,
1000
0100
0010
0100
1000
0001
1000
0010
0100
0001
0100
0010
1000
0100
0010
0001
,
0100
0001
1000
0010
0100
0001
0100
0010
1000
0100
1000
0001
0010
0001
0100
0010
,
1000
0100
0010
0001
0010
0100
1000
0010
1000
0001
0100
0001
1000
0100
1000
0001
,
1000
0001
0100
0010
1000
0010
0100
0001
0010
0100
0010
0001
1000
0100
1000
0001
,
0100
0010
0100
0001
1000
0001
0010
0100
1000
0100
0010
0001
0100
0010
0100
0001
,
1000
0010
1000
0100
1000
0001
0010
0100
0010
0001
0100
0001
1000
0010
0100
0001
,
0010
0100
1000
0001
0100
0001
1000
0100
0010
0100
1000
0010
1000
0001
0100
0010
,
1000
0100
1000
0001
0010
0001
0100
0010
1000
0001
0010
0100
1000
0010
0100
0001
,
1000
0100
1000
0100
0010
0100
1000
0001
1000
0010
0100
0001
0010
0001
1000
0001
,
0100
0010
1000
0001
0010
0100
1000
0001
1000
0010
0100
0010
1000
0100
1000
0001
,
0010
0001
0100
0010
1000
0001
1000
0001
0010
0100
0010
0001
0100
0010
1000
0001
,
0010
0100
1000
0001
1000
0010
1000
0001
0100
0001
0010
0100
1000
0001
1000
0001
,
1000
0010
1000
0010
0100
0001
0010
0100
0010
0100
1000
0001
0100
0001
0010
0001
,
0010
0100
1000
0001
0100
0010
0100
0001
1000
0100
1000
0001
0010
0001
0100
0010
,
1000
0100
1000
0001
0010
0100
1000
0010
0100
0001
1000
0001
0010
0100
0010
0001
,
1000
0010
1000
0001
0100
0010
1000
0001
1000
0100
0010
0100
1000
0001
0010
0001
,
1000
0010
1000
0010
0100
0010
1000
0001
1000
0100
0010
0001
0100
0001
1000
0100
,
0010
0001
0100
0001
1000
0100
0010
0100
1000
0001
0100
0010
0100
0001
0010
0001
,
1000
0100
1000
0010
0100
0001
1000
0001
1000
0100
0010
0100
1000
0010
0100
0001
,
1000
0100
0010
0001
1000
0001
0100
0001
1000
0010
1000
0100
0010
0001
1000
0001
,
1000
0001
0100
0001
0100
0010
1000
0100
0010
0100
0010
0001
1000
0010
1000
0100
,
1000
0100
0010
0001
1000
0010
0100
0010
1000
0001
0010
0001
1000
0100
1000
0010
,
0100
0001
0010
0001
1000
0100
0010
0001
0100
0010
1000
0001
1000
0100
0010
0100
,
1000
0001
0100
0001
0010
0100
1000
0010
1000
0001
0010
0100
0010
0001
1000
0001
,
0100
0000
0000
0000
,
0001
0010
0100
0010
0001
1000
0001
0100
0010
1000
0001
1000
0100
1000
0010
0100
,
0010
1000
0001
0010
0001
1000
0001
0100
0010
1000
0001
0010
0001
0100
0001
1000
,
0100
0010
0001
1000
0001
0100
0010
1000
0001
0010
0100
0010
0001
1000
0010
1000
,
0100
0010
0001
1000
0001
0100
0001
0010
0100
0010
0001
1000
0010
0100
0010
1000
,
0001
1000
0100
0010
0100
1000
0001
1000
0010
0100
0001
1000
0001
0010
0001
0100
,
0010
0100
0001
1000
0100
1000
0001
1000
0010
0100
0001
1000
0100
1000
0010
1000
,
0001
0010
0100
1000
0001
1000
0010
0100
0001
1000
0100
0010
0100
1000
0001
0100
,
0001
0010
0100
1000
0001
1000
0010
1000
0100
0010
0100
1000
0010
1000
0001
0010
,
0001
0100
0010
0100
0001
1000
0001
0010
0100
1000
0001
1000
0010
1000
0100
0010
,
0100
1000
0001
0100
0001
1000
0001
0010
0100
1000
0001
0100
0001
0010
0001
1000
,
0010
0100
0001
1000
0001
0010
0100
1000
0001
0100
0010
0100
0001
1000
0100
1000
,
0010
0100
0001
1000
0001
0010
0001
0100
0010
0100
0001
1000
0100
0010
0100
1000
,
0001
1000
0010
0100
0010
1000
0001
1000
0100
0010
0001
1000
0001
0100
0001
0010
,
0100
0010
0001
1000
0010
1000
0001
1000
0100
0010
0001
1000
0010
1000
0100
1000
,
0001
0100
0010
1000
0001
1000
0100
0010
0001
1000
0010
0100
0010
1000
0001
0010
,
0001
0100
0010
1000
0001
1000
0100
1000
0010
0100
0010
1000
0100
1000
0001
0100
,
0020
0000
0000
0000
,
0030
0000
0000
0000
;

//---------------dance-single - 16/8/8/16----------------
#NOTES:
     dance-single:
     16/8/8/16:
     Hard:
     12:
     0.954,0.995,0.000,0.121,1.000,1088.000,0.000,20.000,0.000,0.000:
0000
0000
0000
0000
,
1000
0010
0100
0001
1000
0100
0010
0001
,
1000
0010
1000
0001
0100
0001
0010
0100
,
0010
0001
1000
0010
0100
0010
1000
0100
,
1000
0001
0010
0100
1000
0001
0100
0010
,
1000
0010
0100
0001
1000
0001
0010
0100
,
1000
0100
0010
0001
0100
0001
0010
0001
,
1000
0010
1000
0100
1000
0001
0100
0010
,
0100
0001
1000
0100
0010
0100
1000
0001
,
1000
0001
0010
0100
1000
0001
0100
0010
,
1000
0001
0010
0001
1000
0100
1000
0010
,
0100
0010
1000
0001
0010
0100
0010
0001
,
0100
0001
1000
0010
0100
0001
1000
0100
,
0010
0001
0010
0100
1000
0001
1000
0010
,
0100
0001
0100
0010
1000
0100
1000
0010
,
1000
0001
0010
0001
0100
0001
1000
0100
,
0010
0100
1000
0001
0100
0010
0100
0001
,
1000
0100
0010
0100
1000
0001
1000
0010
0100
0001
1000
0001
0010
0001
0100
0010
,
0100
0001
1000
0100
1000
0001
1000
0010
0100
0001
1000
0100
1000
0010
1000
0001
,
0010
0100
1000
0001
1000
0010
0100
0001
1000
0100
0010
0100
1000
0001
0100
0001
,
0010
0100
1000
0001
1000
0010
1000
0100
0010
0100
1000
0001
0100
0010
0100
0001
,
1000
0001
0010
0100
0010
0001
1000
0001
0100
0010
1000
0001
1000
0100
1000
0010
,
0100
0010
1000
0001
0010
0001
1000
0001
0100
0010
1000
0001
0010
0001
0100
0001
,
1000
0100
0010
0001
1000
0001
0100
0010
1000
0001
0010
0100
0010
0001
1000
0010
,
1000
0100
0010
0001
1000
0001
0100
0001
0010
0100
0010
0001
0100
0001
1000
0100
,
1000
0010
0100
0010
1000
0001
1000
0100
0010
0001
1000
0001
0100
0001
0010
0100
,
0010
0001
1000
0010
1000
0001
1000
0100
0010
0001
1000
0010
1000
0100
1000
0001
,
0100
0010
1000
0001
1000
0100
0010
0001
1000
0010
0100
0010
1000
0001
0010
0001
,
0100
0010
1000
0001
1000
0100
1000
0010
0100
0010
1000
0001
0010
0100
0010
0001
,
1000
0001
0100
0010
0100
0001
1000
0001
0010
0100
1000
0001
1000
0010
1000
0100
,
0010
0100
1000
0001
0100
0001
1000
0001
0010
0100
1000
0001
0100
0001
0010
0001
,
1000
0010
0100
0001
1000
0001
0010
0100
1000
0001
0100
0010
0100
0001
1000
0100
,
1000
0010
0100
0001
1000
0001
0010
0001
0100
0010
0100
0001
0010
0001
1000
0010
,
0200
0000
0000
0000
,
0000
0000
0000
0000
,
0301
1000
0010
0000
0000
0100
0001
0010
,
0100
0000
0000
1000
0000
0000
0001
0000
,
0100
0000
0000
0010
0000
0000
2000
0000
,
3002
0000
0000
0023
0000
0000
0230
0000
,
2300
0000
3000
0002
,
0203
0000
0000
0320
0000
0000
2030
0000
,
3002
0003
0000
2000
,
3200
0000
0000
0320
0000
0000
0230
0000
,
1300
0001
0100
0000
0000
0010
1000
0001
,
0010
0000
0000
0100
0000
0000
1000
0000
,
0010
0000
0000
0100
0000
0000
0002
0000
,
0023
0000
0000
0230
0000
0000
2300
0000
,
3001
0100
0010
1000
0001
0010
0100
1000
,
0001
0100
0010
0100
0001
1000
0100
0010
,
0100
1000
0001
0100
0001
0010
0100
1000
,
0010
0000
0000
0000
,
1000
0010
1000
0100
0010
0001
0010
0100
1000
0010
1000
0001
0100
0001
0010
0100
,
1000
0010
0100
0001
0100
0010
1000
0100
1000
0001
0010
0001
1000
0010
1000
0001
,
1000
0001
0010
0100
1000
0100
0010
0001
0100
0010
0100
0001
1000
0010
1000
0001
,
0010
0100
0010
0001
1000
0001
0100
0010
1000
0010
0100
0001
0010
0100
0010
0001
,
1000
0001
0100
0001
0010
0100
1000
0100
0010
0001
0100
0001
1000
0010
1000
0100
,
0010
0001
0100
0010
1000
0010
0100
0001
0010
0001
1000
0100
1000
0001
0100
0001
,
1000
0001
1000
0100
0010
0001
0010
0100
1000
0010
0100
0010
1000
0001
0100
0001
,
1000
0100
0010
0100
1000
0001
1000
0010
0100
0001
0100
0010
1000
0100
0010
0001
,
0100
0010
1000
0100
1000
0010
0100
0001
,
0010
0100
1000
0001
0100
0001
0010
0100
,
0010
0001
0100
0010
1000
0100
0010
0100
,
1000
0001
0100
0001
1000
0100
0010
0001
,
0010
0100
1000
0010
1000
0100
1000
0001
,
0100
0010
1000
0010
0100
0001
0010
0001
,
1000
0100
1000
0001
0100
0010
0100
0001
,
1000
0001
0010
0100
1000
0001
1000
0001
,
0100
0010
1000
0001
0010
0100
1000
0001
1000
0010
0100
0010
1000
0100
1000
0001
,
0010
0001
0100
0010
1000
0001
1000
0001
0010
0100
0010
0001
0100
0010
1000
0001
,
0010
0100
1000
0001
1000
0010
1000
0001
0100
0001
0010
0100
1000
0001
1000
0001
,
1000
0010
1000
0010
0100
0001
0010
0100
0010
0100
1000
0001
0100
0001
0010
0001
,
0010
0100
1000
0001
0100
0010
0100
0001
1000
0100
1000
0001
0010
0001
0100
0010
,
1000
0100
1000
0001
0010
0100
1000
0010
0100
0001
1000
0001
0010
0100
0010
0001
,
1000
0010
1000
0001
0100
0010
1000
0001
1000
0100
0010
0100
1000
0001
0010
0001
,
1000
0010
1000
0010
0100
0010
1000
0001
1000
0100
0010
0001
0100
0001
1000
0100
,
0010
0100
1000
0010
1000
0100
0010
0001
,
0100
0010
1000
0001
0010
0001
0100
0010
,
0100
0001
0010
0100
1000
0010
0100
0010
,
1000
0001
0010
0001
1000
0010
0100
0001
,
0100
0010
1000
0100
1000
0010
1000
0001
,
0010
0100
1000
0100
0010
0001
0100
0001
,
1000
0010
1000
0000
0001
0010
0001
0000
1000
0100
1000
0000
0001
0100
0001
0000
,
1000
0000
0000
0000
,
0001
0010
0100
0010
0001
1000
0001
0100
0010
1000
0001
1000
0100
1000
0010
0100
,
0010
1000
0001
0010
0001
1000
0001
0100
0010
1000
0001
0010
0001
0100
0001
1000
,
0100
0010
0001
1000
0001
0100
0010
1000
0001
0010
0100
0010
0001
1000
0010
1000
,
0100
0010
0001
1000
0001
0100
0001
0010
0100
0010
0001
1000
0010
0100
0010
1000
,
0001
1000
0100
0010
0100
1000
0001
1000
0010
0100
0001
1000
0001
0010
0001
0100
,
0010
0100
0001
1000
0100
1000
0001
1000
0010
0100
0001
1000
0100
1000
0010
1000
,
0001
0010
0100
1000
0001
1000
0010
0100
0001
1000
0100
0010
0100
1000
0001
0100
,
0001
0010
0100
1000
0001
1000
0010
1000
0100
0010
0100
1000
0010
1000
0001
0010
,
0001
0100
0010
0100
0001
1000
0001
0010
0100
1000
0001
1000
0010
1000
0100
0010
,
0100
1000
0001
0100
0001
1000
0001
0010
0100
1000
0001
0100
0001
0010
0001
1000
,
0010
0100
0001
1000
0001
0010
0100
1000
0001
0100
0010
0100
0001
1000
0100
1000
,
0010
0100
0001
1000
0001
0010
0001
0100
0010
0100
0001
1000
0100
0010
0100
1000
,
0001
1000
0010
0100
0010
1000
0001
1000
0100
0010
0001
1000
0001
0100
0001
0010
,
0100
0010
0001
1000
0010
1000
0001
1000
0100
0010
0001
1000
0010
1000
0100
1000
,
0001
0100
0010
1000
0001
1000
0100
0010
0001
1000
0010
0100
0010
1000
0001
0010
,
0001
0100
0010
1000
0001
1000
0100
1000
0010
0100
0010
1000
0100
1000
0001
0100
,
0020
0000
0000
0000
,
0030
0000
0000
0000
;

//---------------dance-single - 8/8/8----------------
#NOTES:
     dance-single:
     8/8/8:
     Medium:
     11:
     0.789,0.995,0.000,0.121,0.591,896.000,0.000,20.000,0.000,0.000:
0000
0000
0000
0000
,
1000
0010
0100
0001
1000
0100
0010
0001
,
1000
0010
1000
0001
0100
0001
0010
0100
,
0010
0001
1000
0010
0100
0010
1000
0100
,
1000
0001
0010
0100
1000
0001
0100
0010
,
1000
0010
0100
0001
1000
0001
0010
0100
,
1000
0100
0010
0001
0100
0001
0010
0001
,
1000
0010
1000
0100
1000
0001
0100
0010
,
0100
0001
1000
0100
0010
0100
1000
0001
,
1000
0001
0010
0100
1000
0001
0100
0010
,
1000
0001
0010
0001
1000
0100
1000
0010
,
0100
0010
1000
0001
0010
0100
0010
0001
,
0100
0001
1000
0010
0100
0001
1000
0100
,
0010
0001
0010
0100
1000
0001
1000
0010
,
0100
0001
0100
0010
1000
0100
1000
0010
,
1000
0001
0010
0001
0100
0001
1000
0100
,
0010
0100
1000
0001
0100
0010
0100
0001
,
1000
0100
0010
0100
1000
0001
1000
0010
0100
0001
1000
0001
0010
0001
0100
0010
,
0100
0001
1000
0100
1000
0001
1000
0010
0100
0001
1000
0100
1000
0010
1000
0001
,
0010
0100
1000
0001
1000
0010
0100
0001
1000
0100
0010
0100
1000
0001
0100
0001
,
0010
0100
1000
0001
1000
0010
1000
0100
0010
0100
1000
0001
0100
0010
0100
0001
,
1000
0001
0010
0100
0010
0001
1000
0001
0100
0010
1000
0001
1000
0100
1000
0010
,
0100
0010
1000
0001
0010
0001
1000
0001
0100
0010
1000
0001
0010
0001
0100
0001
,
1000
0100
0010
0001
1000
0001
0100
0010
1000
0001
0010
0100
0010
0001
1000
0010
,
1000
0100
0010
0001
1000
0001
0100
0001
0010
0100
0010
0001
0100
0001
1000
0100
,
1000
0001
1000
0100
0010
0001
1000
0010
,
0100
0001
1000
0100
1000
0001
0010
0001
,
0100
0010
0100
0001
1000
0100
0010
0100
,
1000
0010
1000
0001
0100
0010
1000
0001
,
0010
0100
1000
0100
0010
0001
1000
0001
,
0100
0010
1000
0010
0100
0001
0010
0001
,
0100
0001
1000
0100
1000
0010
1000
0001
,
0010
0100
0010
0001
1000
0010
0100
0010
,
0200
0000
0000
0000
,
0000
0000
0000
0000
,
0301
1000
0010
0000
0000
0100
0001
0010
,
0100
0000
0000
1000
0000
0000
0001
0000
,
0100
0000
0000
0010
0000
0000
2000
0000
,
3002
0000
0000
0023
0000
0000
0230
0000
,
2300
0000
3000
0002
,
0203
0000
0000
0320
0000
0000
2030
0000
,
3002
0003
0000
2000
,
3200
0000
0000
0320
0000
0000
0230
0000
,
1300
0001
0100
0000
0000
0010
1000
0001
,
0010
0000
0000
0100
0000
0000
1000
0000
,
0010
0000
0000
0100
0000
0000
0002
0000
,
0023
0000
0000
0230
0000
0000
2300
0000
,
3001
0100
0010
1000
0001
0010
0100
1000
,
0001
0100
0010
0100
0001
1000
0100
0010
,
0100
1000
0001
0100
0001
0010
0100
1000
,
0010
0000
0000
0000
,
1000
0010
1000
0100
0010
0001
0010
0100
1000
0010
1000
0001
0100
0001
0010
0100
,
1000
0010
0100
0001
0100
0010
1000
0100
1000
0001
0010
0001
1000
0010
1000
0001
,
1000
0001
0010
0100
1000
0100
0010
0001
0100
0010
0100
0001
1000
0010
1000
0001
,
0010
0100
0010
0001
1000
0001
0100
0010
1000
0010
0100
0001
0010
0100
0010
0001
,
1000
0001
0100
0001
0010
0100
1000
0100
0010
0001
0100
0001
1000
0010
1000
0100
,
0010
0001
0100
0010
1000
0010
0100
0001
0010
0001
1000
0100
1000
0001
0100
0001
,
1000
0001
1000
0100
0010
0001
0010
0100
1000
0010
0100
0010
1000
0001
0100
0001
,
1000
0100
0010
0100
1000
0001
1000
0010
0100
0001
0100
0010
1000
0100
0010
0001
,
0100
0010
1000
0100
1000
0010
0100
0001
,
0010
0100
1000
0001
0100
0001
0010
0100
,
0010
0001
0100
0010
1000
0100
0010
0100
,
1000
0001
0100
0001
1000
0100
0010
0001
,
0010
0100
1000
0010
1000
0100
1000
0001
,
0100
0010
1000
0010
0100
0001
0010
0001
,
1000
0100
1000
0001
0100
0010
0100
0001
,
1000
0001
0010
0100
1000
0001
1000
0001
,
0100
0010
1000
0100
1000
0010
0100
0001
,
0010
0100
1000
0001
0100
0001
0010
0100
,
0010
0001
0100
0010
1000
0100
0010
0100
,
1000
0001
0100
0001
1000
0100
0010
0001
,
0010
0100
1000
0010
1000
0100
1000
0001
,
0100
0010
1000
0010
0100
0001
0010
0001
,
1000
0100
1000
0001
0100
0010
0100
0001
,
1000
0001
0010
0100
1000
0001
1000
0001
,
0010
0100
1000
0010
1000
0100
0010
0001
,
0100
0010
1000
0001
0010
0001
0100
0010
,
0100
0001
0010
0100
1000
0010
0100
0010
,
1000
0001
0010
0001
1000
0010
0100
0001
,
0100
0010
1000
0100
1000
0010
1000
0001
,
0010
0100
1000
0100
0010
0001
0100
0001
,
1000
0010
1000
0000
0001
0010
0001
0000
1000
0100
1000
0000
0001
0100
0001
0000
,
1000
0000
0000
0000
,
0001
0010
0100
0010
0001
1000
0001
0100
0010
1000
0001
1000
0100
1000
0010
0100
,
0010
1000
0001
0010
0001
1000
0001
0100
0010
1000
0001
0010
0001
0100
0001
1000
,
0100
0010
0001
1000
0001
0100
0010
1000
0001
0010
0100
0010
0001
1000
0010
1000
,
0100
0010
0001
1000
0001
0100
0001
0010
0100
0010
0001
1000
0010
0100
0010
1000
,
0001
1000
0100
0010
0100
1000
0001
1000
0010
0100
0001
1000
0001
0010
0001
0100
,
0010
0100
0001
1000
0100
1000
0001
1000
0010
0100
0001
1000
0100
1000
0010
1000
,
0001
0010
0100
1000
0001
1000
0010
0100
0001
1000
0100
0010
0100
1000
0001
0100
,
0001
0010
0100
1000
0001
1000
0010
1000
0100
0010
0100
1000
0010
1000
0001
0010
,
0001
0100
0010
0100
0001
1000
0100
0010
,
0100
1000
0001
0100
0001
1000
0100
1000
,
0010
1000
0001
0010
0100
1000
0001
0100
,
0001
0010
0001
1000
0100
0010
0100
1000
,
0001
0100
0001
0100
0010
1000
0010
1000
,
0001
1000
0001
1000
0100
0010
0100
0010
,
0001
0010
0100
1000
0010
0100
0001
1000
,
0100
0010
0001
0100
0010
1000
0001
1000
,
0020
0000
0000
0000
,
0030
0000
0000
0000
;
