#TITLE:World Through My Fateless Eyes;
#SUBTITLE:;
#ARTIST:Lost Horizon;
#TITLETRANSLIT:;
#SUBTITLETRANSLIT:;
#ARTISTTRANSLIT:;
#CREDIT:;
#BANNER:../fallback-bn.png;
#BACKGROUND:../fallback-bg.png;
#LYRICSPATH:;
#CDTITLE:;
#MUSIC:Lost Horizon - World Through My Fateless Eyes.ogg;
#OFFSET:-0.446;
#SAMPLESTART:42.592;
#SAMPLELENGTH:12.000;
#SELECTABLE:YES;
#BPMS:0.000=150.000;
#STOPS:;
#BGCHANGES:;
// cache tags:
#FIRSTBEAT:0.000;
#LASTBEAT:757.000;
#SONGFILENAME:Songs/SSSC PACK/[Mad Matt] - World Through My Fateless Eyes/Lost Horizon - World Through My Fateless Eyes.sm;
#HASMUSIC:1;
#HASBANNER:1;
#MUSICLENGTH:308.824;
// end cache tags

//---------------dance-single - Blank----------------
#NOTES:
     dance-single:
     Blank:
     Challenge:
     12:
     0.963,1.000,0.000,0.214,1.000,2015.000,0.000,66.000,0.000,0.000:

1000
0000
0000
0000
0000
0000
1000
0000
0000
0100
0000
0000
0000
0000
0000
0100
0000
0000
1000
0000
0000
0000
0000
0000
0001
0000
1000
0000
0001
0000
1000
0000
0000
0000
0000
0000
0010
0000
0000
0000
0000
0000
0100
0000
0000
0000
0000
0000
,
0001
0000
0000
0000
0000
0000
0001
0000
0000
0100
0000
0000
0000
0000
0000
0100
0000
0000
0010
0000
0000
0000
0000
0000
1000
0000
0100
0000
1000
0000
0100
0000
0000
0000
0000
0000
0010
0000
0000
0000
0000
0000
0001
0000
0000
0000
0000
0000
,
1000
0000
0000
0000
0000
0000
1000
0000
0000
0010
0000
0000
0000
0000
0000
0010
0000
0000
0100
0000
0000
0000
0000
0000
0001
0000
0100
0000
0001
0000
0100
0000
0000
0000
0000
0000
0010
0000
0000
0000
0000
0000
1000
0000
0000
0000
0000
0000
,
0100
0000
0000
0000
0000
0000
0100
0000
0000
0010
0000
0000
0000
0000
0000
0010
0000
0000
0001
0000
0000
0000
0000
0000
1000
0000
0010
0000
1000
0000
0010
0000
0000
0000
0000
0000
0100
0000
0000
0000
0000
0000
0001
0000
0000
0000
0000
0000
,
1000
0000
0000
0000
0000
0000
1000
0000
0000
0001
0000
0000
0000
0000
0000
0001
0000
0000
0100
0000
0000
0000
0000
0000
0010
0000
1000
0000
0010
0000
1000
0000
0000
0000
0000
0000
0100
0000
0000
0000
0000
0000
0010
0000
0000
0000
0000
0000
,
0100
0000
0100
0010
0000
0010
0001
0000
1000
0100
1000
0001
0010
0001
1000
0100
,
0010
0001
0010
0001
1000
0001
1000
0100
1000
0100
0010
0100
0010
0001
0010
0100
,
1000
0010
1000
0001
1000
0001
0100
0001
0100
0010
0100
0010
1000
0010
1000
0100
,
0010
0000
0000
0000
0000
0000
0010
0000
0000
0001
0000
0000
0000
0000
0000
0001
0000
0000
1000
0000
0000
0000
0000
0000
0100
0000
0010
0000
0100
0000
0010
0000
0000
0000
0000
0000
0001
0000
0000
0000
0000
0000
0010
0000
0000
0000
0000
0000
,
0100
0000
0100
1000
0000
1000
0010
0000
1000
0010
1000
0001
0100
0001
1000
0010
,
0100
0001
0100
0001
1000
0001
1000
0010
1000
0010
0100
0010
0100
0001
0100
0010
,
1000
0100
1000
0001
1000
0001
0010
0001
0010
0100
0010
0100
1000
0100
1000
0001
,
0100
0000
0000
0000
0000
0000
0100
0000
0000
0010
0000
0000
0000
0000
0000
0010
0000
0000
1000
0000
0000
0000
0000
0000
0001
0000
0100
0000
0001
0000
0100
0000
0000
0000
0000
0000
0010
0000
0000
0000
0000
0000
1000
0000
0000
0000
0000
0000
,
0100
0000
0100
0010
0000
0010
0001
0000
1000
0010
0100
0001
0100
0010
1000
0100
,
1000
0001
1000
0001
0010
0001
0010
0100
0010
0100
1000
0100
1000
0001
0010
0001
,
1000
0001
1000
0010
1000
0010
0100
0010
0100
0001
0100
0001
1000
0001
1000
0100
,
0010
0000
0000
0000
0000
0000
0010
0000
0000
0001
0000
0000
0000
0000
0000
0001
0000
0000
1000
0000
0000
0000
0000
0000
0010
0000
0100
0000
0010
0000
0100
0000
0000
0000
0000
0000
0001
0000
0000
0000
0000
0000
1000
0000
0000
0000
0000
0000
,
0100
0000
0100
1000
0000
1000
0001
0010
0001
1000
0100
1000
0001
0010
0100
1000
,
0001
1000
0001
0100
0001
0100
0010
0100
0010
1000
0010
1000
0001
1000
0100
0010
,
0001
0010
0001
1000
0001
1000
0010
1000
0010
0100
0010
0100
0001
0100
0001
1000
,
0010
0000
0000
0000
0000
0000
0010
0000
0000
1000
0000
0000
0000
0000
0000
1000
0000
0000
0100
0000
0000
0000
0000
0000
0010
0000
0001
0000
0010
0000
0001
0000
0000
0000
0000
0000
1000
0000
0000
0000
0000
0000
0010
0000
0000
0000
0000
0000
,
1000
0010
0100
0001
1000
0010
1000
0001
0100
0001
0000
0000
1000
0100
0010
0001
0010
0100
1000
0000
0000
0000
0000
0000
,
1000
0100
1000
0001
0010
0000
0100
0000
1000
0000
0010
0000
0100
0000
0010
0000
,
1000
0010
0100
0001
0100
0000
0010
0000
0100
0000
0001
0000
1000
0000
0100
0000
,
0010
0001
0010
0100
1000
0000
0001
0100
0001
0000
1000
0100
1000
0000
0100
0000
,
0010
0001
0010
0100
1000
0000
0001
0100
0000
0100
0001
0000
1000
0001
0010
0001
,
1000
0010
0100
0001
0100
0010
1000
0001
0100
0010
1000
0001
1000
0100
1000
0001
,
1000
0100
1000
0001
0100
0010
1000
0010
0100
0001
1000
0001
1000
0100
0010
0100
,
1000
0001
0010
0100
1000
0100
0010
0001
1000
0001
1000
0100
0010
0001
0010
0100
,
1000
0010
1000
0010
1000
0010
1000
0001
0100
0001
0100
0001
0100
0001
1000
0100
,
0010
0000
0000
0000
0000
0000
0010
0000
0000
0001
0000
0000
0000
0000
0000
0001
0000
0000
1000
0000
0000
0000
0000
0000
0001
0000
0100
0000
0001
0000
0100
0000
0000
0000
0000
0000
0001
0000
0000
1000
0000
0000
0010
0000
0000
0000
0000
0000
,
0100
0000
0100
0001
0000
0001
0010
0000
0100
0000
0100
1000
0000
1000
0010
0000
,
0100
0000
0100
0001
0000
0001
0010
0000
0100
1000
0100
0000
0010
0001
0010
0000
,
0001
0000
0001
1000
0000
1000
0010
0000
0100
0010
0100
0000
0001
1000
0001
0000
,
0100
0000
0000
0000
0000
0000
0100
0000
0000
0001
0000
0000
0000
0000
0000
0001
0000
0000
0010
0000
0000
0000
0000
0000
0100
0000
1000
0000
0100
0000
1000
0000
0000
0000
0000
0000
0100
0000
0000
1000
0000
0000
0100
0000
0000
0000
0000
0000
,
0010
0000
0010
0001
0000
0001
0100
0000
0010
0000
1000
0010
0100
0001
0100
0010
,
1000
0100
0010
0001
1000
0100
0010
0001
0010
0100
1000
0001
0100
0010
0100
0010
,
1000
0001
0100
0001
1000
0100
1000
0001
0010
0100
1000
0001
1000
0001
0010
0100
,
1000
0000
0100
1000
0100
0000
0010
0000
0001
0000
1000
0000
0010
0000
0100
0010
,
1000
0100
0010
0001
0100
0001
2000
0000
,
3000
0100
0010
0001
0010
0000
0001
0100
,
0010
0000
1000
0000
0100
0000
0010
0000
0001
0000
0010
0000
0100
0000
1000
0010
,
0100
0000
0001
0010
0100
1000
0001
1000
0100
0010
0001
0100
0010
1000
0001
1000
,
0001
0100
0010
1000
0001
1000
0010
0100
0001
1000
0001
1000
0001
0010
0100
1000
,
0001
1000
0001
0010
0001
1000
0010
0100
0001
0100
0001
1000
0100
0010
0001
0010
,
0100
1000
0001
0100
0010
1000
0001
0100
0010
1000
0001
0100
0001
1000
0010
1000
,
0100
0000
0000
0000
0000
0000
0100
0000
0000
1000
0000
0000
0000
0000
0000
1000
0000
0000
0001
0000
0000
0000
0000
0000
1000
0000
0010
0000
1000
0000
0010
0000
0000
0000
0000
0000
1000
0000
0000
0001
0000
0000
0100
0000
0000
0000
0000
0000
,
0010
0000
0010
1000
0000
1000
0100
0000
0010
0000
0010
0001
0000
0001
0100
0000
,
0010
0000
1000
0001
0000
0100
0010
0000
1000
0000
0001
0100
0000
0010
1000
0000
,
0001
0000
0000
0000
0000
0000
0010
0000
0000
0100
0000
0000
0000
0000
0000
1000
0000
0000
0001
0000
0000
0000
0000
0000
0010
0000
0000
0100
0000
0000
1000
0000
0100
0000
0010
0000
0001
0000
0000
0000
0000
0000
0000
0000
0000
0000
0000
0000
,
0010
0000
0010
0100
0000
0100
1000
0000
0001
0100
0010
0000
1000
0010
0100
0000
,
0010
0000
0010
1000
0000
1000
0100
0000
0010
0001
0010
0000
0100
1000
0100
0000
,
1000
0001
1000
0010
1000
0001
1000
0001
0010
0001
1000
0001
0010
0100
1000
0001
,
1000
0010
0100
0001
0100
0010
1000
0001
0020
0000
0000
0230
0000
0000
2300
0000
,
3001
0000
0000
0000
0000
0000
0001
0000
0000
0100
0000
0000
0000
0000
0000
0100
0000
0000
0010
0000
0000
0000
0000
0000
1000
0000
0001
0000
1000
0000
0001
0000
0000
0000
0000
0000
0010
0000
0000
0100
0000
0000
0010
0000
0000
0000
0000
0000
,
0001
0000
0001
1000
0000
1000
0010
0000
0100
0000
0100
0001
0000
0001
1000
0000
,
0010
0000
1000
0010
0000
0100
0001
0000
1000
0000
0001
0010
0000
0100
1000
0000
,
0010
0000
0000
0000
0000
0000
0100
0000
0000
0001
0000
0000
0000
0000
0000
1000
0000
0000
0001
0000
0000
0000
0000
0000
0010
0000
0000
0100
0000
0000
1000
0000
0100
0000
0010
0000
0001
0000
0000
0000
0000
0000
1000
0000
0000
0000
0000
0000
,
0010
0000
0010
0100
0000
0100
0001
0000
1000
0000
1000
0100
0000
0100
0010
0000
,
0001
0000
0001
1000
0000
0010
0100
0000
0001
0000
1000
0100
0000
0010
0001
0000
,
1000
0010
0100
0001
0100
0010
1000
0010
0100
0010
0100
0001
1000
0100
1000
0001
,
1000
0100
0010
0001
0010
0100
1000
0010
0100
0001
1000
0010
0100
0001
0100
0002
,
2000
0000
0000
0000
0000
0000
0000
0000
0000
0000
0000
0000
0000
0000
0000
3003
,
0001
0000
0000
0001
0000
0000
1000
0000
0100
0000
1000
0000
0001
0000
0000
0000
,
0010
0000
0000
0010
0000
0000
0100
0000
1000
0000
0010
0000
1000
0000
0000
0000
,
0010
0000
0000
0010
0000
0000
0100
0000
0001
0000
0010
0000
0001
0000
0000
0000
,
0010
0000
0000
0000
0000
0000
0000
0000
0000
0010
0000
0000
0000
0000
0000
0000
0000
0000
0100
0000
0000
0000
0000
0000
1000
0000
0100
0000
1000
0000
0100
0000
0000
0000
0000
0000
0010
0000
0000
0000
0000
0000
0001
0000
0000
0000
0000
0000
,
0100
0000
0000
0010
0000
0000
0100
0000
0001
0000
1000
0000
0100
0000
0000
0000
,
1000
0000
0000
0000
0000
0000
0000
0000
0000
0100
0000
0000
0000
0000
0000
0000
0000
0000
0010
0000
0000
0000
0000
0000
0001
0000
0010
0000
0001
0000
0010
0000
0000
0000
0000
0000
0100
0000
0000
0000
0000
0000
1000
0000
0000
0000
0000
0000
,
0010
0000
0000
0000
0000
0000
0000
0000
0000
0100
0000
0000
0000
0000
0000
0000
0000
0000
0010
0000
0000
0000
0000
0000
1000
0000
0100
0000
1000
0000
0100
0000
0000
0000
0000
0000
0010
0000
0000
0000
0000
0000
0001
0000
0000
0000
0000
0000
,
1000
0000
0000
0010
0100
0010
1000
0000
0100
0000
0010
0000
0100
0000
1000
0000
,
0002
0000
0000
0023
,
0230
0000
0000
0000
,
1300
0000
0001
0100
0001
0000
1000
0010
1000
0000
0010
0100
0010
0000
1000
0001
,
1000
0000
0001
0010
0001
0000
1000
0100
1000
0000
0001
0100
0010
1000
0010
0100
,
0001
0000
1000
0100
0010
0000
0001
1000
0010
0000
0100
0001
1000
0000
0010
0100
,
0001
0100
0010
1000
0100
0000
0010
0001
0010
0100
1000
0000
0100
0010
0200
0000
,
2300
0000
0000
0000
0000
0002
3000
0203
,
0020
0000
0300
0230
0020
0000
0300
0030
,
2000
0000
3000
0010
0100
0010
0100
0000
0002
0000
0000
2003
0000
0000
3200
0000
,
0320
0000
0030
0001
0100
0010
0200
0000
0320
0000
0000
0230
0000
0000
0302
0000
,
2003
0000
0000
0000
0000
0000
0000
0000
0000
0000
0000
0000
3001
0010
0100
1000
,
0200
0000
0000
0000
0000
0000
0310
0000
0002
0000
0000
2003
0000
0000
3010
0000
,
0200
0000
0000
0000
0000
0000
0000
0000
0320
0000
0000
2030
0000
0000
3100
0000
,
2000
0000
0000
3020
0000
0000
0130
0000
0200
0000
0000
0000
0000
0000
0000
0000
,
0301
0100
0010
1000
0010
0100
0001
1000
0001
1000
0100
0010
0001
1000
0001
0010
,
0100
1000
0010
1000
0100
0010
0001
1000
0001
0010
0100
1000
0010
0100
0010
0100
,
0002
0000
0000
0000
0000
0000
1003
0100
2000
0000
0000
0000
0000
0000
0000
0000
,
3020
0000
0000
0000
0000
0000
0130
0001
0200
0000
0000
0000
0000
0000
0310
1000
,
0010
0100
0001
1000
0100
1000
0001
0010
0100
1000
0010
0100
0001
1000
0001
1000
,
0010
0100
0001
1000
0100
1000
0010
1000
0100
0010
0100
1000
0001
0010
0001
1000
,
0001
0010
0100
1000
0001
1000
0100
0010
0001
1000
0010
1000
0100
1000
0001
0100
,
0010
0000
0000
0100
0000
0000
0001
0000
0000
1000
0000
0000
0001
0000
0000
1000
0000
0000
0100
0000
0000
0010
0000
0000
0001
0000
0000
0000
0000
0000
1000
0000
0100
0000
1000
0000
0100
0000
0000
0000
0000
0000
0000
0000
0000
0000
0000
0000
,
0010
0000
0000
0010
0000
0000
0001
0000
0100
0000
0001
0000
1000
0000
0000
0000
,
0100
0000
0000
0100
0000
0000
0010
0000
0001
0000
1000
0000
0001
0000
0000
0000
,
0100
0000
0000
0100
0000
0000
0010
0000
1000
0000
0001
0000
1000
0000
0000
0000
,
0100
0000
0000
0000
0000
0000
0000
0000
0000
0100
0000
0000
0000
0000
0000
0000
0000
0000
0010
0000
0000
0000
0000
0000
0001
0000
0010
0000
0001
0000
0010
0000
0000
0000
0000
0000
0100
0000
0000
0000
0000
0000
1000
0000
0000
0000
0000
0000
,
0010
0000
0000
0100
0000
0000
0010
0000
1000
0000
0001
0000
0010
0000
0000
0000
,
0001
0000
0000
0000
0000
0000
0000
0000
0000
0010
0000
0000
0000
0000
0000
0000
0000
0000
0100
0000
0000
0000
0000
0000
1000
0000
0100
0000
1000
0000
0100
0000
0000
0000
0000
0000
0010
0000
0000
0000
0000
0000
0001
0000
0000
0000
0000
0000
,
0100
0000
0000
0000
0000
0000
0000
0000
0000
0010
0000
0000
0000
0000
0000
0000
0000
0000
0100
0000
0000
0000
0000
0000
0001
0000
0010
0000
0001
0000
0010
0000
0000
0000
0000
0000
0100
0000
0000
0000
0000
0000
1000
0000
0000
0000
0000
0000
,
0001
0000
0000
0100
0010
0100
0001
0000
0010
0000
0100
0000
0010
0000
0001
0000
,
2000
0000
0000
0000
0000
0000
3001
0000
0002
0000
0000
0000
0000
0000
1003
0100
,
1000
0000
0010
0000
0100
0000
0010
0000
2000
0000
0000
0000
0000
0000
3100
0010
,
0100
1000
0001
0100
0001
1000
0100
0010
,
0001
0000
0000
0010
0000
0000
0100
0000
0000
1000
0000
0000
0001
0000
0000
1000
0010
1000
0010
0000
0000
0100
0000
0000
,
0001
1000
0010
0100
0001
0100
0010
1000
0001
1000
0001
0010
0100
1000
0100
0010
,
0100
0010
0001
1000
0100
0010
0001
0100
0010
1000
0100
0010
0001
1000
0001
0010
,
0100
1000
0100
1000
0001
0010
0100
1000
0010
0100
0001
1000
0001
1000
0010
0100
,
0001
1000
0100
0010
0001
1000
0001
0010
0100
1000
0010
0100
0010
0100
0001
1000
,
0200
0000
0000
0000
2300
0000
0000
3010
,
0020
0000
0000
0000
2030
0000
0000
3001
,
0002
0000
0000
0023
0000
0000
0130
0000
2000
0000
0000
3020
0000
0000
0130
0000
,
0020
0000
0000
2030
0000
0000
3100
0000
0020
0000
0000
0000
0032
0000
0000
0000
,
1003
0100
1000
0100
0010
0001
1000
0100
1000
0100
0010
0001
1000
0001
0010
0100
,
1000
0001
0100
0010
1000
0010
0100
0010
1000
0001
1000
0010
0100
0001
1000
0001
,
1000
0100
1000
0001
0010
0100
1000
0010
1000
0100
0010
0001
1000
0010
1000
0100
,
1000
0001
0010
0100
1000
0010
1000
0010
0100
0001
1000
0001
0010
0001
1000
0000
,
0001
0100
0001
0000
1000
0010
1000
0000
0010
0100
0010
0000
0100
0001
0100
0000
,
0010
1000
0010
0000
0100
0010
0100
0000
0001
1000
0001
0000
1000
0100
1000
0000
,
0001
0010
0001
0000
0010
0100
0010
0000
0100
1000
0100
0000
1000
0001
1000
0000
,
0001
0100
0001
0000
1000
0010
1000
0000
0010
0100
0010
0000
0100
0001
0100
0000
,
0010
1000
0001
0000
1000
0100
0010
0000
0001
1000
0010
0000
1000
0001
0010
0000
,
0100
1000
0001
0000
1000
0010
0100
0000
0001
1000
0100
0000
0010
0001
1000
0000
,
0100
0010
0001
0000
1000
0010
0100
0000
0001
1000
0010
0000
0100
0001
1000
0000
,
0001
0100
0010
1000
0001
0100
0001
1000
0010
1000
0000
0000
0001
0010
0100
1000
0100
0010
0001
0000
0000
0000
0000
0000
,
1000
0000
0000
0000
0000
0000
1000
0000
0000
0100
0000
0000
0000
0000
0000
0100
0000
0000
1000
0000
0000
0000
0000
0000
0001
0000
0100
0000
0001
0000
0100
0000
0000
0000
0000
0000
0010
0000
0000
1000
0000
0000
0010
0000
0000
0000
0000
0000
,
0100
0000
0100
0001
0000
0001
1000
0000
0010
0000
0010
0100
0000
0100
0001
0000
,
1000
0000
1000
0100
0000
0100
0010
0000
0001
1000
0001
0000
1000
0001
1000
0000
,
0001
0100
0010
0000
1000
0001
0100
0000
0010
1000
0001
0000
0010
0100
1000
0000
,
0001
0000
0000
0000
0000
0000
0001
0000
0000
0010
0000
0000
0000
0000
0000
0010
0000
0000
0100
0000
0000
0000
0000
0000
1000
0000
0001
0000
1000
0000
0001
0000
0000
0000
0000
0000
0010
0000
0000
0100
0000
0000
0010
0000
0000
0000
0000
0000
,
0100
0000
0100
1000
0000
1000
0001
0000
1000
0000
1000
0100
0010
0100
1000
0001
,
1000
0100
0010
0100
1000
0001
1000
0010
0100
0001
0100
0010
1000
0001
1000
0001
,
0010
0100
1000
0100
0010
0100
1000
0001
1000
0010
0100
0001
1000
0010
0100
0001
,
1000
0000
0000
0000
0000
0000
1000
0000
0000
0010
0000
0000
0000
0000
0000
0010
0000
0000
1000
0000
0000
0000
0000
0000
0001
0000
0010
0000
0001
0000
0010
0000
0000
0000
0000
0000
0100
0000
0000
0010
0000
0000
0100
0000
0000
0000
0000
0000
,
0010
0000
0010
0001
0000
0001
1000
0000
0100
0000
0100
0010
0000
0010
0001
0000
,
1000
0000
1000
0010
0000
0010
0100
0000
0001
1000
0001
0000
1000
0001
1000
0000
,
0001
1000
0010
0000
1000
0100
0010
0000
0001
1000
0010
0000
0100
0001
0010
0000
,
0001
0000
0000
0000
0000
0000
0001
0000
0000
0100
0000
0000
0000
0000
0000
0100
0000
0000
0010
0000
0000
0000
0000
0000
1000
0000
0001
0000
1000
0000
0001
0000
0000
0000
0000
0000
0100
0000
0000
0010
0000
0000
0100
0000
0000
0000
0000
0000
,
0010
0000
0010
1000
0000
1000
0001
0000
1000
0000
1000
0010
0100
0010
1000
0001
,
1000
0010
0100
0010
1000
0001
1000
0100
0010
0001
0010
0100
1000
0001
1000
0001
,
0100
0010
1000
0010
0100
0010
1000
0001
1000
0100
0010
0001
1000
0100
0010
0001
,
1000
0000
0100
1000
0100
0000
0010
0000
0001
0000
1000
0000
0010
0000
0100
0001
,
1000
0100
0010
0001
0200
0000
0000
0310
,
1000
0100
1000
0100
0010
0001
1000
0010
,
1000
0000
0100
0000
0010
0000
0001
0000
0010
0000
0100
0000
1000
0000
0001
0100
,
0010
0000
1000
0001
1000
0010
1000
0001
1000
0100
0010
0001
1000
0100
0010
0001
,
1000
0001
0100
0001
1000
0001
0100
0001
1000
0100
0010
0001
1000
0001
1000
0100
,
0010
0001
0100
0001
0010
0100
1000
0010
0100
0010
1000
0001
0010
0100
1000
0100
,
0010
0001
1000
0010
0100
0001
1000
0010
0100
0001
1000
0010
1000
0001
0100
0001
,
0010
0000
0000
0000
0000
0000
0010
0000
0000
0001
0000
0000
0000
0000
0000
0001
0000
0000
1000
0000
0000
0000
0000
0000
0001
0000
0100
0000
0001
0000
0100
0000
0000
0000
0000
0000
0001
0000
0000
1000
0000
0000
0010
0000
0000
0000
0000
0000
,
0100
0000
0100
0001
0000
0001
0010
0000
0100
0000
0100
1000
0000
1000
0010
0000
,
0100
0000
0001
1000
0000
0010
0100
0000
0001
0000
1000
0010
0000
0100
0001
0000
,
1000
0000
0000
0000
0000
0000
0100
0000
0000
0010
0000
0000
0000
0000
0000
0001
0000
0000
1000
0000
0000
0000
0000
0000
0100
0000
0000
0010
0000
0000
0001
0000
0010
0000
0100
0000
1000
0000
0000
0000
0000
0000
0000
0000
0000
0000
0000
0000
,
0100
0000
0100
0010
0000
0010
0001
0000
1000
0010
0100
0000
0001
0100
0010
0000
,
0100
0000
0100
0001
0000
0001
0010
0000
0100
1000
0001
0000
1000
0010
0100
0000
,
0001
0010
0100
1000
0001
1000
0010
1000
0001
1000
0010
1000
0010
0100
0001
0010
,
0100
1000
0010
1000
0100
0010
0001
1000
0200
0000
0000
0320
0000
0000
0032
0000
,
1003
0000
0000
0000
0000
0000
1000
0000
0000
0010
0000
0000
0000
0000
0000
0010
0000
0000
0100
0000
0000
0000
0000
0000
0001
0000
1000
0000
0001
0000
1000
0000
0000
0000
0000
0000
0100
0000
0000
0010
0000
0000
0100
0000
0000
0000
0000
0000
,
1000
0000
1000
0001
0000
0001
0100
0000
0010
0000
0010
1000
0000
1000
0001
0000
,
0100
0000
0001
0100
0000
0010
1000
0000
0001
0000
1000
0100
0000
0010
0001
0000
,
0100
0000
0000
0000
0000
0000
0010
0000
0000
1000
0000
0000
0000
0000
0000
0001
0000
0000
1000
0000
0000
0000
0000
0000
0100
0000
0000
0010
0000
0000
0001
0000
0010
0000
0100
0000
1000
0000
0000
0000
0000
0000
0001
0000
0000
0000
0000
0000
,
0100
0000
0100
0010
0000
0010
1000
0000
0001
0000
0001
0010
0000
0010
0100
0000
,
1000
0000
1000
0001
0000
0100
0010
0000
1000
0000
0001
0010
0000
0100
1000
0000
,
0100
0010
0001
0100
0001
0010
0100
1000
0010
0100
0001
0010
0100
1000
0001
1000
,
0001
0010
0100
1000
0001
1000
0100
0010
0001
0100
0010
1000
0010
0100
0001
2000
,
0002
0000
0000
0000
0000
0000
0000
0000
0000
0000
0000
0000
0000
0000
0000
3003
,
1000
0000
0000
1000
0000
0000
0001
0000
0010
0000
0001
0000
1000
0000
0000
0000
,
0100
0000
0000
0100
0000
0000
0010
0000
0001
0000
0100
0000
0001
0000
0000
0000
,
0100
0000
0000
0100
0000
0000
0010
0000
1000
0000
0100
0000
1000
0000
0000
0000
,
0100
0000
0000
0000
0000
0000
0000
0000
0000
0100
0000
0000
0000
0000
0000
0000
0000
0000
0010
0000
0000
0000
0000
0000
0001
0000
0010
0000
0001
0000
0010
0000
0000
0000
0000
0000
0100
0000
0000
0000
0000
0000
1000
0000
0000
0000
0000
0000
,
0010
0000
0000
0100
0000
0000
0010
0000
1000
0000
0001
0000
0010
0000
0000
0000
,
0001
0000
0000
0000
0000
0000
0000
0000
0000
0010
0000
0000
0000
0000
0000
0000
0000
0000
0100
0000
0000
0000
0000
0000
1000
0000
0100
0000
1000
0000
0100
0000
0000
0000
0000
0000
0010
0000
0000
0000
0000
0000
0001
0000
0000
0000
0000
0000
,
0100
0000
0000
0000
0000
0000
0000
0000
0000
0010
0000
0000
0000
0000
0000
0000
0000
0000
0100
0000
0000
0000
0000
0000
0001
0000
0010
0000
0001
0000
0010
0000
0000
0000
0000
0000
0100
0000
0000
0000
0000
0000
1000
0000
0000
0000
0000
0000
,
0001
0000
0000
0100
0010
0100
0001
0000
0010
0000
0100
0000
0010
0000
0001
0000
,
2000
0000
0000
3002
,
0203
0000
0000
0000
,
0310
0000
0000
0000
0000
0000
0000
0000
0000
0000
0000
0000
1000
0100
0000
0000
,
0000
0000
0000
0000
0010
0000
0000
0000
0000
0000
0000
0000
0001
0010
0000
0000
,
0100
0000
0000
0000
1000
0010
0000
0000
0100
0000
0000
0100
0000
0000
0001
0000
,
1000
0000
0010
0000
0100
0000
0000
0000
0001
0000
0000
0001
0000
0000
1000
0000
,
0100
0000
0010
0000
0100
0000
0000
0000
1000
0000
0000
1000
0000
0000
0001
0000
,
0100
0000
0001
0000
0010
0000
0000
0000
0100
0000
0000
0100
0000
0000
1000
0000
,
0001
0000
0100
0000
0001
0000
0100
0000
0000
0000
0000
0000
0010
0000
0000
0000
0000
0000
1000
0000
0000
0000
0000
0000
0100
0000
0000
0000
0000
0000
0000
0000
0000
0010
0000
0000
0000
0000
0000
0000
0000
0000
0100
0000
0000
0000
0000
0000
,
1000
0000
0001
0000
0100
0000
0000
0000
0010
0000
0000
0100
0000
0000
0010
0000
,
1000
0000
0100
0000
1000
0000
0100
0000
0000
0000
0000
0000
0010
0000
0000
0000
0000
0000
0001
0000
0000
0000
0000
0000
0010
0000
0000
0000
0000
0000
0000
0000
0000
0100
0000
0000
0000
0000
0000
0000
0000
0000
0010
0000
0000
0000
0000
0000
,
0001
0000
0100
0000
0001
0000
0100
0000
0000
0000
0000
0000
0010
0000
0000
0000
0000
0000
1000
0000
0000
0000
0000
0000
0001
0000
0000
0000
0000
0000
0000
0000
0000
0010
0000
0000
0100
0000
0000
0010
0000
0000
0001
0000
0000
0000
0000
0000
,
0100
0010
0100
0001
2000
0000
0000
0000
,
0000
3002
0023
0000
,
0000
0000
0000
0000
0000
0000
0000
0030
0100
0000
0100
0010
0000
0010
0001
0000
,
1000
0010
0100
0001
0100
0010
1000
0000
0000
0000
0000
0000
0000
0000
0000
0000
0000
0000
0000
0000
0000
0000
0000
0000
;
