#TITLE:I Want It That Way;
#SUBTITLE:Sexuality Violation;
#ARTIST:Backstreet Boys;
#TITLETRANSLIT:;
#SUBTITLETRANSLIT:;
#ARTISTTRANSLIT:;
#CREDIT:;
#BANNER:I Want It That Way-bn.png;
#BACKGROUND:I Want It That Way-bg.png;
#LYRICSPATH:;
#CDTITLE:GazeboCD.png;
#MUSIC:I Want It That Way.ogg;
#OFFSET:-0.545;
#SAMPLESTART:48.402;
#SAMPLELENGTH:19.370;
#SELECTABLE:YES;
#BPMS:0.000=198.073;
#STOPS:;
#BGCHANGES:;
// cache tags:
#FIRSTBEAT:10.000;
#LASTBEAT:692.000;
#SONGFILENAME:Songs/Sexuality Violation 2/I Want It That Way - [Gazebo]/I Want It That Way.sm;
#HASMUSIC:1;
#HASBANNER:1;
#MUSICLENGTH:210.327;
// end cache tags

//---------------dance-single - Gazebo----------------
#NOTES:
     dance-single:
     Gazebo:
     Challenge:
     15:
     1.000,1.000,0.062,0.152,1.000,1626.000,13.000,32.000,8.000,4.000:
0000
0000
0000
0000
,
0000
0000
0000
0000
,
0000
0000
2000
3020
,
0000
0230
0000
0000
,
0301
1000
0100
0010
,
0001
0100
0001
1000
,
0010
0100
0001
1000
,
0100
0000
0010
0000
0001
1000
0010
0000
,
1M00
00M1
1000
0000
0001
0000
0010
0000
,
0100
0000
1000
0000
0010
0100
0010
0000
,
1000
0010
1000
0001
1000
0000
0100
0010
,
0100
1000
0100
0000
0010
0001
1000
0000
,
0001
0100
0010
1000
,
0001
0000
0010
0000
0100
1000
0100
0000
,
1000
0001
0100
0001
1000
0000
0010
0100
,
0001
1000
0100
0000
0010
0001
1000
0000
,
0M01
10M0
0001
0000
0100
0000
0001
0000
,
1000
0000
0100
0000
0010
0001
0010
0000
,
0100
1000
0001
1000
0010
0000
0100
0010
,
1000
0001
1000
0000
0001
0000
0010
0000
,
0100
1000
0100
1000
0100
0000
1000
0001
,
1000
0001
1000
0000
0010
0100
0010
0000
,
1000
0010
1000
0001
1000
0000
0100
0010
,
0002
0000
0003
0000
1001
1000
0100
0010
,
0001
1000
0001
1000
0100
0010
0001
0010
,
0001
1000
0001
1000
0010
0100
0001
1000
,
0001
0100
0001
1000
0010
0100
0010
0100
0001
1000
0001
1000
0100
0010
0001
1000
,
0001
1000
0100
0010
0001
0000
1000
0000
0100
0000
1000
0000
0010
0000
1000
0000
,
0001
0010
0001
0010
0100
1000
0001
1000
,
0001
0010
0001
1000
0010
0100
0001
1000
,
0001
0010
0001
1000
0100
0010
0100
0010
0001
1000
0001
1000
0010
0100
0001
1000
,
0001
1000
0010
0100
0001
0100
0010
1000
0100
1000
0001
0010
0100
0010
0001
1000
,
0001
0100
0010
1000
0100
0010
0001
0010
,
0001
1000
0100
1000
0010
0100
0001
1000
,
0001
0010
0001
1000
0100
1000
0001
1000
0100
0010
0001
1000
0010
1000
0001
0100
,
0010
0100
0001
1000
0010
1000
0001
0100
0010
1000
0001
0100
0001
0000
0000
0000
,
1000
0100
0010
0100
1000
0100
0010
0001
1000
0100
0010
0001
1000
0010
0100
0001
,
1000
0010
1000
0001
0100
0010
1000
0100
0010
0100
1000
0001
1000
0001
0010
0100
,
2000
0000
0000
0002
,
0000
3003
1000
0000
1001
0000
0001
0000
,
0100
0000
0010
0000
0100
0000
0000
0000
0001
0100
0010
1000
0010
1000
0001
1000
,
0100
0010
0001
0010
0100
1000
0001
0100
0010
1000
0010
0100
0001
1000
0001
1000
,
0100
0010
0001
0010
0100
0010
0001
0010
0100
1000
0001
1000
0010
0100
0001
0100
,
0010
0100
0001
0100
0010
1000
0100
0010
0001
0000
0000
0000
1000
0000
0000
0000
,
0010
0000
0100
0000
0010
0000
0000
0000
1000
0010
0100
0001
0100
0001
1000
0001
,
0010
0100
1000
0100
0010
0001
1000
0010
0100
0001
0100
0010
1000
0001
1000
0001
,
0010
0100
1000
0100
0010
0100
1000
0100
0010
0001
1000
0001
0100
0010
1000
0010
,
0100
0010
1000
0010
0100
0001
0010
0100
1000
0001
1000
0001
0010
0100
1000
0001
,
0100
0000
0010
0000
1000
0100
1000
0000
,
0001
0010
0001
0100
0010
1000
0100
1000
,
0001
0010
0001
1000
0100
1000
0001
0100
0010
0100
0001
1000
0100
0010
0001
0010
,
0001
0100
0010
0100
0001
1000
0001
1000
0001
0000
0000
0000
0100
0000
0000
0000
,
0001
0100
0010
0100
0001
0100
0010
1000
0001
0100
0010
1000
0100
0010
0100
1000
,
0001
0010
0001
1000
0100
0010
0001
0100
0010
0100
0001
1000
0001
1000
0010
0100
,
0001
1000
0100
1000
0100
0010
0001
1000
0010
0100
0001
0100
0010
0100
0001
1000
,
0001
1000
0010
0100
0001
0100
0010
1000
0001
0000
1000
0000
0100
0000
0000
0000
,
1000
0001
1000
0001
0100
0010
1000
0010
,
1000
0001
1000
0001
0010
0100
1000
0001
,
1000
0100
1000
0001
0010
0100
0010
0100
1000
0001
1000
0001
0100
0010
1000
0001
,
1000
0001
0100
0010
1000
0000
0001
0000
0100
0000
0001
0000
0010
0000
0001
0000
,
1000
0010
1000
0010
0100
0001
1000
0001
,
1000
0010
1000
0001
0010
0100
1000
0001
,
1000
0010
1000
0001
0100
0010
0100
0010
1000
0001
1000
0001
0010
0100
1000
0001
,
1000
0001
0010
0100
1000
0100
0010
0001
0100
0001
1000
0010
0100
0010
1000
0001
,
1000
0100
0010
0001
0100
0010
1000
0010
,
1000
0001
0100
0001
0010
0100
1000
0001
,
1000
0010
1000
0001
0100
0001
1000
0001
0100
0010
1000
0001
0010
0001
1000
0100
,
0010
0100
1000
0001
0010
0001
1000
0100
0010
0001
1000
0100
1000
0000
0000
0000
,
0001
0100
0010
0100
0001
0100
0010
1000
0001
0100
0010
1000
0100
0010
0100
1000
,
0001
0010
0001
1000
0100
0010
0001
0100
0010
0100
0001
1000
0001
1000
0010
0100
,
0002
0000
0000
2000
,
0000
3003
0001
0000
1001
0000
1000
0000
,
0100
0000
0010
0000
0100
0000
0000
0000
1000
0100
0010
0001
0010
0001
1000
0001
,
0100
0010
1000
0010
0100
0001
1000
0100
0010
0001
0010
0100
1000
0001
1000
0001
,
0100
0010
1000
0010
0100
0010
1000
0010
0100
0001
1000
0001
0010
0100
1000
0100
,
0010
0100
1000
0100
0010
0001
0100
0010
1000
0000
0000
0000
0001
0000
0000
0000
,
0010
0000
0100
0000
0010
0000
0000
0000
0001
0010
0100
1000
0100
1000
0001
1000
,
0010
0100
0001
0100
0010
1000
0001
0010
0100
1000
0100
0010
0001
1000
0001
1000
,
0010
0100
0001
0100
0010
0100
0001
0100
0010
1000
0001
1000
0100
0010
0001
0010
,
0100
0010
0001
0010
0100
1000
0010
0100
0001
1000
0001
1000
0010
0100
0001
1000
,
0100
0000
0010
0000
0001
0100
0001
0000
,
1000
0010
1000
0100
0010
0001
0100
0001
,
1000
0010
1000
0001
0100
0001
1000
0100
0010
0100
1000
0001
0100
0010
1000
0010
,
1000
0100
0010
0100
1000
0001
1000
0001
1000
0000
0000
0000
0100
0000
0000
0000
,
1000
0100
0010
0100
1000
0100
0010
0001
1000
0100
0010
0001
0100
0010
0100
0001
,
1000
0010
1000
0001
0100
0010
1000
0100
0010
0100
1000
0001
1000
0001
0010
0100
,
1000
0010
0100
0010
1000
0010
0100
0010
1000
0010
0100
0001
0010
0100
0010
0001
,
0010
0100
0010
0001
0010
0100
1000
0001
1000
0000
0000
0000
0001
0000
0000
0000
,
1001
1000
0100
0000
1000
0000
0010
0100
,
0010
0000
1000
0000
0001
0000
0010
0100
,
0010
0000
0001
0000
1000
0000
0010
0100
,
0010
0000
1000
0000
1100
0000
0100
0010
,
0001
0000
0001
0000
1000
0000
0001
0010
,
0001
0000
0100
0010
0100
0000
0001
1000
,
0001
0000
0010
0000
0100
0000
1000
0000
0001
0010
0001
1000
0010
0100
0001
1000
,
0100
1000
0100
0010
0001
1000
0001
1000
0001
0000
0000
0000
0100
0000
0000
0000
,
0001
1000
0001
0100
0010
1000
0001
0100
0001
0100
0010
1000
0001
0010
0100
1000
,
0001
0001
0101
0100
,
0001
1000
0001
0100
0010
1000
0001
0100
0001
0100
0010
1000
0001
0010
0100
1000
,
0001
0001
0011
0010
,
0001
1000
0001
0010
0100
1000
0001
0010
0001
0010
0100
1000
0001
0100
0010
0100
,
0001
0100
0010
0100
0001
0100
0010
1000
0001
0000
0000
0000
0002
0000
0000
0000
,
0100
0000
0000
0000
,
1000
0003
0001
2000
,
00M0
0M00
0000
0000
0000
0000
0000
0000
,
0000
0000
3200
0000
,
0320
0000
0000
0032
,
0000
0000
1003
0002
,
00M0
0M00
0000
0000
0000
0000
0000
0000
,
0000
0000
0203
0000
,
0320
0000
0000
2030
,
0000
0000
3001
2000
,
0000
0000
0100
0200
,
0000
0000
0010
0020
,
0000
0000
0001
0002
,
0000
0000
0000
3333
,
1000
0000
0000
0001
,
0000
0000
0100
0000
,
0110
0010
0010
1000
,
4400
0000
0000
3300
4004
0000
0000
3003
,
0001
0100
0001
0100
0010
1000
0010
0100
0001
1000
0010
1000
0001
0010
0001
0010
,
0100
1000
0001
1000
0010
0100
0010
1000
0001
0100
0010
0100
0001
0100
0010
1000
,
0001
0010
0100
0010
0001
0010
0100
0010
0001
0010
0100
1000
0001
0100
0010
0100
,
0001
0100
0010
0100
0001
0100
0010
1000
0001
0000
0000
0000
1000
0000
0000
0000
,
0001
0010
0001
0010
0100
1000
0100
0010
0001
1000
0100
1000
0001
0100
0001
0100
,
0010
1000
0001
1000
0100
0010
0100
1000
0001
0010
0100
0010
0001
0010
0100
1000
,
0001
0100
0010
0100
0001
0100
0010
0100
0001
0100
0010
1000
0001
0000
0000
0000
,
0010
0100
0010
0000
0001
1000
0010
0000
,
1000
0010
1000
0010
0100
0001
0100
0010
1000
0001
0100
0001
1000
0100
1000
0100
,
0010
0001
1000
0001
0100
0010
0100
0001
1000
0010
0100
0010
1000
0010
0100
0001
,
1000
0100
0010
0100
1000
0100
0010
0100
1000
0100
0010
0001
1000
0010
0100
0010
,
1000
0010
0100
0001
1000
0000
0000
0000
0001
0000
0010
0000
0100
0000
1000
0000
,
1001
0000
0000
0000
0001
0000
0000
0000
0100
0010
0100
0001
0100
0010
0100
0001
,
0100
0010
0100
0001
0100
0010
1000
0001
0010
0100
1000
0100
0010
0001
1000
0001
,
0100
0010
1000
0010
0100
0010
1000
0001
0010
0100
0010
0001
1000
0100
0010
0001
,
1000
0001
1001
1000
,
0010
0000
0100
0000
0010
0000
0000
0000
1000
0010
0100
0001
0100
0001
1000
0001
,
0010
0100
1000
0100
0010
0001
1000
0010
0100
0001
0100
0010
1000
0001
1000
0001
,
0010
0100
1000
0100
0010
0100
1000
0100
0010
0001
1000
0001
0100
0010
1000
0010
,
0100
0010
1000
0010
0100
0001
0010
0100
1000
0000
0000
0000
0001
0000
0000
0000
,
0100
0000
0010
0000
0100
0000
0000
0000
0001
0100
0010
1000
0010
1000
0001
1000
,
0100
0010
0001
0010
0100
1000
0001
0100
0010
1000
0010
0100
0001
1000
0001
1000
,
0100
0010
0001
0010
0100
0010
0001
0010
0100
1000
0001
1000
0010
0100
0001
0100
,
0010
0100
0001
0100
0010
1000
0100
0010
0001
1000
0001
1000
0100
0010
0001
1000
,
0010
0000
0000
0000
0100
0000
0000
0000
0001
0100
0001
1000
0010
1000
0001
1000
,
0100
0010
0001
1000
0001
0010
0100
1000
0001
0100
0010
1000
0001
1000
0010
0100
,
0001
0010
0001
1000
0100
1000
0001
0010
0100
1000
0001
1000
0010
0000
0000
0000
,
0100
0010
0100
0000
0001
1000
0100
0000
,
1000
0100
0010
0100
1000
0100
0010
0001
1000
0100
0010
0001
0100
0010
0100
0001
,
1000
0010
1000
0001
0100
0010
1000
0100
0010
0100
1000
0001
1000
0001
0010
0100
,
1000
0001
0100
0001
0100
0010
1000
0001
0010
0100
1000
0100
0010
0100
1000
0001
,
1000
0001
0010
0100
1000
0100
0010
0001
1000
0000
0000
0000
0001
0000
0000
0000
,
1000
0100
1000
0100
0010
0001
0010
0001
1000
0010
0100
0001
1000
0010
0100
0010
,
1000
0001
0010
0100
1000
0001
1000
0100
0010
0001
1000
0100
1000
0010
0100
0001
,
0010
0100
1000
0100
0010
0100
1000
0100
0010
0001
1000
0001
0100
0010
1000
0010
,
0100
0010
1000
0010
0100
0001
1000
0001
1000
0000
0000
0000
0001
0000
0000
0000
,
0010
0000
0100
0000
0010
0000
0000
0000
0001
0010
0001
1000
0100
0010
0001
1000
,
0010
0100
0001
1000
0001
0100
0010
1000
0001
0010
0100
1000
0001
1000
0100
0010
,
0001
0100
0010
0100
0001
0100
0010
0100
0001
0100
0010
1000
0001
0010
0100
0010
,
0001
0010
0100
0010
0001
0010
0100
1000
0001
0100
0001
0100
0010
0100
0001
1000
,
0001
0000
0000
0000
1000
0000
0000
0000
0100
0010
0001
0010
0100
1000
0001
1000
,
0010
0100
0010
1000
0001
0100
0010
1000
0001
1000
0100
0010
0001
1000
0100
1000
,
0001
0100
0010
0100
0001
1000
0001
0100
0010
1000
0001
1000
0100
0010
0001
0010
,
0100
1000
0001
1000
0001
0000
0000
0000
0100
0000
0000
0000
0001
0000
0000
0000
,
2010
0000
0000
3002
,
0000
0000
0023
0000
,
0230
0000
0000
2300
,
0000
0000
3000
0020
,
0230
0000
0000
0000
0000
0000
0000
0302
,
0000
0000
0000
0000
0000
0000
0000
0000
0000
0000
0000
0023
0000
0000
0000
0000
,
0000
0000
0000
0230
0000
0000
0000
0000
,
0000
0000
0000
2000
0000
0000
0000
0000
,
0000
0000
0000
0000
,
3300
0000
0000
0000
;

//---------------dance-single - Gazebo----------------
#NOTES:
     dance-single:
     Gazebo:
     Hard:
     12:
     0.933,1.000,0.062,0.152,1.000,1326.000,13.000,32.000,8.000,4.000:

0000
0000
0000
0000
,
0000
0000
0000
0000
,
0000
0000
2000
3020
,
0000
0230
0000
0000
,
0301
1000
0100
0010
,
0001
0100
0001
1000
,
0010
0100
0001
1000
,
0100
0000
0010
0000
0001
1000
0010
0000
,
1M00
00M1
1000
0000
0001
0000
0010
0000
,
0100
0000
1000
0000
0010
0100
0010
0000
,
1000
0010
1000
0001
1000
0000
0100
0010
,
0100
1000
0100
0000
0010
0001
1000
0000
,
0001
0100
0010
1000
,
0001
0000
0010
0000
0100
1000
0100
0000
,
1000
0001
0100
0001
1000
0000
0010
0100
,
0001
1000
0100
0000
0010
0001
1000
0000
,
0M01
10M0
0001
0000
0100
0000
0001
0000
,
1000
0000
0100
0000
0010
0001
0010
0000
,
0100
1000
0001
1000
0010
0000
0100
0010
,
1000
0001
1000
0000
0001
0000
0010
0000
,
0100
1000
0100
1000
0100
0000
1000
0001
,
1000
0001
1000
0000
0010
0100
0010
0000
,
1000
0010
1000
0001
1000
0000
0100
0010
,
0002
0000
0003
0000
1001
1000
0100
0010
,
0001
1000
0001
1000
0100
0010
0001
0010
,
0001
1000
0001
1000
0010
0100
0001
1000
,
0001
0010
0001
0010
0100
1000
0001
1000
0001
0100
0010
0100
,
0001
0000
1000
0000
0001
0000
1000
0000
0000
0000
0000
0000
0100
0000
0000
1000
0000
0000
0010
0000
0000
1000
0000
0000
,
0001
0010
0001
0010
0100
1000
0001
1000
,
0001
0010
0001
1000
0010
0100
0001
1000
,
0001
0010
0001
0010
0100
1000
0001
1000
0001
0100
0010
1000
,
0100
1000
0100
0010
0001
1000
0010
0100
0010
1000
0010
0100
,
0001
1000
0010
1000
0100
0010
0001
0010
,
0001
1000
0100
1000
0010
0100
0001
1000
,
0001
0010
0001
0010
0100
1000
0001
1000
0001
0100
0010
0100
,
0001
1000
0001
1000
0100
1000
0001
0010
0001
1000
0000
0000
,
0001
0100
0010
0100
0001
0100
0010
1000
0001
0010
0100
0010
,
0001
0010
0100
0010
0001
1000
0010
0100
0001
0100
0001
1000
,
0200
0000
0000
2000
,
0000
3300
1000
0000
1001
0000
0001
0000
,
0100
0000
0000
0010
0000
0000
0100
0000
0000
0000
0000
0000
0001
0000
0010
0000
0100
0000
1000
0000
0100
0000
1000
0000
,
0001
0100
0001
1000
0010
1000
0001
0010
0001
1000
0100
1000
,
0001
0100
0010
0100
0001
0100
0010
0100
0001
1000
0100
0010
,
0100
1000
0100
0010
0001
1000
0001
0000
0000
1000
0000
0000
,
0010
0000
0000
0100
0000
0000
0010
0000
0000
0000
0000
0000
1000
0000
0100
0000
0010
0000
0001
0000
0010
0000
0001
0000
,
1000
0010
1000
0001
0100
0001
1000
0100
1000
0001
0010
0001
,
1000
0010
0100
0010
1000
0010
0100
0010
1000
0001
0010
0100
,
0010
0001
0010
0100
1000
0001
1000
0010
1000
0001
0100
0001
,
1000
0000
0010
0000
1000
0100
1000
0000
,
0001
0010
0001
0100
0010
1000
0100
1000
,
0001
0010
0001
1000
0001
0100
0010
0100
0001
0010
0001
0010
,
0100
1000
0001
0100
0001
1000
0001
0000
0000
1000
0000
0000
,
0001
0010
0100
0010
0001
0010
0100
1000
0001
0100
0010
0100
,
0001
0100
0010
0100
0001
1000
0100
0010
0001
1000
0001
1000
,
0010
0100
0001
0100
0010
0100
0001
1000
0100
0010
0001
0010
,
0001
1000
0100
1000
0010
1000
0001
0000
0000
1000
0000
0000
,
0001
1000
0001
1000
0010
0100
0001
0100
,
0001
1000
0001
1000
0100
0010
0001
1000
,
0001
0100
0001
0100
0010
1000
0001
1000
0001
0010
0100
0010
,
0001
0000
1000
0000
0001
0000
1000
0000
0000
0001
0000
0000
0100
0000
0000
0001
0000
0000
0010
0000
0000
0001
0000
0000
,
1000
0010
1000
0010
0100
0001
1000
0001
,
1000
0010
1000
0001
0010
0100
1000
0001
,
1000
0010
1000
0010
0100
0001
1000
0001
1000
0100
0010
0001
,
0100
0001
1000
0100
1000
0001
1000
0010
0100
0001
1000
0001
,
1000
0100
0010
0001
0100
0010
1000
0010
,
1000
0001
0100
0001
0010
0100
1000
0001
,
1000
0010
1000
0010
0100
0001
1000
0100
0010
0001
0100
0001
,
0100
0010
1000
0001
0100
0001
0010
0100
1000
0001
0000
0000
,
1000
0010
0100
0010
1000
0010
0100
0001
1000
0100
0010
0100
,
1000
0100
0010
0100
1000
0001
0100
0010
1000
0010
1000
0001
,
0020
0000
0000
0002
,
0000
0033
0001
0000
1001
0000
1000
0000
,
0010
0000
0000
0100
0000
0000
0010
0000
0000
0000
0000
0000
1000
0000
0100
0000
1000
0000
0100
0000
0010
0000
0001
0000
,
1000
0010
1000
0001
0100
0001
1000
0100
1000
0001
0010
0001
,
1000
0010
0100
0010
1000
0010
0100
0001
1000
0100
0010
0100
,
1000
0100
0010
0001
1000
0010
1000
0001
1000
0001
0000
0000
,
0010
0000
0000
0100
0000
0000
0010
0000
0000
0000
0000
0000
0001
0000
0100
0000
0001
0000
0100
0000
0010
0000
1000
0000
,
0001
0010
0001
1000
0100
1000
0001
0100
0001
1000
0010
1000
,
0001
0010
0100
0010
0001
0010
0100
1000
0001
0100
0010
0100
,
0001
0100
0010
0100
0001
1000
0100
0010
0001
0100
0001
1000
,
0001
0000
0010
0000
0001
0100
0001
0000
,
1000
0010
1000
0100
0010
0001
0100
0001
,
1000
0010
1000
0010
0100
0001
1000
0100
1000
0010
0100
0001
,
0100
0001
1000
0100
0010
0001
1000
0000
0000
0100
0000
0000
,
1000
0010
0100
0010
1000
0010
0100
0001
1000
0100
0010
0001
,
0010
0100
0010
0001
1000
0001
1000
0010
0100
0010
0100
0001
,
1000
0100
1000
0001
1000
0100
1000
0001
1000
0010
0100
0001
,
0100
0010
0100
0001
0100
0010
1000
0000
0000
0001
0000
0000
,
1001
1000
0100
0000
1000
0000
0010
0100
,
0010
0000
1000
0000
0001
0000
0010
0100
,
0010
0000
0001
0000
1000
0000
0010
0100
,
0010
0000
1000
0000
1100
0000
0100
0010
,
0001
0000
0001
0000
1000
0000
0001
0010
,
0001
0000
0100
0010
0100
0000
0001
1000
,
0001
0000
0000
0010
0000
0000
0100
0000
0000
1000
0000
0000
0001
0000
0010
0000
0001
0000
0100
0000
0010
0000
0100
0000
,
0001
1000
0010
1000
0001
1000
0001
0000
0000
0100
0000
0000
,
0001
0010
0001
1000
0100
1000
0001
0100
0001
1000
0010
1000
,
0001
0001
0101
0100
,
0001
0010
0001
1000
0100
1000
0001
0100
0001
1000
0010
1000
,
0001
0001
0011
0010
,
0001
0100
0001
1000
0010
1000
0001
0010
0001
1000
0100
1000
,
0100
0010
0001
0100
0001
1000
0001
0000
0000
0002
0000
0000
,
0100
0000
0000
0000
,
1000
0003
0001
2000
,
00M0
0M00
0000
0000
0000
0000
0000
0000
,
0000
0000
3200
0000
,
0320
0000
0000
0032
,
0000
0000
1003
0002
,
00M0
0M00
0000
0000
0000
0000
0000
0000
,
0000
0000
0203
0000
,
0320
0000
0000
2030
,
0000
0000
3001
2000
,
0000
0000
0100
0200
,
0000
0000
0010
0020
,
0000
0000
0001
0002
,
0000
0000
0000
3333
,
1000
0000
0000
0001
,
0000
0000
0100
0000
,
0110
0010
0010
1000
,
4400
0000
0000
3300
4004
0000
0000
3003
,
0001
0100
0010
0100
0001
0100
0010
0100
0001
1000
0100
1000
,
0100
0010
0001
1000
0010
1000
0001
0100
0001
1000
0010
1000
,
0001
0010
0100
0010
0001
0010
0100
1000
0001
0100
0010
0100
,
0001
0100
0010
0100
0001
1000
0001
0000
0000
1000
0000
0000
,
0001
0010
0100
0010
0001
0010
0100
0010
0001
1000
0010
1000
,
0010
0100
0001
1000
0100
1000
0001
0010
0001
1000
0100
1000
,
0001
0100
0010
0100
0001
0100
0010
1000
0001
1000
0000
0000
,
0100
0010
0100
0000
1000
0001
0100
0000
,
0001
0100
0010
0100
0001
0100
0010
0100
0001
1000
0100
1000
,
0100
0010
0001
1000
0010
1000
0001
0100
0001
1000
0010
1000
,
0001
0010
0100
0010
0001
0010
0100
1000
0001
0100
0010
0100
,
0001
0000
0100
0000
0010
0000
1000
0000
0000
0000
0000
0000
0001
0000
0000
0010
0000
0000
0100
0000
0000
1000
0000
0000
,
1001
0000
0000
0001
0000
0000
0100
0010
0100
0001
0100
0010
,
0100
0001
0100
0010
1000
0001
0010
0100
1000
0010
1000
0001
,
0010
0100
0010
0001
0010
0100
0010
0001
1000
0010
1000
0001
,
1000
0001
1001
1000
,
0100
0000
0000
0010
0000
0000
0100
0000
0000
0000
0000
0000
1000
0000
0010
0000
1000
0000
0010
0000
0100
0000
0001
0000
,
1000
0100
1000
0001
0010
0001
1000
0010
1000
0001
0100
0001
,
1000
0100
0010
0100
1000
0100
0010
0100
1000
0010
0100
0001
,
0100
0010
1000
0001
0010
0100
1000
0000
0000
0001
0000
0000
,
0100
0000
0000
0010
0000
0000
0100
0000
0000
0000
0000
0000
0001
0000
0010
0000
0001
0000
0010
0000
0100
0000
1000
0000
,
0001
0100
0001
1000
0010
1000
0001
0010
0001
1000
0100
1000
,
0001
0100
0010
0100
0001
0100
0010
0100
0001
1000
0100
0010
,
0100
1000
0100
0010
0001
1000
0010
1000
0001
0100
0001
1000
,
0001
0000
0000
1000
0000
0000
0001
0010
0001
0010
0100
1000
,
0001
0100
0001
1000
0010
1000
0001
0010
0001
1000
0100
1000
,
0001
0100
0010
0100
0001
0100
0010
1000
0001
1000
0000
0000
,
0100
0010
0100
0000
1000
0001
0010
0000
,
0001
0100
0010
0100
0001
0100
0010
1000
0001
1000
0100
0010
,
0100
1000
0100
0010
0100
1000
0010
0100
0001
0100
0001
1000
,
0100
0010
0001
0010
0100
0010
0001
0010
0100
1000
0001
0100
,
0001
1000
0001
0100
0010
1000
0001
0000
0000
1000
0000
0000
,
0001
0010
0001
0010
0100
1000
0001
0100
0001
0100
0010
1000
,
0001
0010
0001
1000
0100
1000
0001
0100
0001
0010
0100
1000
,
0010
1000
0001
0100
0001
1000
0100
1000
0100
0010
0001
1000
,
0100
1000
0001
0100
0001
1000
0001
0000
0000
1000
0000
0000
,
0100
0000
0000
0010
0000
0000
0100
0000
0000
0000
0000
0000
1000
0000
0010
0000
1000
0000
0010
0000
0100
0000
0001
0000
,
1000
0100
1000
0001
0010
0001
1000
0010
1000
0001
0100
0001
,
1000
0100
0010
0100
1000
0100
0010
0001
1000
0001
0100
0010
,
0100
0001
0100
0010
0100
0001
0010
0100
1000
0010
1000
0001
,
1000
0000
0000
0001
0000
0000
1000
0100
1000
0100
0010
0001
,
1000
0010
1000
0001
0100
0001
1000
0100
1000
0001
0010
0001
,
1000
0010
1000
0010
0100
0001
1000
0100
1000
0001
0010
0001
,
0100
0010
1000
0100
1000
0001
1000
0000
0000
0001
0000
0000
,
2010
0000
0000
3002
,
0000
0000
0023
0000
,
0230
0000
0000
2300
,
0000
0000
3000
0020
,
0230
0000
0000
0000
0000
0000
0000
0302
,
0000
0000
0000
0000
0000
0000
0000
0000
0000
0000
0000
0023
0000
0000
0000
0000
,
0000
0000
0000
0230
0000
0000
0000
0000
,
0000
0000
0000
2000
0000
0000
0000
0000
,
0000
0000
0000
0000
,
3300
0000
0000
0000
;
