#TITLE:Once In A Lifetime;
#SUBTITLE:;
#ARTIST:Dragonforce;
#TITLETRANSLIT:;
#SUBTITLETRANSLIT:;
#ARTISTTRANSLIT:;
#CREDIT:B. Abear;
#BANNER:Bn-Once.png;
#BACKGROUND:Bg-Once.png;
#LYRICSPATH:;
#CDTITLE:;
#MUSIC:Once In A Lifetime.ogg;
#OFFSET:-1.109;
#SAMPLESTART:71.610;
#SAMPLELENGTH:19.400;
#SELECTABLE:YES;
#BPMS:0.000=200.000,1402.000=100.000,1414.000=200.000;
#STOPS:426.000=0.300
,745.000=0.300
;
#BGCHANGES:;
// cache tags:
#FIRSTBEAT:4.000;
#LASTBEAT:1529.500;
#SONGFILENAME:Songs/Dragonforce/Once In A Lifetime/Once In A Lifetime.sm;
#HASMUSIC:1;
#HASBANNER:1;
#MUSICLENGTH:486.217;
// end cache tags

//---------------dance-single - B. Abear----------------
#NOTES:
     dance-single:
     B. Abear:
     Challenge:
     15:
     1.000,1.000,0.385,0.555,1.000,3817.000,187.000,270.000,118.000,2.000:



0000
0000
0000
0000
,
2001
0000
0000
0100
0000
0000
0001
0000
,
0010
0000
0000
0001
0000
0000
0010
3000
,
0201
0000
0000
0010
0000
0000
1000
0000
,
0002
0000
0000
0303
2002
0000
0000
3003
,
1200
0000
0000
0010
0000
0000
0001
0000
,
0010
0000
0000
1000
0000
0000
1000
0300
,
0102
0000
0000
0000
0000
0000
0000
0000
0000
1003
0000
0000
0000
0000
0000
0000
0000
0001
0010
0000
0000
0000
0000
0100
,
2000
0000
0000
3000
0021
0000
0100
0030
,
2100
0000
0000
0010
0000
0000
0001
0000
,
0010
0000
0000
0001
0000
0000
0100
3100
,
0120
0000
0000
4000
3000
0000
0001
0000
,
0400
0000
0000
0030
1300
0000
0001
0000
,
0021
0000
0000
1000
0000
0000
0001
0000
,
0100
0000
0000
0100
0000
0000
1000
0030
,
0210
0000
0000
0010
0000
0000
1000
0300
,
MM4M
0000
0132
1003
,
2010
0000
0000
0001
0000
0000
0010
0000
,
0200
0000
0300
0000
0001
0000
0100
3000
,
1MM1
0000
1MM1
0000
,
1MM1
1MM1
1MM1
1MM1
,
M1M1
0000
M11M
0000
,
1M1M
0000
11MM
0000
,
2MM2
0000
0000
3000
,
1003
0100
1000
0100
1000
0000
0000
0000
0001
0100
0001
0100
0001
0000
0000
0000
,
1000
0100
1000
0000
0001
0100
0001
0000
0100
0010
0100
0000
0010
1000
0010
0000
,
1000
0001
1000
0000
0001
0010
0001
0000
1000
0100
1000
0000
0001
0000
0101
0000
,
0100
0010
0100
0000
0010
1000
0010
0000
1000
0100
1000
0000
0001
0010
0001
0000
,
1000
0100
1000
0000
0001
1000
0001
0000
0100
0001
0100
0001
1000
0001
1000
0001
,
1000
0100
1000
0000
0001
0010
0001
0000
0100
0010
0100
0000
0010
1000
0010
0000
,
0100
0001
0100
0000
0010
0100
0010
0000
1000
0010
1000
0000
0001
0000
0011
0000
,
0010
0100
0010
0000
0100
1000
0100
0000
1000
0001
1000
0000
0001
0100
0001
0000
,
0100
0010
0100
0000
0010
1000
0010
0000
1000
0001
1000
0001
0010
0001
0010
0001
,
1000
0000
0100
0000
0010
0001
1000
0000
0001
0000
0100
0000
0010
0100
0001
0000
,
1000
0000
0100
0000
0010
0100
1000
0000
0001
0000
0100
0000
0010
1000
0001
0000
,
1001
0000
1000
0000
0001
0010
0100
0000
1000
0000
0001
0000
0010
0001
0100
0000
,
0010
0000
1000
0000
0001
0100
0010
0000
0100
0000
0010
0000
0100
0001
0100
0000
,
0110
0000
0010
0000
1000
0001
0010
0000
0100
0000
1000
0000
0001
0100
0010
0000
,
0100
0000
0010
0000
1000
0100
0010
0000
0001
0000
1000
0000
0100
1000
0001
0000
,
0101
0000
0100
0000
0010
0100
0001
0000
1000
0000
0100
0000
0010
0001
0010
0000
,
0100
1000
0001
1000
0001
1000
0001
1000
0010
0100
0010
0100
0010
0100
0010
0100
,
0001
1000
0100
0010
0001
1000
0001
1000
0010
1000
0001
0100
0010
1000
0001
0010
,
0100
1000
0100
0010
0001
1000
0010
1000
0001
0010
0001
1000
0100
0010
0001
1000
,
0100
1000
0001
0100
0001
0100
0010
1000
0001
1000
0010
1000
0100
0010
0001
1000
,
0010
0100
0001
0100
0001
1000
0100
1000
0001
0010
0001
1000
0010
0100
0010
0100
,
0001
1000
0100
0010
0001
0010
0001
1000
0010
1000
0001
0100
0001
0100
0010
0100
,
0001
1000
0100
1000
0001
0010
0100
1000
0001
0010
0100
1000
0001
1000
0010
0100
,
0010
1000
0001
0010
0100
0010
0001
1000
0001
0100
0010
1000
0100
0010
0001
0000
,
1000
0010
1000
0010
0100
0001
1000
0001
0100
0010
0100
0010
1000
0001
1000
0001
,
0010
0100
1000
0001
0100
0001
1000
0010
1000
0001
0010
0100
1000
0001
0010
0100
,
1000
0010
1000
0001
0100
0010
1000
0100
1000
0001
0010
0001
0100
0010
1000
0001
,
0010
0100
0010
0001
1000
0010
1000
0001
0010
0100
1000
0010
0100
0010
1000
0001
,
0100
0010
1000
0001
0100
0010
1000
0001
0010
0001
1000
0010
0100
0001
1000
0100
,
1000
0001
0010
0100
1000
0001
1000
0001
1000
0010
0100
0001
0010
0100
1000
0010
,
0100
0001
1000
0001
0100
0010
0100
0001
0100
0010
0100
0001
1000
0100
1000
0001
,
0010
0100
1000
0001
0100
0010
1000
0100
1000
0001
0010
0001
1000
0100
1000
0001
,
1000
0100
0010
0001
0010
0001
1000
0100
0010
0001
0010
0000
0001
1000
0001
1000
,
0020
0M00
0100
0100
0100
0100
0100
0130
,
2MM2
3003
22MM
3300
M22M
0330
MM22
0033
,
0001
0000
1000
0000
0001
0100
0001
0000
1000
0000
0010
0000
0100
0010
0100
0000
,
0001
0000
1000
0000
0001
0010
0001
0000
0010
0000
0100
0000
1000
0100
1000
0000
,
0002
0000
1003
0100
1000
0001
1000
0010
0100
0001
1000
0100
1000
0001
1000
0010
,
0200
0000
0301
0010
0001
1000
0200
0000
0310
0001
1000
0001
0100
0010
0100
0010
,
1000
0000
0001
0000
1000
0100
1000
0000
0001
0000
0010
0000
0100
0010
0100
0000
,
0010
0000
0001
0000
1000
0010
1000
0000
0001
0000
0100
0000
0010
0100
0010
0000
,
2000
0000
3001
0100
0010
1000
0002
0000
0103
0010
1000
0000
0001
0100
0001
0000
,
1000
0100
1000
0100
0010
0001
0010
0001
1000
0100
1000
0100
0010
0001
0010
0001
,
1000
0000
0001
0000
0100
0010
0100
0000
0001
0000
1000
0000
0100
1000
0100
0000
,
0010
0000
0001
0000
1000
0001
1000
0000
0001
0000
0100
0000
0001
0100
0001
0000
,
2000
0000
3100
0010
0001
1000
0001
0100
0020
0000
1030
0001
1000
0100
0010
0001
,
2000
0000
3001
0100
0010
1000
0002
0000
0013
0100
1000
0001
0100
0001
1000
0001
,
0100
0000
0010
0000
1000
0001
1000
0000
0001
0000
0010
0000
0001
0010
0001
0000
,
1000
0000
0100
0000
1000
0001
1000
0000
0100
0000
0010
0000
0001
0100
0001
0000
,
1000
0001
1100
0001
0001
1100
0001
0100
,
0010
0100
0010
0000
0100
0000
0100
0000
0010
0100
0010
0100
0001
1000
0001
1000
,
0100
0000
0010
0000
0001
0010
0001
0000
0100
0000
0010
0000
1000
0010
1000
0000
,
0001
0000
0010
0000
0100
1000
0100
0000
1000
0000
0001
0000
1000
0001
1000
0000
,
0002
0000
1003
0010
1000
0001
0010
0100
1000
0001
0100
0001
1000
0001
0100
0010
,
2000
0000
3002
0203
0320
0000
0230
0000
,
0301
0000
1000
0000
0001
0010
0001
0000
1000
0000
0100
0000
0010
0100
0010
0000
,
0100
0000
1000
0000
0001
0100
0001
0000
0100
0000
0010
0000
1000
0001
1000
0000
,
0020
0000
0000
0000
,
2030
0000
0000
0000
,
3001
0000
1000
0000
0001
0010
0001
0000
1000
0000
0100
0000
0010
0001
0010
0000
,
0100
0000
1000
0000
0001
0100
0001
0000
0100
0000
0010
0000
0100
0001
0100
0000
,
0020
0000
1030
0001
1000
0100
0010
0001
1000
0100
1000
0001
0100
0001
1000
0010
,
0200
0000
0302
0023
0230
0000
2300
0000
,
3001
0000
0010
0000
0100
1000
0100
0000
1000
0000
0001
0000
0100
0010
0100
0000
,
0001
0000
0000
0000
0000
0000
1000
0000
0000
0000
0000
0000
0001
0000
0000
0010
0000
0000
0001
0000
0000
0000
0000
0000
1000
0000
0000
0000
0000
0000
0000
0000
0100
0000
0000
0000
0000
0000
0000
0000
0010
0000
0000
0000
0000
0000
0000
0000
,
0004
0000
0000
0000
,
1003
0010
0100
0001
0100
0001
1000
0010
0100
0001
0100
0001
1000
0010
1000
0100
,
0010
0001
1001
0100
1001
0001
0100
1001
,
1000
0100
1001
0010
0202
0303
2020
3030
,
0010
1000
0101
1000
0101
0010
1000
0101
,
0010
1000
0101
1000
0022
0033
2200
3300
,
0100
0000
0010
0001
1000
0000
0001
0000
0100
0000
0010
0100
0001
0000
1000
0000
,
0100
0000
0010
0001
1000
0000
0001
0000
0010
0000
0100
1000
0010
0000
0100
0000
,
0010
0000
0100
0001
1000
0000
0001
0000
0010
0000
0100
1000
0001
0000
1000
0000
,
0001
0010
0100
1000
0100
1000
0001
0010
0100
1000
0100
1000
0001
0000
0101
0000
,
0100
0010
1001
0010
1001
1000
0100
1001
,
0010
0100
1001
0010
2020
3030
0202
0303
,
0001
1000
0011
1000
0011
1000
0100
0011
,
0001
1000
0011
0001
0202
0303
2020
3030
,
0010
0000
0100
0000
0001
1000
0100
0000
0010
0000
0001
0000
1000
0001
0100
0000
,
0010
0000
0100
0000
0001
1000
0100
0000
0010
0000
0001
0000
1000
0100
0010
0000
,
M002
20M3
3M20
023M
0301
1000
0100
0010
,
0022
0033
0000
0000
2020
3030
0000
0000
1MM1
0000
0000
0000
1000
0000
0001
0000
,
1000
0100
0010
0000
0001
0000
1000
0000
0010
0100
0001
0000
1000
0000
0001
0000
,
0010
0001
0100
0000
0010
0000
0100
0000
0001
1000
0100
0000
0010
0000
0001
0000
,
1000
0100
1000
0000
0010
0000
0100
0000
0001
0010
0100
0000
1000
0000
0001
0000
,
0100
0010
1000
0000
0001
0000
0010
0000
0100
1000
0001
0000
0010
0000
0001
0000
,
0100
0010
1000
0000
0001
0000
0010
0000
0100
1000
0001
0000
0100
0000
0010
0000
,
0100
0001
1000
0000
0010
0000
1000
0000
0001
0010
0100
0000
1000
0000
0001
0000
,
0010
0001
0100
0000
0010
0000
1000
0000
0001
0100
0010
0000
2000
0000
3200
0000
,
M302
0203
230M
3020
M032
0023
103M
0001
,
1000
0100
0010
0000
0001
0000
1000
0000
0010
0100
0001
0000
0010
0000
0001
0000
,
1000
0100
0010
0000
0100
0000
0010
0000
0100
1000
0010
0000
0100
0000
0001
0000
,
1000
0100
0010
0000
0001
0000
1000
0000
0010
1000
0001
0000
0010
0000
0100
0000
,
0010
0001
1000
0000
0010
0000
0100
0000
0001
0100
0010
0000
1000
0000
0001
0000
,
0010
0100
0010
0000
0001
0000
1000
0000
0001
0100
0001
0000
0100
0000
0010
0000
,
1000
0001
0010
0000
0100
0000
1000
0000
0001
0100
0010
0000
1000
0001
0100
0001
,
1000
0100
1000
0001
0010
0001
1000
0100
1000
0001
0100
0001
2M00
0000
3000
0000
,
2MM2
3003
2M22
3033
2MM2
0003
3001
0100
,
0010
1000
0010
0000
1000
0001
1000
0000
0001
0000
0020
0000
0000
0000
0130
0000
,
1000
0001
1000
0000
0001
0100
0001
0000
0100
0000
0020
0000
0000
0000
0130
0000
,
0001
0010
0001
0000
1000
0001
1000
0000
0100
0000
0020
0000
0000
0000
0031
0000
,
0400
0301
4000
3100
0040
0032
0000
1003
,
0001
0010
0001
0000
1000
0001
1000
0000
0010
0000
0200
0000
0000
0000
0301
0000
,
1000
0100
1000
0000
0001
1000
0001
0000
0010
0000
0200
0000
0000
0000
1300
0000
,
0001
0100
0001
0000
0100
0010
0100
0000
0010
1000
0010
0000
0100
0001
0100
0001
,
1000
0001
1000
0001
0100
0001
0100
0001
1000
0001
2000
0000
0000
0000
3001
0000
,
0010
0001
0010
0000
0001
1000
0001
0000
1001
0000
0022
0000
0030
0000
0013
0000
,
0001
1000
0001
0000
0100
0001
0100
0000
0110
0000
0202
0000
0003
0000
0301
0000
,
1000
0100
1000
0000
0001
0010
0001
0000
0011
0000
0220
0000
0030
0000
0310
0000
,
0001
1000
0001
0000
0100
0010
0100
0000
0101
0000
2002
0000
0003
0000
3001
0000
,
0010
0001
0010
0000
0001
1000
0001
0000
1001
0000
0202
0000
0300
0000
0103
0000
,
0010
1000
0010
0000
1000
0001
1000
0000
1001
0000
2200
0000
0300
0000
3100
0000
,
1000
0000
0000
0001
0000
0000
1000
0000
0000
0000
0000
0000
0001
0000
0000
0100
0000
0000
0001
0000
0000
0000
0000
0000
1000
0000
0000
0100
0000
0000
1000
0000
0000
0000
0000
0000
0001
0000
0000
0000
1000
0000
0000
0000
0100
0000
0000
0000
,
1100
0000
1000
0000
0001
0000
1000
0010
0000
0000
0100
0001
0000
0000
1000
0100
0000
0000
0020
0000
0000
0000
0000
0000
,
0031
1000
0001
0000
1000
0000
0010
0000
0100
0010
0100
0000
0001
0000
1000
0000
,
0001
0010
0001
0000
0010
0000
0100
0000
1000
0100
1000
0000
0002
0000
1003
0100
,
1000
0001
1000
0010
0100
0001
1000
0100
1000
0001
1000
0010
0200
0000
0301
0010
,
0001
1000
0200
0000
0310
0001
1000
0001
0100
0010
0100
0010
1000
0000
0001
0000
,
1000
0100
1000
0000
0001
0000
0010
0000
0100
0010
0100
0000
0010
0000
0001
0000
,
1000
0010
1000
0000
0001
0000
0100
0000
0010
0100
0010
0000
2000
0000
3001
0100
,
0010
1000
0002
0000
0103
0010
1000
0000
0001
0100
0001
0000
1000
0100
1000
0100
,
0010
0001
0010
0001
1000
0100
1000
0100
0010
0001
0010
0001
1000
0000
0001
0000
,
0100
0010
0100
0000
0001
0000
1000
0000
0100
1000
0100
0000
0010
0000
0001
0000
,
1000
0001
1000
0000
0001
0000
0100
0000
0001
0100
0001
0000
2000
0000
3100
0010
,
0001
1000
0001
0100
0010
1000
0001
1000
0100
0010
0001
1000
0002
0000
1003
0010
,
0100
0010
2000
0000
3010
0100
0010
1000
0001
1000
0001
0100
0010
0000
1000
0000
,
1000
0001
1000
0000
0001
0000
0010
0000
0001
0010
0001
0000
1000
0000
0100
0000
,
1000
0001
1000
0000
0100
0000
0010
0000
0001
0100
0001
0000
1000
0100
1000
0100
,
1000
0001
1000
0001
1000
0010
1000
0010
1000
0001
1000
0001
0100
0001
0100
0001
,
1000
0010
1000
0010
0100
0001
0100
0001
1000
0100
1000
0100
0010
0000
0001
0000
,
1000
0100
1000
0000
0010
0000
0100
0000
0001
0100
0001
0000
1000
0000
0100
0000
,
0010
0001
0010
0000
0001
0000
1000
0000
0001
1000
0001
0000
2000
0000
3001
0100
,
0001
1000
0100
0010
0001
1000
0010
1000
0001
1000
0010
0100
0002
0000
0000
0000
,
2003
3020
0230
0000
0320
0000
1030
0001
,
1000
0100
1000
0000
0001
0000
0010
0000
0100
0010
0100
0000
0010
0000
0001
0000
,
1000
0010
1000
0000
0010
0000
0100
0000
0001
1000
0001
0000
0200
0000
0000
0000
,
0000
0000
0000
0000
0000
0000
0000
0000
0000
0000
0000
0000
0301
1000
0001
1000
,
0010
1000
0010
1000
0001
0010
0001
0010
0001
1000
0001
1000
0010
0000
1000
0000
,
0001
0010
0001
0000
1000
0000
0100
0000
0010
0001
0010
0000
0100
0000
1000
0000
,
0001
0100
0001
0000
0100
0000
0010
0000
0100
0001
0100
0000
0020
0000
1030
0001
,
1000
0100
0010
0001
1000
0100
1000
0001
0100
0001
1000
0010
0200
0000
0000
0000
,
0302
0023
0230
0000
2300
0000
3001
0010
,
0100
1000
0100
0000
1000
0000
0001
0000
0100
0010
0100
0000
0001
0000
1000
0000
,
0001
0000
0000
0010
0000
0000
0001
0000
0000
0000
0000
0000
1000
0000
0000
0000
0000
0000
0000
0000
0100
0000
0000
0000
0000
0000
0000
0000
0010
0000
0000
0000
0000
0000
0000
0000
0004
0000
0000
0000
0000
0000
0000
0000
0000
0000
0000
0000
,
0000
0000
0000
0000
0000
0000
0000
0000
0000
0000
0000
0000
1003
0010
0100
0001
,
0100
0001
1000
0010
0100
0001
0100
0001
1000
0010
1000
0100
0010
0000
0001
0000
,
1001
0100
1001
0001
0100
1001
1000
0100
,
1001
0010
0202
0303
2020
3030
0010
1000
,
0101
1000
0101
0010
1000
0101
0010
1000
,
0101
0000
1000
0000
0022
0000
0033
0000
2200
0000
3300
0000
0100
0000
0010
0001
,
1000
0000
0001
0000
0100
0000
0010
0100
0001
0000
1000
0000
0100
0000
0010
0001
,
1000
0000
0001
0000
0010
0000
0100
1000
0010
0000
0100
0000
0010
0000
0100
0001
,
1000
0000
0001
0000
0010
0000
0100
1000
0001
0000
1000
0000
0001
0010
0100
1000
,
0100
1000
0001
0010
0100
1000
0100
1000
0001
0000
0101
0000
0100
0000
0010
0000
,
1001
0010
1001
1000
0100
1001
0010
0100
,
1001
0010
2020
3030
0202
0303
0001
1000
,
0011
1000
0011
1000
0100
0011
0001
1000
,
0011
0001
0202
0303
2020
3030
0010
0100
,
0001
1000
0100
0000
0010
0000
0001
0000
1000
0001
0100
0000
0010
0000
0100
0000
,
0001
1000
0100
0000
0010
0000
0001
0000
1000
0100
0010
0000
M002
0000
20M3
0000
,
3M20
0000
023M
0000
0301
0000
1000
0000
0100
0000
0010
0000
0022
0033
0000
0000
,
2020
3030
0000
0000
1MM1
0000
0000
0000
0001
0000
1000
0000
0001
0010
0100
0000
,
1000
0000
0001
0000
0100
0010
1000
0000
0001
0000
1000
0000
0100
1000
0010
0000
,
0100
0000
0010
0000
1000
0001
0010
0000
0100
0000
1000
0000
0001
0010
0001
0000
,
0100
0000
0010
0000
1000
0100
0010
0000
0001
0000
1000
0000
0010
0100
0001
0000
,
1000
0000
0100
0000
0010
0001
1000
0000
0100
0000
1000
0000
0010
0100
0001
0000
,
1000
0000
0100
0000
0010
0001
1000
0000
0010
0000
0100
0000
0010
1000
0001
0000
,
0100
0000
0001
0000
1000
0100
0010
0000
0001
0000
1000
0000
0100
1000
0010
0000
,
0100
0000
0001
0000
1000
0010
0100
0000
0001
0100
0001
0100
0010
1000
0010
1000
,
0001
1000
0001
1000
0010
0100
0010
0100
0001
0000
1000
0000
0001
0010
0100
0000
,
1000
0000
0001
0000
0100
0010
1000
0000
0100
0000
1000
0000
0001
0010
0100
0000
,
0010
0000
0100
0000
0010
0001
0100
0000
0010
0000
1000
0000
0001
0010
0100
0000
,
1000
0000
0001
0000
0100
0001
1000
0000
0100
0000
0010
0000
0100
1000
0001
0000
,
0100
0000
0010
0000
1000
0010
0100
0000
0001
0000
1000
0000
0100
0010
0100
0000
,
1000
0000
0001
0000
1000
0010
1000
0000
0010
0000
0100
0000
0001
1000
0100
0000
,
0010
0000
0001
0000
1000
0010
0100
0000
0001
0000
1000
0000
0001
0010
0001
0000
,
1000
0000
0010
0000
0100
0001
1000
0000
0100
1000
0010
0000
0100
0001
0010
0000
,
0100
1000
0010
0000
0100
0001
1000
0001
1000
0000
0010
0000
0100
0001
0100
0000
,
0001
1000
0001
0000
1000
0000
0200
0000
0000
0000
0310
0000
0001
1000
0001
0000
,
1000
0010
1000
0000
0010
0000
0200
0000
0000
0000
0310
0000
1000
0100
1000
0000
,
0001
1000
0001
0000
0010
0000
0200
0000
0000
0000
1300
0000
0040
0000
1030
0000
,
0004
0000
0013
0000
0400
0000
4300
0000
0000
0000
3001
0000
1000
0100
1000
0000
,
0001
1000
0001
0000
0100
0000
0020
0000
0000
0000
1030
0000
0001
0010
0001
0000
,
1000
0001
1000
0000
0100
0000
0020
0000
0000
0000
0031
0000
1000
0010
1000
0000
,
0010
0100
0010
0000
0100
0001
0100
0000
0010
1000
0010
1000
0001
1000
0001
1000
,
0010
1000
0010
1000
0001
1000
0002
0000
0000
0000
1003
0000
0100
1000
0100
0000
,
1000
0001
1000
0000
1001
0000
2200
0000
0300
0000
3100
0000
0010
0001
1000
0000
,
0010
0000
0010
0000
0110
0000
2020
0000
3000
0000
1030
0000
0001
0010
0001
0000
,
1000
0100
1000
0000
1100
0000
2002
0000
3000
0000
0103
0000
1000
0000
0100
0000
,
0004
0000
1003
0000
1100
0000
2002
0000
3000
0000
1003
0000
0100
1000
0100
0000
,
1000
0001
1000
0000
1001
0000
2020
0000
0030
0000
3010
0000
0100
0001
0100
0000
,
0001
1000
0001
0000
1001
0000
0022
0000
0030
0000
0013
0000
0001
1000
0001
0000
,
1000
0010
1000
0000
0001
0010
0001
0000
1000
0100
1000
0100
1000
0010
1000
0010
,
0100
0000
0000
0001
0000
0000
0100
0000
0000
0001
0000
0000
0010
0000
0000
0001
0000
0000
1000
0000
0000
0000
0000
0000
1001
0000
0000
0000
0001
0000
0000
0000
0100
0000
0000
0000
0010
0000
0000
0000
1000
0000
0000
0000
0001
0000
0000
0000
,
1000
0100
0010
0000
0001
0000
1000
0000
0001
0000
0100
0000
0101
0000
0001
0000
1000
0000
0100
0000
1000
0000
0010
0000
,
0110
0100
0001
1000
0100
0010
0011
0001
1000
0100
1000
0001
,
0100
0010
1000
0000
0001
0000
0010
0000
0100
0000
1000
0000
1001
0000
0001
0000
0100
0000
0010
0000
1000
0000
0001
0000
,
0011
0010
0100
1000
0001
1000
1010
0010
1000
0100
0010
0001
,
1000
0001
0100
0000
0010
0000
1000
0000
0001
0000
1000
0000
1100
0000
0100
0000
0010
0000
0200
0000
0000
0000
1300
0000
,
1001
0001
0100
0010
1000
0001
0011
0010
0100
1000
0001
1000
,
0010
0100
0001
0000
1000
0000
0100
0000
0010
0000
0001
0000
1001
0000
1000
0000
0010
0000
0100
0000
0001
0000
1000
0000
,
0001
0000
0100
0000
0000
0000
0000
0000
0000
0000
0001
0000
0100
0000
0000
0000
0000
0000
0000
0000
0000
0000
0000
0000
0010
0000
0000
1000
0000
0000
0001
0000
0000
1000
0000
0000
0010
0000
0000
0100
0000
0000
0001
0000
0000
1000
0000
0000
,
0010
1000
0100
0010
0001
0010
0100
1000
0001
0100
0010
1000
0001
0010
0100
1000
,
0001
0010
0100
1000
0010
0100
0001
1000
0001
0100
0010
1000
0100
0010
0001
0010
,
0100
1000
0001
0100
0010
0100
0001
1000
0100
0010
0001
0010
0001
1000
0010
0100
,
0001
1000
0001
1000
0010
0100
0010
0100
0001
1000
0100
0010
0001
1000
0100
1000
,
0001
0100
0010
1000
0001
0100
0010
1000
0001
0010
0001
1000
0001
0010
0100
1000
,
0001
0010
0100
1000
0001
0100
0010
1000
0001
1000
0010
0100
0010
1000
0001
0010
,
0100
1000
0001
0010
0001
1000
0100
1000
0001
0100
0010
1000
0001
0010
0001
1000
,
0100
0010
0100
0010
0001
1000
0001
1000
0010
0100
0010
0100
0010
1000
0010
1000
,
0001
0100
0001
0100
0001
1000
0001
1000
0010
0100
0010
0100
0010
1000
0010
1000
,
0001
0100
0001
0100
0001
1000
0001
1000
0010
0100
0010
0100
0010
1000
0010
1000
,
0001
0100
0001
0100
0001
1000
0001
1000
4004
0000
3MM3
0000
4004
0000
3MM3
0000
,
4004
3MM3
4004
3MM3
0002
0003
0002
0003
,
0002
0000
1003
0100
0011
0001
1000
0020
,
0000
0000
0130
0000
MM0M
0000
0100
0000
0010
1000
0001
1000
0001
0010
0100
1000
,
0001
0000
0000
1000
0000
0000
0010
0000
0000
0100
0000
0000
0001
0000
0000
1000
0000
0000
0100
0000
0000
0010
0000
0000
0001
0000
0000
0000
1000
0000
0000
0000
0100
0000
0000
0000
1000
0000
0000
0001
0000
0000
0200
0000
0000
0000
0000
0000
,
0000
0000
0000
0000
0000
0000
0000
0000
0000
0000
0000
0000
0000
0000
0000
0000
0000
0000
0000
0000
0000
0000
0000
0000
0310
0000
0000
0000
1000
0000
0000
0000
0001
0000
0000
0000
1000
0000
0000
0000
0000
0000
0100
0000
0000
0010
0000
0000
,
0001
0000
0000
0000
0000
0000
0100
0000
0000
0000
0000
0000
0010
0000
0000
0100
0000
0000
0001
0000
0000
0000
0000
0000
1000
0000
0200
0000
0000
0000
0000
0000
0000
0000
0000
0000
0310
0000
0002
0000
0000
0000
0000
0000
0000
0000
0000
0000
,
1003
0000
0020
0000
0030
0000
0000
0000
0100
0000
0001
0000
0000
0000
0000
0000
1000
0000
0100
0000
0000
0000
0000
0000
0010
0000
0000
0001
0000
0000
1000
0000
0000
0000
0000
0000
1000
0000
0000
0100
0000
0000
0010
0000
0000
0001
0000
0000
,
1000
0010
0100
0001
0020
0000
0031
1000
0100
0000
2000
0000
0000
0000
3001
0000
,
0100
0010
0100
0010
2000
0000
0000
0000
3001
0010
0001
1000
0100
0010
0001
1000
,
0010
0100
0001
1000
0001
0010
0001
1000
0100
0010
0001
1000
0010
1000
0001
0100
,
0010
1000
0001
0100
0001
0100
0010
1000
0001
0010
0100
1000
0001
0010
0100
1000
,
0001
0100
0010
1000
0001
0100
0010
1000
0001
0100
0001
1000
0100
1000
0002
0000
,
0000
0000
1003
0100
1000
0001
0010
0000
0100
1000
0100
1000
0100
1000
0001
0100
,
0001
0000
0000
0100
0000
0000
0001
0000
0000
0100
0000
0000
0010
0000
0000
0000
1000
0000
0000
0000
0001
0000
0000
0000
1000
0000
0000
0010
0000
0000
1000
0000
0000
0010
0000
0000
1000
0000
0000
0010
0000
0000
0100
0000
0000
0001
0000
0000
,
0100
0000
0000
0001
0000
0000
0100
0000
0000
0001
0000
0000
1000
0000
0000
0000
0100
0000
0000
0000
0010
0000
0000
0000
0001
0000
0000
0100
0000
0000
0001
0000
0000
0100
0000
0000
0010
0000
0000
0000
0000
0000
1000
0000
0000
0000
0000
0000
,
0001
0010
0001
0010
0100
0000
1000
0000
0001
0100
0001
0100
0010
1000
0010
1000
,
0001
0010
0001
0010
0100
1000
0100
1000
0001
0100
0010
1000
0001
1000
0100
0010
,
0001
0000
0100
0000
0000
0000
0000
0000
0000
0000
0000
0000
0010
0000
0000
1000
0000
0000
0001
0000
0000
0000
0000
0000
1000
0000
0000
0100
0000
0000
0010
0000
0000
0001
0000
0000
1000
0000
0000
0010
0000
0000
0100
0000
0000
0010
0000
0000
,
1000
0000
0001
0000
0000
0000
0000
0000
0000
0000
0000
0000
1000
0000
0000
0100
0000
0000
0010
0000
0000
0000
0000
0000
M001
0000
0000
0000
0000
0000
10M0
0000
0000
0000
0000
0000
0M10
0000
0000
0000
0000
0000
0100
0000
0000
0000
0000
0000
,
000M
0001
M000
100M
0M01
M100
1000
M200
,
0000
000M
0302
0000
2003
0000
3010
0010
,
0100
0100
0100
0100
0001
0001
0001
0001
,
1000
1000
0100
0100
0040
0034
4003
3004
,
0000
0000
0000
0000
0103
0000
0010
0000
1000
0001
1000
0001
0100
0001
0100
0001
,
1000
0100
1000
0100
0010
0100
0010
0100
1000
0001
0100
0001
1000
0100
0020
0000
,
0031
1000
0001
0100
0010
1000
0002
0000
1003
0100
0010
0001
1000
0010
1000
0001
,
0100
0000
0000
0010
0000
0000
1000
0000
0000
0100
0000
0000
1000
0000
0000
0001
0000
0000
0010
0000
0000
0001
0000
0000
1000
0000
0000
0000
0100
0000
0000
0000
0010
0000
0000
0000
0001
0000
0000
0100
0000
0000
0010
0000
0000
1000
0000
0000
,
0001
0000
0000
0000
0100
0000
0000
0000
0010
0000
0000
0000
1000
0000
0000
0001
0000
0000
1000
0000
0000
0100
0000
0000
0010
0000
0000
0000
0001
0000
0000
0000
1000
0000
0000
0000
0001
0000
0000
1000
0000
0000
0010
0000
0000
0100
0000
0000
,
0002
0000
0000
0000
0000
0000
1003
0010
0100
0001
1000
0100
,
1000
0000
0000
0000
0001
0000
0000
0000
0010
0000
0000
0000
0100
0000
0000
1000
0000
0000
0001
0000
0000
1000
0000
0000
0001
0000
0000
0100
0000
0000
0010
0000
0000
1000
0000
0000
0001
0000
0000
0000
0010
0000
0000
0000
0100
0000
0000
0000
,
1000
0000
0000
0001
0000
0000
1000
0000
0000
0001
0000
0000
4000
0000
0000
0000
0000
0000
0000
0000
0000
0000
0000
0000
3001
0000
0000
0000
0100
0000
0000
0000
0010
0000
0000
0000
1000
0000
0000
0000
0001
0000
0000
0000
1000
0000
0000
0000
,
0100
0000
0000
0010
0000
0000
0001
0000
0000
1000
0000
0000
0002
0000
0000
0000
0000
0000
0000
0000
0000
0000
0000
0000
1003
0000
0100
0000
1000
0000
0001
0000
0000
0100
0000
0000
0001
0000
0100
0000
0001
0000
1000
0000
0000
0010
0000
0000
,
1000
0000
0000
0001
0000
0000
0010
0000
0000
0001
0000
0000
1000
0000
0000
0000
0001
0000
0000
0000
1000
0000
0000
0000
0100
0000
0000
0000
0000
0000
0010
0000
0000
0000
0000
0000
0010
0000
0000
0000
0000
0000
0100
0000
0000
0000
0000
0000
,
0020
0000
0000
0000
0000
0000
0130
0000
0000
0010
0001
0000
0000
0000
0000
1000
0010
0000
0000
0000
0000
0100
0002
0000
,
0000
1003
0010
0100
0001
MMM0
1000
0100
,
0M00
0100
0010
0100
1000
0010
0001
0020
,
0000
0000
0000
0000
0000
0000
0000
0000
1030
0100
1000
0100
1000
0100
0010
0001
,
0010
0001
0010
0001
1000
0001
1000
0001
0100
0010
0100
0010
0100
0010
1000
0001
,
1000
0001
1000
0001
0100
0001
0100
0001
1000
0000
0100
0000
1000
0000
0001
0000
,
0000
0001
1000
0100
0000
1000
0002
0000
,
1003
0000
0000
0100
0000
0000
0010
0000
0000
0001
0000
0000
1000
0000
0000
0001
0000
0000
0100
0000
0000
0010
0000
0000
1000
0000
0000
0000
0000
0000
0001
0000
0000
0000
0000
0000
0100
0000
0010
0000
0000
0000
0000
0000
0000
0000
0000
0000
,
1000
0001
0000
0000
0000
0000
0010
0001
0000
1000
0000
0000
1000
0000
0000
0100
0000
0000
0010
0000
0000
0200
0000
0000
,
0000
0000
1300
0001
1000
0001
0100
0000
0001
0100
0010
1000
0001
1000
0100
0010
,
0001
0100
0010
1000
0001
0010
0001
1000
0001
0000
0100
0000
0001
0000
0020
0000
,
0000
0000
0000
0000
0130
1000
0001
0200
,
0000
0000
0310
0000
1000
0001
1000
0000
0001
0100
0010
1000
0001
0000
0020
0000
,
0000
0000
0130
0000
1000
0010
0100
0001
0100
0010
1000
0001
0010
0001
1000
0100
,
1000
0010
0100
0001
0010
0100
1000
0001
1001
0000
0000
0000
2000
0000
3002
0000
,
0023
0000
0230
0000
2300
0000
3002
0000
0103
0000
0010
0000
1000
0010
1000
0000
,
0001
0000
0010
0000
0100
1000
0100
0000
0010
0000
0001
0000
1000
0001
1000
0000
,
0001
0000
0010
0000
0001
1000
0001
0000
1001
0000
0001
0000
1000
0010
1000
0000
,
0001
0000
0100
0000
0001
0010
0001
0000
1000
0000
0100
0000
0010
0001
0010
0000
,
0100
0000
1000
0000
0010
0100
0010
0000
1010
0000
1000
0000
0001
0010
0001
0000
,
1000
0000
0100
0000
1000
0001
1000
0000
1001
0000
0001
0000
1000
0010
1000
0000
,
0001
0000
0100
0000
0010
1000
0010
0000
1000
0000
0001
0000
0010
0001
0010
0000
,
0100
0000
1000
0000
0001
1000
0001
0000
0100
0010
1000
0001
1000
0001
0100
0010
,
1000
0001
1000
0001
0100
0000
0010
0000
1010
0000
1000
0001
1000
0100
0010
0001
,
1000
0010
1000
0001
0010
0100
1000
0001
0010
0001
1000
0010
0100
0001
1000
0100
,
1000
0001
0010
0100
2000
0000
3000
0000
0002
0000
0003
0000
0002
0000
0003
0000
,
0002
0000
0003
0000
1000
0000
0010
0000
0100
0001
1000
0100
1000
0000
0002
0000
,
0000
0000
0000
0000
0003
0000
0000
0000
1000
0100
0010
0001
1000
0010
1000
0001
,
0010
0001
0100
0010
1000
0001
0100
0010
0100
0001
0010
0100
1000
0100
0010
0100
,
1000
0001
0100
0001
2000
0000
0000
0000
3002
0000
0000
0000
0100
0000
0100
0000
,
0103
0000
0010
0000
1000
0000
0100
0000
0010
0001
0010
0001
1000
0010
1000
0010
,
0100
0001
0100
0001
1000
0100
1000
0100
0010
0000
0000
0000
0002
0000
0000
0000
,
0203
0302
1013
2000
,
3200
0000
0000
0000
2300
0000
0000
0000
3001
0010
0001
1000
0010
1000
0001
0100
,
0010
1000
0001
0010
0100
1000
0100
1000
0001
0100
0010
1000
0001
0100
0001
0100
,
0010
1000
0001
0010
0100
1000
0001
0010
0001
1000
0100
1000
0001
0100
0010
1000
,
0001
0100
0001
0100
0010
1000
0001
0010
0100
1000
0001
1000
0001
0100
0010
1000
,
0001
0010
0001
1000
0100
1000
0001
0010
0001
0010
0100
1000
0100
1000
0001
0100
,
0001
1000
0010
0100
0001
0100
0010
1000
0001
0100
0001
1000
0100
1000
0001
0010
,
0001
1000
0010
1000
0001
0010
0001
1000
0001
0000
0100
0000
0010
1000
0010
0000
,
0100
0000
0001
0000
1000
0100
1000
0000
0010
0000
1000
0000
0001
0010
0001
0000
,
1000
0000
0100
0000
1000
0001
1000
0000
1001
0000
0001
0000
0100
0010
0100
0000
,
0001
0000
1000
0000
0100
1000
0100
0000
1100
0000
0100
0000
0010
0000
0011
0000
,
0001
0000
1000
0000
0001
0100
0010
0000
0100
0000
0001
0000
1000
0100
1000
0000
,
0001
0000
0010
0000
0001
1000
0001
0000
1000
0000
0100
0000
0010
0100
0010
0000
,
0001
0000
1000
0000
0001
0100
0001
0000
0101
0000
0100
0000
0010
1000
0010
0000
,
1000
0000
0001
0000
0010
0001
0010
0000
0100
1000
0001
1000
0001
0100
0001
0000
,
1000
0100
0010
0100
0010
0001
0010
0000
0001
0000
1000
0000
0001
0100
0001
0000
,
1000
0000
0010
0000
0100
0010
0100
0000
0001
0000
1000
0000
0001
0010
0001
0000
,
0010
0000
0100
0000
1000
0100
1000
0000
0002
0000
1003
0100
1000
0001
1000
0010
,
0100
0001
1000
0100
1000
0001
1000
0010
0200
0000
0301
0010
0001
1000
0200
0000
,
0310
0001
1000
0001
0100
0010
0100
0010
1000
0000
0001
0000
1000
0100
1000
0000
,
0001
0000
0010
0000
0100
0010
0100
0000
0010
0000
0001
0000
1000
0010
1000
0000
,
0001
0000
0100
0000
0010
0100
0010
0000
2000
0000
3001
0100
0010
1000
0002
0000
,
0103
0010
1000
0000
0001
0100
0001
0000
1000
0100
1000
0100
0010
0001
0010
0001
,
1000
0100
1000
0100
0010
0001
0010
0001
1000
0000
0001
0000
0100
0010
0100
0000
,
0001
0000
1000
0000
0100
1000
0100
0000
0010
0000
0001
0000
1000
0001
1000
0000
,
0001
0000
0100
0000
0001
0100
0001
0000
2000
0000
3100
0010
0001
1000
0001
0100
,
0020
0000
1030
0001
1000
0100
0010
0001
2000
0000
3001
0100
0010
1000
0002
0000
,
0013
0100
1000
0001
0100
0001
1000
0001
0100
0000
0010
0000
1000
0001
1000
0000
,
0001
0000
0010
0000
0001
0010
0001
0000
1000
0000
0100
0000
1000
0001
1000
0000
,
0100
0000
0010
0000
0001
0100
0001
0000
2000
0000
0000
0000
0000
0000
0000
0000
,
0000
0000
0000
0000
0000
0000
0000
0000
3001
0100
0001
0100
0010
1000
0010
1000
,
0001
1000
0001
1000
0010
0100
0001
1000
0100
0000
1000
0000
1001
0000
0010
0000
,
1001
1000
0010
1001
0001
0010
1001
0100
,
2020
3030
0202
0303
0100
0001
1010
0001
,
1010
0100
0001
1010
0100
0001
1010
0001
,
2200
0000
3300
0000
0022
0000
0033
0000
0010
0000
0100
1000
0001
0000
1000
0000
,
0010
0000
0100
0010
1000
0000
0001
0000
0010
0000
0100
1000
0001
0000
1000
0000
,
0100
0000
0010
0001
0100
0000
0010
0000
0100
0000
0010
1000
0001
0000
1000
0000
,
0100
0000
0010
0001
1000
0000
0001
0000
1000
0100
0010
0001
0010
0001
1000
0100
,
0010
0001
0010
0001
1000
0000
1010
0000
0010
0000
0100
0000
1001
0000
0100
0000
,
1001
0001
0010
1001
0100
0010
1001
0100
,
0202
0303
2020
3030
1000
0001
1100
0001
,
1100
0001
0010
1100
1000
0001
1100
1000
,
2020
0000
3030
0000
0202
0000
0303
0000
0100
0000
0010
0000
1000
0001
0010
0000
,
0100
0000
1000
0000
0001
1000
0010
0000
0100
0000
0010
0000
1000
0001
0010
0000
,
0100
0000
1000
0000
0001
0010
0100
0000
1000
0000
1000
0000
0101
0000
1000
0000
,
1000
0000
0011
0000
1000
0000
1000
0000
0001
0100
0010
1000
0001
0100
0010
1000
,
0001
0000
0000
0100
0000
0000
0010
0000
0000
1000
0000
0000
0001
0000
0000
0100
0000
0000
0010
0000
0000
1000
0000
0000
00M2
0000
0000
0000
0000
0000
0000
0000
M000
0000
0000
0000
0000
0000
0000
0000
0000
0000
0000
0000
00M0
0000
0000
0000
,
0000
0000
0M00
0000
00M0
0000
1003
0M00
0000
0000
000M
0000
,
0000
M000
0000
0000
000M
0000
0000
00M0
0000
0000
0M00
0000
,
0000
0000
0000
0000
M000
0000
0000
0000
0000
0000
0000
0000
0000
0000
0000
0000
00M0
0000
M000
0000
0000
0000
0000
0000
0001
0000
0000
0100
0000
0000
0010
0000
0000
1000
0000
0000
0001
0000
0000
1000
0000
0000
0100
0000
0000
0010
0000
0000
,
0001
1000
0001
1000
0100
0010
0001
1000
0001
0000
100M
0000
M100
0000
1M00
0000
,
2MM2
0000
3003
0000
2MM2
0000
3003
0000
0001
0000
1000
0000
0001
0010
0100
0000
,
1000
0000
0001
0000
0100
0010
1000
0000
0001
0000
1000
0000
0100
1000
0010
0000
,
0100
0000
0010
0000
1000
0001
0010
0000
0100
0000
1000
0000
0001
0010
0001
0000
,
0100
0000
0010
0000
1000
0100
0010
0000
0001
0000
1000
0000
0010
0100
0001
0000
,
1000
0000
0100
0000
0010
0001
1000
0000
0100
0000
1000
0000
0010
0100
0001
0000
,
1000
0000
0100
0000
0010
0001
1000
0000
0010
0000
0100
0000
0010
1000
0001
0000
,
0100
0000
0001
0000
1000
0100
0010
0000
0001
0000
1000
0000
0100
1000
0010
0000
,
0100
0000
0001
0000
1000
0010
0100
0000
0002
0000
0023
0000
203M
0000
3020
0000
,
M032
0000
0203
0000
230M
0000
3200
0000
M301
0000
1000
0000
0001
0010
0100
0000
,
1000
0000
0001
0000
0100
0010
1000
0000
0100
0000
1000
0000
0001
0010
0100
0000
,
0010
0000
0100
0000
0010
0001
0100
0000
0010
0000
1000
0000
0001
0010
0100
0000
,
1000
0000
0001
0000
0100
0001
1000
0000
0100
0000
0010
0000
0100
1000
0001
0000
,
0100
0000
0010
0000
1000
0010
0100
0000
0002
0000
1003
0100
1000
0001
0020
0000
,
0130
1000
0100
1000
0001
0100
0001
1000
0020
0000
0130
0001
1000
0001
2000
0000
,
3001
0010
0001
1000
0100
1000
0001
0100
0020
0000
0130
0001
1000
0001
2000
0000
,
3010
0100
0001
1000
0001
0010
0100
1000
0002
0000
1003
0100
0010
0001
1000
0001
,
1000
0001
0010
0100
1000
0001
1000
0010
0200
0000
0301
0010
0001
1000
0200
0000
,
1300
0001
0100
0010
1000
0001
1000
0100
0020
0000
0031
1000
0001
1000
0020
0000
,
0130
0001
1000
0001
0010
0100
1000
0001
1000
0000
0010
0000
0100
0000
0001
0000
,
1000
0000
0010
0000
0100
0000
0001
0000
1000
0100
0010
0001
1000
0001
1000
0000
,
0001
0100
0010
1000
0001
0010
0001
0000
4MM4
0000
0000
0000
0000
0000
0000
0000
,
0000
0000
0000
3003
4MM4
0000
0000
0000
,
0000
0000
0000
3003
4MM1
0000
0000
0000
,
0MM1
0000
0000
0000
0MM1
0MM4
0000
0000
,
0000
3000
0000
0000
,
0000
0000
0000
0000
,
0000
0000
0000
0000
,
0000
0000
0000
0003
0000
0000
0000
0000
;
