#TITLE:どんなときも;
#SUBTITLE:;
#ARTIST:Mr. T と Brother Hiro;
#TITLETRANSLIT:;
#SUBTITLETRANSLIT:;
#ARTISTTRANSLIT:;
#CREDIT:Kasu;
#BANNER:banner.jpg;
#BACKGROUND:background.jpg;
#LYRICSPATH:;
#CDTITLE:!title.png;
#MUSIC:music.mp3;
#OFFSET:-0.372;
#SAMPLESTART:24.260;
#SAMPLELENGTH:13.260;
#SELECTABLE:YES;
#BPMS:0.000=160.010;
#STOPS:;
#BGCHANGES:;
// cache tags:
#FIRSTBEAT:16.000;
#LASTBEAT:294.000;
#SONGFILENAME:Songs/Bemani.se Megapack/(Kasu) Donna toki mo/steps.sm;
#HASMUSIC:1;
#HASBANNER:1;
#MUSICLENGTH:117.188;
// end cache tags

//---------------dance-single - KASU----------------
#NOTES:
     dance-single:
     KASU:
     Challenge:
     11:
     0.785,0.815,0.094,0.350,0.627,592.000,11.000,41.000,0.000,0.000:
0000
0000
0000
0000
,
0000
0000
0000
0000
,
0000
0000
0000
0000
,
0000
0000
0000
0000
,
1001
0000
1000
0010
1000
0000
0010
0000
0000
0000
0100
0000
0001
0000
0000
0000
,
0010
0000
0100
0010
0100
0000
1000
0000
0000
0000
0010
0000
1000
0000
0000
0000
,
0010
0100
0001
0010
0000
0100
0000
1001
,
0000
0001
1000
0000
0100
1000
0000
0010
1000
0000
0001
1000
0010
0100
0010
1000
,
0100
0000
1000
0000
0010
0000
1000
0000
0100
0000
0010
0001
0100
0000
0001
0000
,
0010
0000
0100
0000
0010
0000
0001
0000
1000
0010
1000
0000
0010
0000
0100
0000
,
1000
0100
1000
0000
0100
0000
0010
0000
1000
0000
0100
0000
0010
0000
0001
0000
,
0010
0001
1000
0010
1000
0010
0100
0001
0100
0001
0010
0001
0010
0000
0100
0000
,
1000
0000
0010
0000
0100
0000
0001
0000
0010
0000
0001
0100
0010
0000
1000
0000
,
0100
0000
0001
0000
0100
0000
1000
0000
0100
1000
0010
0000
0100
0000
0001
0000
,
0100
1000
0100
0001
0010
0100
1000
0010
,
0100
0000
0000
0010
0000
0000
0100
0000
0000
0001
0000
0000
0010
0000
0000
0100
0000
0000
0010
0000
0000
0001
0000
0000
0100
0000
0000
0010
0000
0000
1000
0000
0000
0100
0000
0000
0010
0000
0000
0001
0000
0000
1000
0000
0001
0000
1000
0000
,
0001
0000
0000
0000
1001
0000
1000
0001
1000
0000
1010
0000
0000
0000
1000
0000
,
0020
0000
0230
0000
0302
0000
0103
0001
,
0100
0000
0010
0000
0100
0001
0100
0010
1000
0010
0000
1000
0000
0000
0100
0000
,
2000
0000
3200
0000
0320
0000
0130
0010
,
0001
0000
0100
0000
0010
1000
0100
0010
0001
1000
0000
0001
0000
0000
0001
0000
,
0020
0000
0000
0000
0130
0000
1000
0000
0010
0000
0100
0010
1000
0001
0100
0000
,
0002
0000
0000
0000
1003
0100
0010
0100
1000
0100
0000
1000
0000
0000
0100
0000
,
0020
0000
0031
0020
0000
0230
0000
1300
,
0020
0000
0000
0000
0030
0100
0001
0100
0010
1000
0010
1000
0100
1000
0001
0010
,
0002
0000
0023
0000
0230
0000
1300
0010
,
0100
0000
0001
0000
1000
0100
1000
0001
0010
0001
0000
1000
0000
0000
0100
0000
,
0020
0000
0230
0000
2300
0000
3000
0010
,
0100
0000
0001
0000
1000
0000
0010
1000
0010
1000
0000
0001
0000
0010
0001
0010
,
0002
0000
0000
0000
0013
0000
0100
0000
1000
0000
0100
0010
0001
0010
0100
0000
,
1000
0000
0000
0000
0010
0100
0001
0100
0010
1000
0000
0010
0000
0000
0010
0000
,
1000
0100
0001
0100
1000
0000
0010
0000
,
0100
0000
0101
0000
0000
1100
0000
1000
0100
1000
0010
0100
0010
1000
0100
0000
,
0010
0010
0100
1000
0010
0010
0100
0001
,
0020
0000
0031
1000
0200
0000
0000
0301
,
0100
1000
0010
0100
0002
0000
0023
0030
,
2002
0000
0000
0000
3003
0000
1000
0100
,
0001
0000
0001
1000
0000
1000
0010
0001
,
0100
1000
0100
0001
0000
0100
0010
1000
,
0100
1000
0010
0100
0001
0000
0011
0000
,
1100
0000
1000
0100
1000
0100
0010
0001
0100
0010
0100
0010
1000
0010
1000
0100
,
0010
0000
0000
0000
0001
0000
0100
0001
0100
0000
0010
0000
1010
0000
0000
0000
,
2000
0000
0000
0000
3010
0000
1000
0000
0100
0000
0010
0100
0010
0000
0000
0000
,
0002
0000
0000
0000
0013
0000
0100
0000
1000
0100
2000
0000
0000
0000
3100
0000
,
1000
0010
0100
0010
1000
0001
0010
0001
,
2000
0000
0000
0000
3001
0100
0001
1000
0010
0100
0010
1000
0100
0000
1000
0010
,
0200
0000
0320
0000
0130
1000
0100
0010
,
2000
0000
0000
0000
3100
0010
0001
1000
0001
0010
0000
0001
0000
0100
1000
0100
,
0010
0000
1000
0000
0010
0000
1000
0100
0010
0001
0010
0100
1000
0000
0100
0000
,
0010
0100
1000
0100
1000
0000
0001
0010
0100
1000
0100
0010
0001
0000
0000
0000
,
2000
0000
0000
0000
3001
0000
1000
0000
0100
0000
0010
0100
0010
0000
0100
0000
,
0001
0000
0000
0000
0100
0000
1000
0000
0010
1000
0020
0000
0000
0000
1030
0000
,
0010
0100
0001
0100
0010
1000
0010
1000
,
0200
0000
0000
0000
1300
0010
0100
0010
1000
0001
0100
0010
1000
0000
0010
1000
,
0200
0000
0302
0000
0203
0000
1300
0010
,
0200
0000
0000
0000
1300
0000
0100
0010
0100
0001
0000
0010
0000
0100
1000
0001
,
0100
0000
0100
0000
0001
0000
1000
0001
0010
0100
0010
0001
0100
0000
1000
0000
,
0100
0000
0001
0000
0010
0000
1000
0000
0010
0000
0001
0010
0001
0000
0100
0000
,
0010
0000
0100
0000
1000
0000
0100
0000
0001
0000
0010
0001
0010
0000
0001
0000
,
1000
0010
0100
0001
0000
0010
0000
0100
,
0000
0100
1000
0001
0100
0001
1000
0010
0100
0010
1000
0100
1000
0000
0010
0000
,
1000
0000
0100
0000
0001
0000
0100
0000
1000
0000
0100
1000
0100
0000
1000
0000
,
0010
0000
0001
0000
0010
0000
1000
0000
0100
0000
1000
0100
1000
0000
0010
0000
,
0100
0010
1000
0100
0000
0010
0000
0001
,
0000
0010
0100
0001
0100
0010
0001
0100
0001
0010
0100
0010
0001
0000
0100
0000
,
0001
0000
0000
0000
1000
0000
0010
0000
0000
0000
0100
0010
1000
0000
0000
0000
,
0010
0000
0000
0000
0100
0000
0010
0000
0000
0000
1000
0010
0100
0000
0000
0000
,
0010
0100
1000
0100
0000
0010
0000
0010
,
0000
0100
0010
1000
0010
1000
0100
0010
0001
0010
0001
0100
0001
0000
0100
0000
,
0010
0000
1000
0000
0001
0000
0010
0000
0000
0000
0010
0001
0100
0000
0000
0000
,
0010
0000
0100
0000
1000
0000
0100
0000
0000
0000
0010
1000
0010
0000
0000
0000
,
1000
0100
0001
0100
0000
1000
0000
0010
,
0000
1000
0001
0100
0001
1000
0010
0100
0010
1000
0001
0100
0001
1000
0001
0010
,
2002
0000
3003
0000
;

//---------------dance-single - KASU----------------
#NOTES:
     dance-single:
     KASU:
     Easy:
     5:
     0.379,0.407,0.077,0.119,0.021,288.000,9.000,14.000,0.000,0.000:
0000
0000
0000
0000
,
0000
0000
0000
0000
,
0000
0000
0000
0000
,
0000
0000
0000
0000
,
1000
0000
0000
0001
0000
0000
0000
0000
,
0100
0000
0000
0001
0000
0000
0000
0000
,
0010
0001
0100
0010
0000
1000
0000
0100
,
0000
0000
0000
0010
0000
0000
0000
0000
,
0001
0000
1000
1000
0000
1100
0000
0000
,
0100
0000
0010
0010
0000
0110
0000
0000
,
0010
0001
0100
0010
0000
2000
0000
3020
,
0000
0000
0000
0230
0000
0000
0300
0000
,
0010
0000
0100
0100
0000
0110
0000
0000
,
1000
0000
0010
0010
0000
1010
0000
0000
,
0100
0001
0010
0100
0000
2000
0000
3020
,
0000
0000
0000
0230
0000
0000
0000
0000
,
0310
0000
0100
0001
0101
0000
1010
0000
,
0100
0000
0001
0000
1000
0000
0100
0010
,
0001
0000
1000
0000
0100
0000
0000
0010
,
0100
0000
1000
0000
0010
0000
0100
0010
,
1000
0000
0100
1000
0000
0000
0000
0010
,
0100
0000
0001
1000
0100
0000
0000
0010
,
0001
0000
0100
0010
1000
0000
0000
0100
,
1000
0000
0100
0010
0000
0001
0000
0100
,
0020
0000
1000
0000
2030
3000
0000
0100
,
1000
0000
0010
0000
0100
0000
0001
1000
,
0001
0000
0001
0100
0000
0000
0000
0010
,
0100
0000
0001
0000
0100
0000
0000
0010
,
1000
0000
1000
0100
0000
0000
0000
0100
,
0010
0000
0100
0010
0100
0000
0000
0010
,
0001
0000
0100
0001
0100
0000
0000
0010
,
1000
0000
0100
1000
0010
0000
0010
0000
,
0100
0000
0000
0001
0010
0000
0000
0100
,
1000
0000
0000
0010
0000
0000
0100
0000
0000
0001
0000
0000
0010
0000
0100
0000
,
1000
0000
0000
0100
0000
0000
0010
0000
0000
0001
0000
0000
1000
0000
0001
0000
,
0100
0000
0000
0001
0000
0000
0100
0000
0010
0000
0000
0000
0010
0000
0000
0000
,
0200
0000
0000
0000
0000
0300
0010
1000
,
0100
0000
0010
0001
0000
0100
0010
1000
,
0010
0000
0010
0100
0000
0100
0010
1000
,
0010
0000
0010
0100
0010
0000
0020
0000
,
2000
0000
3030
0000
,
1000
0000
0001
1000
1100
0000
0011
0000
,
0010
0000
0001
1000
0010
1000
0000
0000
,
0010
0000
0100
0010
1000
0001
0000
0010
,
0100
1000
0010
1000
0001
0000
0001
1000
,
0010
0000
1000
0100
0010
0000
0000
0000
,
0001
0000
0100
0000
0010
1000
0010
0100
,
0001
0000
0010
0000
0200
0000
0300
0010
,
0100
0000
0010
0001
0010
0000
0000
0001
,
1000
0100
1000
0000
1000
0010
0000
0000
,
0100
0000
0010
1000
0100
1000
0000
0000
,
0001
0000
0010
0100
1000
0100
0000
0100
,
0010
0100
0010
0001
1000
0000
1000
0001
,
1000
0000
0010
1000
0010
0000
0000
0000
,
1000
0000
0010
0000
0100
0000
0100
0001
,
0100
0000
0001
0000
1000
0000
0100
0010
,
0100
0010
0001
0010
0000
0001
0100
1000
,
0100
0000
0000
0001
0000
0000
0000
0000
,
0010
0000
0000
0100
0000
0000
0000
0000
,
0001
0100
1000
0010
0000
0010
0000
0100
,
0000
0000
0000
1000
0000
0000
0000
0000
,
0100
0000
0000
0010
0000
0000
0000
0000
,
1000
0000
0000
0010
0000
0000
0000
0000
,
0010
1000
0100
0010
0000
0001
0000
0100
,
0000
0000
0000
0010
0000
0000
0000
0000
,
0100
0000
0000
0001
0000
0000
0000
0000
,
1000
0000
0000
0010
0000
0000
0000
0000
,
0100
0001
0010
0100
0000
1000
0000
0010
,
0000
0000
0000
0100
0000
0000
0000
0000
,
0001
0000
0000
0010
0000
0000
0000
0000
,
0100
0000
0000
1000
0000
0000
0000
0000
,
0010
0100
0010
1000
0000
0100
0000
0010
,
0000
0000
0000
0001
0000
0000
0000
0000
,
2002
0000
0000
3003
0000
0000
0000
0000
;

//---------------dance-single - KASU----------------
#NOTES:
     dance-single:
     KASU:
     Hard:
     8:
     0.518,0.533,0.034,0.162,0.038,402.000,4.000,19.000,0.000,0.000:
0000
0000
0000
0000
,
0000
0000
0000
0000
,
0000
0000
0000
0000
,
0000
0000
0000
0000
,
1000
0000
0000
0001
0000
0000
0000
0000
,
0010
0000
0000
0100
0000
0000
0000
0000
,
1000
0010
0100
0001
0000
0010
0000
0100
,
1000
0010
0100
0001
,
0010
0100
1000
0010
0100
0001
0010
0100
,
0010
0001
0100
0010
0100
1000
0100
0010
,
1000
0100
0010
0001
0000
0100
0000
0020
,
0000
0000
0000
0000
0030
0000
2000
0000
0000
0000
0000
0000
0000
3000
0000
0000
,
0100
0010
0001
0100
0010
1000
0010
0100
,
0010
0100
0001
1000
0001
0010
0100
0010
,
0001
0000
0100
0000
0001
0000
2000
0000
0000
3000
0010
0000
0000
0000
0200
0000
,
0000
0000
0000
0000
0000
0300
0002
0000
0000
0000
0000
0000
0003
0000
0000
0000
,
0010
0000
0000
0000
0100
0000
1000
0100
1000
0000
0010
0000
0100
0000
0001
0000
,
0010
0000
0100
0000
1000
0000
0010
0100
,
0010
1000
0100
0010
0001
0000
0000
0100
,
0010
0000
0100
0000
1000
0000
0100
0010
,
0000
1000
0100
0010
0000
0000
0000
0001
,
0100
0000
0001
0010
0100
0000
0000
0010
,
0001
0000
0100
0010
0100
0000
0000
1000
,
0100
0000
0010
1000
0000
0100
0000
0010
,
0001
0000
1000
0000
0010
0000
0100
0000
0001
0000
1000
0100
1000
0000
0010
0000
,
0100
0000
0010
0000
1000
0000
1000
0010
,
0100
0000
0010
0000
1000
0000
0020
0000
0000
0030
0000
0000
0000
0000
0100
0000
,
0001
0000
0010
0000
0100
0000
0000
1000
,
0010
0100
0001
0010
0000
0000
0000
0001
,
0100
0000
0010
1000
0100
0000
0000
0010
,
0001
0000
0100
0010
1000
0000
0000
1000
,
0010
0000
0100
0000
0001
0000
0010
0100
0010
0000
0100
0000
1000
0000
0010
0000
,
0100
0000
0001
0000
2000
0010
3010
0000
,
0010
0000
1000
0100
1000
0000
0010
0000
0100
0000
0010
0000
0001
0000
0010
0000
,
1000
0000
0000
0000
0001
0000
1000
0010
1000
0000
0010
0000
0100
0000
0010
0000
,
0100
0001
0010
1000
0010
0000
0001
0000
,
2000
0000
0001
0000
0001
0000
3001
0100
,
0010
0000
1000
0100
1000
0000
0010
0000
0100
0000
0001
0000
0010
0000
0100
0000
,
1000
0010
0100
0010
0000
0100
1000
0100
,
0010
1000
0100
1000
0001
0000
0010
0000
,
0200
0000
1000
0000
0010
1000
2300
3000
,
0010
0000
0000
0000
0100
0000
0010
0100
0010
0000
1000
0000
0100
0000
0010
0000
,
0011
0000
0001
0100
1000
0100
0000
0000
,
1010
0000
1000
0100
0001
0100
0000
0100
,
0010
0100
0010
0001
0100
0010
0001
0010
,
0100
0000
0010
0100
0002
1000
1003
0000
,
0001
0000
0100
0000
1000
0100
0001
0010
,
1000
0000
0001
0000
0100
0000
0000
0001
,
1000
0010
0100
0001
1000
0000
0000
0001
,
0100
1000
0010
0100
0001
0001
0000
0000
,
0100
0000
0000
0000
0010
0000
1000
0100
1000
0000
0001
0000
0010
0000
0000
0000
,
0001
0000
0000
0000
0100
0000
0010
0100
0010
0000
1000
0000
0010
0000
0100
0000
,
0010
0100
0001
0010
0100
1000
0010
0100
,
1000
0000
1000
0100
0001
0000
0000
0000
,
0100
0000
0010
0000
1000
0000
0001
1000
,
0100
0000
0010
0000
0100
0000
1000
0001
,
0100
0010
1000
0010
0000
1000
0010
0100
,
0001
0010
0100
2000
0000
0010
3010
0000
,
0100
1000
0100
0002
0000
0010
0013
0000
,
0001
0010
0100
1000
0000
0010
0000
0100
,
0000
0000
0000
0001
0000
0000
1001
0000
,
0100
0010
1000
0200
0000
0010
0310
0000
,
0010
0001
1000
0020
0000
1000
1030
0000
,
0010
0010
1000
1000
0000
0010
0000
0100
,
0000
0001
1000
0100
1000
0010
0100
0001
,
1000
0000
0100
0010
0000
1000
0010
0001
,
0100
0000
0010
0100
0000
1000
0100
0010
,
1000
0100
0010
0001
0000
0010
0000
0001
,
0100
0010
1000
0010
0100
0001
0010
0001
,
1000
0100
0010
0002
0000
0100
0103
0000
,
0001
0010
0100
2000
0000
0010
3010
0000
,
0010
0100
0001
1000
0000
0010
0000
0100
,
0000
0010
0000
1000
0000
0000
0100
0000
,
2002
0000
3003
0000
;

//---------------dance-single - KASU----------------
#NOTES:
     dance-single:
     KASU:
     Medium:
     6:
     0.390,0.438,0.009,0.051,0.009,313.000,1.000,6.000,0.000,0.000:
0000
0000
0000
0000
,
0000
0000
0000
0000
,
0000
0000
0000
0000
,
0000
0000
0000
0000
,
1000
0000
0000
0001
0000
0000
0000
0000
,
0100
0000
0000
0001
0000
0000
0000
0000
,
0010
0001
0100
0010
0000
1000
0000
0100
,
0000
0000
0000
0010
0000
0000
0000
0000
,
0001
0100
0010
1000
0000
0100
0010
0000
,
0001
0100
0001
1000
0000
0010
0100
0000
,
0010
1000
0100
0010
0000
0001
0000
0100
,
0000
0000
0000
0010
0000
0000
0000
0000
,
1000
0010
0100
0001
0000
0010
0100
0000
,
1000
0100
1000
0001
0000
0100
0010
0000
,
0100
0001
0010
0100
0000
1000
0000
0010
,
0000
0000
0000
0100
0000
0000
0000
0000
,
0010
0000
0000
0000
0100
0000
0001
0100
0001
0000
1000
0000
0000
0000
0010
0000
,
0100
0000
0001
0000
1000
0000
0100
0010
,
0001
0100
0010
1000
0001
0000
0000
0010
,
0100
0000
1000
0000
0010
0000
0100
0001
,
0000
0010
0100
1000
0000
0000
0000
0010
,
0100
0000
0001
1000
0100
0000
0000
0010
,
0001
0000
0100
0010
1000
0000
0000
0100
,
1000
0000
0100
0010
0000
0001
0000
0100
,
0010
0000
0100
0001
0010
0000
0000
0100
,
1000
0000
0010
0000
0100
0000
0001
0010
,
0100
1000
0010
1000
0000
0000
0000
0010
,
0100
0000
0001
0000
0100
0000
0000
0010
,
1000
0100
0010
0001
0000
0000
0000
0100
,
0001
0000
0100
0010
0100
0000
0000
0010
,
1000
0000
0100
0010
0100
0000
0000
0010
,
0001
0001
0100
0001
1000
0000
0010
0000
,
0100
0000
0000
0001
0010
0000
0000
0100
,
1000
1000
0010
0100
0001
0010
0100
1000
,
0010
0000
1000
0010
0100
0000
0000
0001
,
0010
0001
0100
0001
1000
0000
0010
0000
,
0200
0000
0000
0000
0000
0000
0000
0000
0000
0300
0000
0000
0010
0000
1000
0000
,
0100
0000
0010
0001
0000
0100
0010
1000
,
0010
0100
1000
0100
0000
0100
0010
1000
,
0100
0010
0100
0010
1000
0000
0020
0000
,
0002
0000
0033
0000
,
1000
0000
0000
0000
0001
0000
1000
0001
1000
0000
0010
0000
0000
0000
0000
0000
,
0010
0000
0100
0001
1000
0100
0000
0000
,
0010
0000
0001
0100
0001
1000
0000
0010
,
0100
1000
0100
0010
1000
0100
0010
1000
,
0010
0000
0001
0100
0010
0000
0000
0000
,
1000
0000
0100
0000
0010
0001
0010
0100
,
1000
0000
0010
0000
0200
0000
0300
0010
,
0100
0010
1000
0100
0010
0000
0000
0001
,
0010
0100
1000
0010
0100
1000
0000
0000
,
0100
0000
0010
1000
0100
0010
0000
0000
,
0001
0000
0010
0100
1000
0010
0000
0100
,
1000
0100
0010
1000
0100
0010
0001
0100
,
0001
0000
0010
1000
0010
0000
0000
0000
,
0001
0000
0100
0000
1000
0000
0100
0010
,
1000
0000
0100
0000
0010
0000
0001
0010
,
0100
0010
1000
0010
0000
0001
0100
1000
,
0100
0000
0000
0001
0000
0000
0000
0000
,
0010
0000
0000
0100
0000
0000
0000
0000
,
0001
0100
1000
0010
0000
0010
0000
0100
,
0000
0000
0000
1000
0000
0000
0000
0000
,
0100
0000
0000
0010
0000
0000
0000
0000
,
1000
0000
0000
0010
0000
0000
0000
0000
,
0010
1000
0100
0010
0000
0001
0000
0100
,
0000
0000
0000
0010
0000
0000
0000
0000
,
0100
0000
0000
0001
0000
0000
0000
0000
,
1000
0000
0000
0010
0000
0000
0000
0000
,
0100
0001
0010
0100
0000
1000
0000
0010
,
0000
0000
0000
0100
0000
0000
0000
0000
,
0001
0000
0000
0010
0000
0000
0000
0000
,
0100
0000
0000
1000
0000
0000
0000
0000
,
0010
0100
0010
1000
0000
0100
0000
0010
,
0000
0000
0000
0001
0000
0000
0000
0000
,
2002
0000
0000
3003
0000
0000
0000
0000
;
