#TITLE:Mic Commander;
#SUBTITLE:;
#ARTIST:Mindless Self Indulgence;
#TITLETRANSLIT:;
#SUBTITLETRANSLIT:;
#ARTISTTRANSLIT:;
#CREDIT:;
#BANNER:Mic Commander.jpg;
#BACKGROUND:Mic Commander-bg.jpg;
#LYRICSPATH:;
#CDTITLE:!macgravel.png;
#MUSIC:Mic Commander.mp3;
#OFFSET:-0.240;
#SAMPLESTART:99.480;
#SAMPLELENGTH:12.000;
#SELECTABLE:YES;
#BPMS:0.000=131.001;
#STOPS:76.000=0.236
,184.500=0.240
,225.000=0.240
;
#BGCHANGES:;
// cache tags:
#FIRSTBEAT:0.000;
#LASTBEAT:264.500;
#SONGFILENAME:Songs/Fresh Flock of Fantastic Files F4/(macgravel) Mic Commander/Mic Commander.sm;
#HASMUSIC:1;
#HASBANNER:1;
#MUSICLENGTH:125.027;
// end cache tags

//---------------dance-single - ----------------
#NOTES:
     dance-single:
     :
     Hard:
     10:
     0.960,0.926,1.000,0.368,0.976,664.000,130.000,46.000,0.000,0.000:
1000
0100
0010
0001
0010
0100
1000
0100
0010
0001
0010
0100
1000
0100
1000
0010
,
0101
0001
0000
0101
0010
0100
1010
0001
0000
0000
1100
0000
0110
0000
0000
0000
,
0101
1000
0000
0110
0000
1000
0101
0010
0000
0000
0101
0000
1010
0000
0001
1000
,
0011
0100
0001
1100
0001
0010
0101
1000
0000
0000
0101
0000
0110
0000
0001
0010
,
0101
1000
0000
0011
0100
0010
1001
0001
0000
0000
1001
0000
1001
0000
0000
0000
,
0102
0000
0000
0000
0000
0000
0000
0000
0100
0000
0000
0000
0000
0000
0100
0000
0003
0000
0010
0000
0010
0000
0000
0000
0010
0100
0010
0100
0010
0000
0000
0000
,
2100
0000
0000
0000
0000
0000
0000
0000
0100
0000
0000
0000
0000
0000
0100
0000
3000
0000
0010
0000
0010
0000
0000
0000
0100
0001
0100
0001
0200
0000
0000
0000
,
0000
0000
0000
0000
0000
0000
0000
0000
0300
0000
0000
0000
0000
0000
0000
0000
0201
0000
0000
0000
0000
0000
0000
0000
0300
0000
0000
0000
0001
0010
0001
0010
,
0001
0000
0000
0000
0001
0000
0000
0000
0010
0100
0010
0100
0010
0000
0000
0000
0001
0000
0000
0000
0100
0000
0000
0000
0001
1000
0001
1000
0001
0000
0000
0000
,
2001
0000
0000
0000
0000
0000
0000
0000
0001
0000
0000
0000
0000
0000
0001
0000
3000
0000
0010
0000
0010
0000
0000
0000
0100
0001
0100
0001
0100
0000
0000
0000
,
0102
0000
0000
0000
0000
0000
0000
0000
0100
0000
0000
0000
0000
0000
0100
0000
0003
0000
0010
0000
0010
0000
0000
0000
0001
0010
0001
0010
0002
0000
0000
0000
,
0200
0000
0000
0000
0000
0000
0000
0000
0303
0000
0000
0000
0000
0000
0000
0000
0210
0000
0000
0000
0000
0000
0000
0000
0300
0000
0000
0000
0001
1000
0001
1000
,
0001
0000
0000
0000
0010
0000
0000
0000
0010
0100
0010
0100
0010
0000
0000
0000
1000
0000
0100
0000
0010
0000
0000
0000
0001
0010
0001
0010
0001
0000
0000
0000
,
0001
0010
0100
0010
0001
0000
0010
0000
0100
1000
0010
1000
0100
0000
0000
0000
,
0001
0010
0100
1000
0100
0010
0001
0010
0200
0000
1300
0010
2000
0000
0000
0000
,
3001
0000
0010
0100
1000
0100
0000
0000
0010
0001
0100
0010
1000
0100
0000
0010
,
0001
0000
1000
0000
0100
0010
0001
0100
0020
0000
1030
0001
0010
0100
0000
0000
,
1000
0000
0001
0010
0100
0000
0000
0000
0001
0000
1000
0100
1000
0000
0000
0001
,
1000
0010
0100
0001
0010
0100
1000
0001
1000
0000
0001
1000
0000
0000
0020
0000
,
0230
0300
0000
0000
0000
0000
0000
0000
0000
0000
0000
0000
0000
0000
0000
0000
0000
0000
0000
0000
0000
0000
0000
0000
1001
0000
0000
0000
0000
0000
0000
0000
0000
0000
0000
0000
0000
0000
0000
0000
0000
0000
0000
0000
0000
0000
0000
0000
0000
0000
0000
0000
0000
0000
0000
0000
0000
0000
0000
0000
0000
0000
0000
0000
0000
0000
0000
0000
0000
0000
0000
0000
1001
0000
0000
0000
0000
0000
0000
0000
0000
0000
0000
0000
0000
0000
0000
0000
0000
0000
0000
0000
0000
0000
0000
0000
1010
0000
0000
0000
0000
0000
0000
0000
0000
0000
0000
0000
0000
0000
0000
0000
0000
0000
0000
0000
0000
0000
0000
0000
0010
0000
0000
0000
0000
0000
0000
0000
0000
0000
0000
0000
0000
0000
0000
0000
0000
0000
0000
0000
0000
0000
0000
0000
1100
0000
0000
0000
0000
0000
0000
0000
0000
0000
0000
0000
0000
0000
0000
0000
0000
0000
0000
0000
0000
0000
0000
0000
0110
0000
0000
0000
0000
0000
0000
0000
0000
0000
0000
0000
0000
0000
0000
0000
0000
0000
0000
0000
0000
0000
0000
0000
,
0011
1001
0100
0011
0101
0010
0100
2000
,
3100
0010
0100
0010
0100
0000
0000
0000
0001
0000
0000
0000
0110
0000
0000
0000
0101
0000
0000
0000
1000
0000
0000
0000
0101
0000
0000
0000
0110
0000
0000
0000
,
0011
2000
3100
0011
0010
0200
1300
1010
,
0100
0001
0110
0001
0000
1010
0100
1000
0101
0010
0000
0000
0101
0000
0011
0000
,
0000
0000
0011
1000
0000
0101
0000
0010
0101
0010
0000
0000
1001
0000
0110
0000
,
0001
0010
0101
1000
0001
0101
0010
1000
0110
0010
0000
0000
0011
0000
0110
0000
,
1000
0100
0011
0001
0000
0110
0010
0100
1100
1000
0000
0000
1010
0000
0101
0000
,
0000
0000
0101
0000
0010
0000
1000
0100
0010
0000
0000
0000
2000
0000
0020
0000
,
3030
0000
0000
0000
1000
0100
0010
0001
0100
0010
1000
0100
1000
0001
0010
0100
,
2000
0000
3001
0000
0001
0010
0001
0010
0100
1000
0200
0000
0000
0000
0320
0030
,
0000
0101
0101
0110
0110
1001
1100
1010
,
1001
0000
1010
0000
0000
0000
0101
0000
0000
0000
0110
0000
0000
0000
2002
3003
,
0000
0000
0000
0000
0201
0000
0000
0000
0000
0000
0000
0000
0001
0000
0000
0000
0000
0000
0001
0000
0300
0000
0010
0000
0010
0000
0000
0000
0100
0010
0100
0010
,
0100
0000
0000
0000
2010
0000
0000
0000
0000
0000
0000
0000
0100
0000
0000
0000
0000
0000
0100
0000
3000
0000
0010
0000
0010
0000
0000
0000
0001
1000
0001
1000
,
0002
0000
0000
0010
0003
0201
0000
0300
,
0001
0010
0001
0010
0001
0000
0000
0000
0010
0000
0000
0000
0100
0010
0100
0010
0100
0000
0000
0000
1000
0000
0000
0000
0100
0000
0000
0000
1000
0001
1000
0001
,
1000
0000
0000
0000
2001
0000
0000
0000
0000
0000
0000
0000
0100
0000
0000
0000
0000
0000
0010
0000
3000
0000
0001
0000
0001
0000
0000
0000
0001
0010
0001
0010
,
0001
0000
0000
0000
0102
0000
0000
0000
0000
0000
0000
0000
0100
0000
0000
0000
0000
0000
0010
0000
0003
0000
1000
0000
1000
0000
0000
0000
0100
0010
0100
0010
,
0200
0000
0000
0001
0300
0102
0000
1003
,
0001
1000
0001
1000
0001
0000
0000
0000
0010
0000
0000
0000
0010
1000
0010
1000
0010
0000
0000
0000
0001
0000
0010
0000
0100
0000
0000
0000
0100
0001
0100
0001
,
0100
0000
1000
0001
1000
0010
0100
0000
0001
0000
0001
0010
0001
1000
0100
0000
,
0000
0000
0001
0010
0100
1000
0010
1000
0100
0010
0001
0000
1000
0100
2000
0000
,
0000
0000
3001
0000
0010
0100
1000
0010
0000
0000
0100
1000
0001
0100
0010
1000
,
0000
0001
1000
0000
0010
0000
1000
0100
0010
0001
0100
0000
0001
0100
0010
1000
,
0000
0000
0001
0000
0100
0010
0100
0000
0000
0000
0001
0000
1000
0100
1000
0000
,
0000
0001
0010
0100
1000
0001
0100
0010
1000
0100
0010
0000
0001
0100
0000
0000
,
0020
0000
0000
0000
0000
0000
0000
0000
0000
0000
0000
0000
0000
0000
0000
0000
0000
0000
0000
0000
0000
0000
0000
0000
2030
3000
0000
0000
0000
0000
0000
0000
0000
0000
0000
0000
0000
0000
0000
0000
0000
0000
0000
0000
0000
0000
0000
0000
1000
0000
0000
0000
0000
0000
0000
0000
0000
0000
0000
0000
0000
0000
0000
0000
0000
0000
0000
0000
0000
0000
0000
0000
0001
0000
0000
0000
0000
0000
0000
0000
0000
0000
0000
0000
0000
0000
0000
0000
0000
0000
0000
0000
0000
0000
0000
0000
0011
0000
0000
0000
0000
0000
0000
0000
0000
0000
0000
0000
0000
0000
0000
0000
0000
0000
0000
0000
0000
0000
0000
0000
0110
0000
0000
0000
0000
0000
0000
0000
0000
0000
0000
0000
0000
0000
0000
0000
0000
0000
0000
0000
0000
0000
0000
0000
0100
0000
0000
0000
0000
0000
0000
0000
0000
0000
0000
0000
0000
0000
0000
0000
0000
0000
0000
0000
0000
0000
0000
0000
0001
0000
0000
0000
0000
0000
0000
0000
0000
0000
0000
0000
0000
0000
0000
0000
0000
0000
0000
0000
0000
0000
0000
0000
,
0101
0110
1001
0100
0010
1001
0100
0110
,
2000
0000
0000
0000
3100
0010
0100
0010
0200
0000
0000
0000
0000
0000
0000
0000
0310
0000
0000
0000
1010
0000
0000
0000
0100
0000
0000
0000
0011
0000
0000
0000
,
1001
0110
0001
1000
0110
0001
0100
0010
,
0011
0000
0001
0000
0001
0100
0010
0100
0001
0000
0100
0000
0001
0010
0100
1000
,
0100
0000
0000
0000
1000
0010
1000
0100
0010
0001
0100
0010
0100
0000
0001
0010
,
0100
0000
0000
0000
1000
0000
0010
0100
0001
0010
0000
0000
0001
1000
0010
0100
,
0001
1000
0000
0001
1000
0000
0100
0000
1000
0010
0100
0001
0100
0000
0010
1000
,
0100
0010
0000
0000
0001
0000
0010
0100
0010
0000
0000
0000
0001
0000
0100
0010
,
0100
0000
0000
0010
0100
0000
0001
1000
0010
0100
0010
1000
0100
0000
0010
0001
,
0000
0000
0000
0000
0000
0000
0000
0000
0200
0000
0000
0000
0000
0000
0000
0000
0302
0003
0000
0000
0000
0000
0000
0000
0001
0000
0000
0000
0000
0000
0000
0000
1000
0000
0000
0000
0000
0000
0000
0000
0001
0000
0000
0000
0000
0000
0000
0000
0101
0000
0000
0000
0000
0000
0000
0000
0010
0000
0000
0000
0000
0000
0000
0000
,
1000
0101
1010
0101
1000
0100
1010
0001
,
0100
0000
0000
0000
0020
0000
0000
0000
0130
0010
0100
0010
0200
0000
0000
0000
0000
0000
0000
0000
0310
0000
0000
0000
1001
0000
0000
0000
0001
0000
0000
0000
,
1000
0101
0110
1001
0001
0010
0101
0020
,
2030
0000
0000
0000
3002
0000
0000
0000
0013
0001
0010
0001
0020
0000
0000
0000
0000
0000
0000
0000
0031
0000
0000
0000
1001
0000
0000
0000
0100
0000
0000
0000
,
0010
0101
1100
0011
0100
0001
0011
0100
,
1010
0000
0200
0000
0301
0010
1100
1000
0000
0110
0100
0010
1010
1000
0000
0000
,
1100
0000
0011
0000
0000
0000
1001
1000
0000
0101
0000
1000
1010
0010
0000
0000
,
0011
0000
0011
0000
0001
0010
1100
1000
0010
1100
0100
0010
0101
0100
0000
0000
,
0110
0000
0110
0000
0001
1000
1100
0100
0000
1010
1000
0100
0011
0001
0000
0000
,
0011
0110
0000
0000
0000
0000
0000
0000
;
