#TITLE:The Prince of the World;
#SUBTITLE:;
#ARTIST:Heavenly;
#TITLETRANSLIT:;
#SUBTITLETRANSLIT:;
#ARTISTTRANSLIT:;
#CREDIT:B. Abear Vs. C. Bavender;
#BANNER:;
#BACKGROUND:;
#LYRICSPATH:;
#CDTITLE:;
#MUSIC:The Prince of the World.ogg;
#OFFSET:-0.279;
#SAMPLESTART:46.366;
#SAMPLELENGTH:18.220;
#SELECTABLE:YES;
#BPMS:0.000=120.000,70.000=60.000,71.000=120.000,103.000=60.000,117.000=120.000,337.000=60.000,351.000=120.000,495.000=60.000;
#STOPS:;
#BGCHANGES:;
// cache tags:
#FIRSTBEAT:0.000;
#LASTBEAT:526.000;
#SONGFILENAME:Songs/SSSC Pack 2/The Prince of the World - [Cosmic Pope]/The Prince of the World.sm;
#HASMUSIC:1;
#HASBANNER:0;
#MUSICLENGTH:316.043;
// end cache tags

//---------------dance-single - Blank----------------
#NOTES:
     dance-single:
     Blank:
     Challenge:
     13:
     0.825,1.000,0.190,0.320,1.000,1657.000,60.000,101.000,88.000,7.000:

0001
0100
0001
0000
1000
0000
0100
0000
0110
0000
0010
0000
0001
1000
0001
0000
0100
0000
0010
0000
1000
0000
0001
0000
0011
0000
0010
0000
0100
0000
0100
0000
,
1000
0001
1000
0000
0010
0000
0100
0000
0101
0000
0001
0000
0100
0010
0100
0000
0001
0000
1000
0000
0100
0000
0010
0000
0011
0000
0001
0000
1000
0000
1000
0000
,
0001
0100
0001
0000
1000
0000
0100
0000
0110
0000
0010
0000
0001
1000
0001
0000
1000
0000
0010
0000
0100
0000
0001
0000
0101
0000
0100
0000
0010
0000
0010
0000
,
1000
0100
1000
0000
0001
0000
0010
0000
0001
1000
0001
0000
1000
0000
0001
0000
0100
0000
0100
0000
0010
0000
0010
0000
1000
0001
1000
0000
0001
0000
0010
0000
,
0100
1000
0001
0001
0100
0010
0010
1000
0100
0100
0010
0001
0001
1000
0001
0001
,
0000
010M
0010
0010
1000
0100
0100
0010
0011
0001
1000
0100
0001
0100
0010
0100
,
1000
1000
0001
0100
0100
0010
1000
1000
0010
0100
0100
0001
1000
1000
0001
0001
,
0000
100M
0100
0100
0010
0001
0100
1000
0200
0000
1000
0000
0010
0000
0301
0000
,
1000
1000
0001
0010
0010
0100
1000
1000
0010
0100
0100
0001
1000
1000
0100
0100
,
0000
0M10
0001
0001
1000
0010
0010
0100
0101
0001
1000
0010
0001
0010
0100
0010
,
1000
0000
0000
1000
0000
0000
0001
0000
0000
0010
0000
0000
0010
0000
0000
0100
0000
0000
1000
0000
0000
1000
0000
0000
0001
0000
0000
0100
0000
0000
0100
0000
0000
0010
0000
0000
1000
0000
0000
1000
0000
0000
0001
0000
0000
1000
0001
1000
,
0001
0000
0MMM
0000
0001
0000
0001
0000
0MMM
1000
0001
0000
0001
0010
0100
1000
,
0002
0000
0000
0000
0000
0000
0000
0000
2003
0000
0000
3200
0000
0000
0320
0000
,
0032
0000
0000
0000
0000
0000
2003
0000
3020
0000
0000
0230
0000
0000
0320
0000
,
1030
0001
1000
0010
1000
0001
1000
0100
1000
0010
1000
0001
1000
0010
0100
0001
,
0010
0100
0010
0001
0010
0100
0010
0100
0010
0001
0010
0100
0001
0100
1000
0001
,
0100
0010
1000
0001
1000
0100
0010
0100
1000
0001
0100
0001
1000
0010
0100
0001
0010
0100
0010
0001
1000
0001
1000
0100
,
0010
0001
1000
0000
0100
0000
0100
0000
0010
0000
0010
0000
0001
0000
0001
0000
1MM1
0000
0000
0000
M00M
0000
0000
0000
2MM2
0000
0000
0000
0003
0000
3001
0000
,
1000
0000
0001
0000
0100
0000
0100
0000
0000
0000
0000
0000
0000
0000
0000
0000
M111
0000
0000
0000
0000
0000
0000
0000
0100
0001
0100
0000
0001
0000
0001
0000
,
0100
0000
0010
0000
1000
0000
1000
0000
0000
0000
0000
0000
0000
0000
0000
0000
1M11
0000
0000
0000
0000
0000
0000
0000
1000
0001
1000
0000
0001
0000
0001
0000
,
0010
0100
1000
1000
0000
0000
0000
0000
111M
0000
0000
0000
0100
0001
0100
0001
,
0100
0000
0001
0000
0100
0000
0001
0000
1000
0000
0100
0000
1000
0000
0100
0000
1000
0000
0100
0000
1000
0000
0100
0000
0010
0001
1000
0000
0001
0000
0001
0000
,
0100
0000
0010
0000
0100
0000
0100
0000
0000
0000
0000
0000
0000
0000
0000
0000
M111
0000
0000
0000
0000
0000
0000
0000
0001
0100
0010
0000
1000
0000
1000
0000
,
0001
0000
0010
0000
0100
0000
0100
0000
0000
0000
0000
0000
0000
0000
0000
0000
111M
0000
0000
0000
0000
0000
0000
0000
0100
0010
0001
0000
1000
0000
1000
0000
,
0001
0010
0001
0001
0000
0000
0000
0000
M111
0000
0000
0000
0010
0001
0010
0001
,
0010
0001
0010
0001
1000
0010
1000
0010
1000
0010
1000
0010
M100
0001
10M0
0100
,
001M
0100
1000
0M01
0010
0100
1000
01M0
1000
0001
M100
0010
0100
0001
10M0
0100
,
0010
0001
1M01
1000
1100
0200
0320
0230
0302
0203
2300
3002
0103
0010
1000
0001
,
1000
0100
0010
0100
1000
0001
1000
0001
0101
0110
1010
1001
0011
0110
1100
1001
,
0002
0000
0000
2003
0000
0000
3200
0000
0310
0000
0001
0000
1000
0000
0100
0000
1000
0000
0100
0000
0010
0000
0001
0000
1000
0000
0100
0000
1000
0000
0100
0000
,
0010
0001
1000
0100
1000
0100
0010
0001
1000
0100
1000
0100
M01M
0000
M01M
0000
,
0001
0010
0100
1000
0001
0010
0001
1000
0010
0100
0010
0001
0010
0100
0001
1000
,
0100
0010
0100
1000
0001
0010
0001
1000
0100
0001
0100
0010
0001
1000
0010
0100
,
0001
1000
0100
1000
0001
0100
0010
1000
0001
0010
0100
1000
0001
0010
0100
1000
,
0010
0100
0001
1000
0200
0000
0000
0000
0002
0000
0300
0000
2000
0000
0003
0000
,
0020
0000
3000
0000
0031
1000
0100
1000
0010
0100
0001
0010
0100
0010
1000
0010
,
0001
1000
0001
0100
0010
1000
0100
0010
0001
0100
0010
0100
1000
0100
0010
1000
,
0001
0010
0100
1000
0100
0010
0100
1000
0001
0100
0010
0100
0010
1000
0001
1000
,
0100
0010
0001
1000
0020
0000
0000
0000
0002
0000
0030
0000
2000
0000
0003
0000
,
0200
0000
3000
0000
0301
1000
0001
0010
0100
1000
0010
0100
0001
0100
1000
0100
,
0001
1000
0001
1000
0100
0010
0001
0010
0100
0010
0001
1000
0010
0001
0010
0100
,
0010
1000
0001
0100
0001
0010
0100
1000
0001
0010
0001
0010
0100
1000
0010
0100
,
0001
1000
0100
0010
0001
0100
0010
0100
1000
0100
0001
1000
2200
0000
0000
3300
,
0202
0000
0000
0303
1100
0100
0010
0100
1000
0001
0100
0010
0100
0001
1000
0100
,
1000
0001
0010
0100
0110
0010
0001
1000
0001
0100
0010
1000
0001
1000
0100
0010
,
0001
1000
0001
0100
0020
0000
0000
0000
0000
0000
0000
0000
0000
0000
0000
0000
,
0000
0000
0000
0000
0000
0000
0000
0000
4000
0000
0000
0000
0000
0000
0000
0000
0000
0000
0000
0000
0000
0000
0030
0000
3010
0100
0010
0000
0100
0000
0100
0000
,
0001
0001
1000
1000
0001
0010
0001
1000
0001
0100
0001
0010
0001
1000
0001
0100
,
0001
1000
0001
0001
1000
0100
1000
0001
1000
0010
1000
0001
1000
0010
0100
0001
,
0010
0100
1000
1000
0001
0010
0001
1000
0001
0100
0001
0010
0100
1000
0100
1000
,
0100
0010
0100
0010
0001
1000
0001
0100
0001
0010
0001
1000
0010
0100
0001
1000
,
0100
1000
0010
1000
0001
0100
0001
1000
0001
0010
0001
1000
0001
0100
0001
1000
,
0010
0100
0010
1000
0001
0010
0001
1000
0001
0100
0001
1000
0010
0100
0010
0100
,
0001
1000
0001
0001
1000
0100
1000
0001
1000
0010
1000
0001
1000
0100
1000
0001
,
1000
0010
1000
0001
0101
0100
0010
1010
1000
0001
0011
0010
0100
1100
1000
0001
,
1100
0001
1100
0000
1001
0001
1000
2100
0000
3100
0020
0000
0000
0000
0000
0030
,
MMMM
0000
0000
0000
1002
0000
0000
0000
0000
0000
1003
1000
0010
0100
0001
0200
,
0000
0000
0000
0320
0000
0000
0000
0000
0000
1030
0000
0000
0001
0000
0000
0010
0000
0000
0100
0000
0000
0010
0000
0000
0001
0000
1000
0000
0001
0000
1000
0000
0000
0100
0000
0000
0010
0000
0000
0001
0000
0000
1000
0000
0000
0010
0000
0000
,
0100
0000
0001
0000
0010
0000
0100
0000
2000
0000
0000
0000
0000
0000
0000
0000
3000
0000
0000
0001
M200
0000
0000
0000
0000
0000
0000
0000
0320
0000
0000
0000
,
0000
0000
0000
0000
0000
0000
1030
0000
0000
0001
0000
0000
1000
0000
0001
0000
0100
0000
0010
0000
0100
0000
0001
0000
1000
0000
0100
0000
1000
0000
0001
0000
0010
0000
0100
0000
1000
0000
0001
0000
0100
0000
0001
0000
1000
0000
0100
0000
,
0010
0000
0001
0000
0100
0000
0010
0000
1000
0000
0001
0000
0200
0000
0000
0000
0000
0000
0000
0000
0000
0000
0000
0000
0300
0000
0000
0M00
0000
0000
0010
0000
0000
0200
0000
0000
0000
0000
0000
0301
0000
0000
1000
0000
0000
0100
0000
0000
,
0010
0000
0000
0000
0100
0000
0000
0000
1000
0000
0000
0000
0100
0000
0000
0000
0010
0000
0000
0000
0001
0000
0000
0000
1000
0000
0000
0000
0001
0000
0000
0000
0100
0000
0000
0000
0010
0000
0000
0000
1000
0000
0000
0000
0010
0000
0000
0000
0100
0000
0000
0001
1000
0000
0000
0000
0100
0000
0000
0000
0010
0000
0000
0000
,
0001
0000
1000
0000
0100
0000
1000
0000
0010
0000
0100
0000
0001
0000
0000
0100
0000
0000
0010
0000
0000
0100
0000
0000
0001
0000
0000
1000
0000
0000
0100
0000
0000
1000
0000
0000
0100
0000
0000
0010
0000
0000
0001
0000
0000
1000
0000
0000
,
0001
0000
1000
0000
0001
0000
1000
0000
0001
0000
1000
0000
0010
0000
0100
0000
0001
0000
1000
0000
0000
0001
0000
0000
0010
0000
0000
0100
0000
0000
1000
0000
0000
0001
0000
0000
0400
0000
0000
0010
0000
0000
0000
0000
0000
0010
0000
0000
,
0000
0000
0001
0000
0000
0000
0301
0000
1000
0000
1000
0000
0001
0000
0001
0000
0100
0000
0100
0000
0010
0000
0010
0000
1000
0000
1000
0000
0010
0000
0010
4000
,
0004
0000
0000
0000
0000
0000
0000
0000
0000
3003
0000
0000
0100
0000
0000
0100
0000
0000
0001
0000
0000
0001
0000
0000
1000
0000
0000
1000
0000
0000
0100
0000
0000
0100
0000
0000
1000
0000
0100
0000
1000
0000
0100
0000
0010
0000
0100
0000
,
0010
0000
0000
0000
0000
0000
0000
0000
0001
0000
0000
0000
0000
0000
0000
0000
0010
0000
0000
0000
0000
0000
0000
0000
0001
0000
0000
0000
0000
0000
0000
0000
1000
0000
0000
0000
0000
0000
0000
0000
0001
0000
0000
0000
0000
0000
0000
0000
0100
0000
0000
0000
0000
0000
0000
0000
0010
0000
0000
0000
0000
0000
0000
0000
0100
0000
0000
0000
0000
0000
0000
0000
0010
0000
0000
0000
0000
0000
0000
0000
0100
0000
0000
0000
0000
0000
0000
0000
0010
0000
0000
0000
0000
0000
0000
0000
1000
0000
0000
0000
0000
0000
0100
0000
0000
0000
0000
0000
1000
0000
0000
0000
0000
0000
0001
0000
0000
0000
0000
0000
0100
0000
0000
0000
0000
0000
0001
0000
0000
0000
0000
0000
1000
0000
0000
0000
0000
0000
0010
0000
0000
0000
0000
0000
0100
0000
0000
0000
0000
0000
0001
0000
0000
0000
0000
0000
1000
0000
0000
0000
0000
0000
0100
0000
0000
0000
0000
0000
1000
0000
0000
0000
0000
0000
0001
0000
0000
0000
0000
0000
0010
0000
0000
0000
0000
0000
0100
0000
0000
0000
0000
0000
,
1000
0000
0000
0000
0000
0000
0000
0000
0001
0000
0000
0000
0000
0000
0000
0000
0100
0000
0000
0000
0000
0000
0000
0000
0001
0000
0000
0000
0000
0000
0000
0000
1000
0000
0000
0000
0000
0000
0000
0000
0001
0000
0000
0000
0000
0000
0000
0000
0100
0000
0000
0000
0000
0000
0010
0000
0000
0000
0000
0000
1000
0000
0000
0000
0000
0000
0001
0000
0000
0000
0000
0000
1000
0000
0000
0000
0000
0000
0000
0000
0100
0000
0000
0000
0000
0000
0000
0000
0010
0000
0000
0000
0000
0000
0000
0000
0100
0000
0000
0000
0000
0000
1000
0000
0000
0000
0000
0000
0001
0000
0000
0000
0000
0000
1000
0000
0000
0000
0000
0000
0001
0000
0000
0000
0000
0000
0000
0000
0100
0000
0000
0000
0000
0000
0000
0000
0010
0000
0000
0000
0000
0000
0000
0000
1000
0000
0000
0000
0000
0000
0000
0000
0001
0000
0000
0000
0000
0000
0000
0000
1000
0000
0000
0000
0000
0000
0000
0000
0001
0000
0000
0000
0000
0000
0000
0000
0100
0000
0000
0000
0000
0000
0000
0000
0001
0000
0000
0000
0000
0000
0000
0000
,
0100
0000
0010
0000
0100
0000
0010
0000
1000
0000
0010
0000
2000
0000
0000
0000
0000
0000
0000
0000
0000
0000
0000
0000
0000
0000
0000
0000
0000
0000
0000
0000
0000
3001
0000
0000
0020
0000
0000
0000
0000
0000
0000
0000
0000
0000
0000
0000
,
0030
0000
0000
0000
0000
0000
0000
0000
0000
0000
0000
0000
00M0
0000
0000
0000
0000
0000
0000
0000
0000
0000
0000
0000
0200
0000
0000
0000
0000
0000
0000
0000
0000
0000
0000
0000
0000
0000
0000
0000
0000
0000
0000
0000
0000
0000
0000
0000
1300
0000
0000
0000
0000
0000
0001
0000
0000
0000
0000
0000
0100
0000
0000
0000
0000
0000
0001
0000
0000
0000
0000
0000
0100
0000
0000
0000
0000
0000
0010
0000
0000
0000
0000
0000
1000
0000
0000
0000
0000
0000
0001
0000
0000
0000
0000
0000
1000
0000
0000
0000
0000
0000
0100
0000
0000
0000
0000
0000
0010
0000
0000
0000
0000
0000
0001
0000
0000
0000
0000
0000
1000
0000
0000
0000
0000
0000
0000
0000
0000
0000
0000
0000
0100
0000
0000
0000
0000
0000
0000
0000
0000
0000
0000
0000
1000
0000
0000
0000
0000
0000
0000
0000
0001
0000
0000
0000
0000
0000
0000
0000
0100
0000
0000
0000
0000
0000
0000
0000
0010
0000
0000
0000
0000
0000
0000
0000
1000
0000
0000
0000
0000
0000
0000
0000
0001
0000
0000
0000
0000
0000
0000
0000
,
1000
0000
0000
0000
0000
0000
0000
0000
0010
0000
0000
0000
0000
0000
0000
0000
0100
0000
0000
0000
0000
0000
0000
0000
0001
0000
0000
0000
0000
0000
0000
0000
0010
0000
0000
0000
0000
0000
0000
0000
0100
0000
0000
0000
0000
0000
0000
0000
1000
0000
0000
0000
0000
0000
0000
0000
0000
0000
0000
0000
0001
0000
0000
0000
0000
0000
0100
0000
0000
0000
0000
0000
0001
0000
0000
0000
0000
0000
0000
0000
0000
0000
0000
0000
1000
0000
0000
0000
0000
0000
0000
0000
0000
0000
0000
0000
0001
0000
0000
0000
0000
0000
0100
0000
0000
0000
0000
0000
0001
0000
0000
0000
0000
0000
0000
0000
0000
0000
0000
0000
1000
0000
0000
0000
0000
0000
0000
0000
0000
0000
0000
0000
0001
0000
0000
0000
0000
0000
0100
0000
0000
0000
0000
0000
0001
0000
0000
0000
0000
0000
0000
0000
0000
0000
0000
0000
1000
0000
0000
0000
0000
0000
0000
0000
0000
0000
0000
0000
0001
0000
0000
0000
0000
0000
0100
0000
0000
0000
0000
0000
0001
0000
0000
0000
0000
0000
0000
0000
0000
0000
0000
0000
,
1000
2000
0000
0000
3001
0010
0100
1000
0100
0010
0001
1000
2020
3030
0220
0330
,
0202
0303
2002
3003
0001
0001
1000
0100
0000
0100
0010
0000
0100
0100
1000
0001
,
0000
0001
0100
0000
0010
0010
1000
0001
0000
0001
0010
0000
0100
0100
0010
0001
,
0000
0001
0100
0000
0010
0010
1000
0010
0000
0010
0100
0000
0001
0001
1000
0100
,
0000
0000
0100
0000
0010
0000
0000
0000
0001
0000
0010
0000
0100
0000
1000
0000
0001
0000
0100
0000
0010
0000
1000
0000
0001
0100
0001
0000
1000
0000
1000
0000
,
0001
1000
1000
1000
0001
0001
0010
0100
0000
1000
0001
0000
0100
0100
0001
1000
,
0000
0010
0100
0000
0001
0001
0010
0100
0000
1000
0100
0000
0010
0010
0001
1000
,
0000
0010
1000
0000
0001
0001
1000
0100
0000
0010
0001
0000
1000
1000
0010
0100
,
0000
0001
0100
0000
0010
1000
0001
0010
0100
1000
0001
1000
0010
0100
0001
1000
,
0100
0010
0001
1000
1001
0001
0100
0010
0100
0001
1000
0100
1000
0001
0010
0100
,
1000
0010
0100
0001
1000
0001
1000
0010
0100
0001
1000
0100
0010
0001
1000
0001
,
0200
0000
0000
0000
0301
0100
2000
0000
0000
0000
0000
0000
0000
0000
0000
0000
,
0000
0000
0000
0000
0000
0000
0000
0000
3001
0000
0010
0000
2000
0000
0000
0000
0000
0000
0000
0000
0000
0000
0000
0000
3001
0010
0100
0000
1000
0000
1000
0000
,
0001
0000
0100
0000
0010
0000
1000
0000
0001
0000
1000
0000
00M1
0000
0000
1000
0000
0000
0M01
0000
0000
0010
0000
0000
M100
0000
0000
0010
0000
0000
0001
0000
0000
10M0
0000
0000
0100
0000
0000
0010
0000
0000
0001
0000
0000
0M10
0000
0000
,
0001
0000
1000
0000
001M
0000
0100
0000
0010
0000
1000
0000
0M01
0000
0010
0000
0100
0000
1000
0000
10M1
0000
0001
0010
0100
0000
2000
0000
3020
0000
0230
0000
,
0301
1000
0001
0010
0100
1000
0001
0100
0010
0000
1000
0000
0001
0000
1000
0000
0001
0000
0010
0000
0100
0000
0010
0000
0001
0000
1000
0000
0001
0000
1000
0000
,
0010
0000
0100
0000
0001
0000
0010
0000
0100
0000
1000
0000
0001
0000
0010
0000
0002
0000
0000
2003
0000
0000
3002
0000
1003
0000
0010
0000
0100
0000
0001
0000
,
0100
0001
1000
0010
0100
0001
0100
0001
1000
0010
0100
0001
0100
0001
1000
0010
,
0100
0001
0100
0001
1MM0
0000
1MM0
0001
1000
0100
0010
0001
1000
0100
1000
0001
,
0100
0010
0100
1000
0100
0010
1000
0001
0010
0100
0010
0001
1000
0100
1000
0001
,
0010
1000
0010
0100
1000
0001
0100
0010
1000
0001
0010
0001
1000
0010
0100
0001
,
1000
0100
0010
0001
1000
0100
0010
0001
0100
0010
1000
0001
0020
0000
0000
0000
,
2000
0000
0030
0000
0002
0000
3000
0000
0200
0000
0003
0000
1300
0001
0010
0001
,
0100
0010
1000
0100
0010
0100
0001
0100
1000
0001
1000
0010
0100
0001
0010
0100
,
1000
0010
0100
0010
0001
0010
0100
0001
1000
0100
0010
0001
0010
0100
0010
0001
,
1000
0010
0100
0010
0100
0001
1000
0001
0010
0100
1000
0001
0200
0000
0000
0000
,
2000
0000
0300
0000
0002
0000
3000
0000
0020
0000
0003
0000
1030
0001
1000
0100
,
0010
0001
0100
0010
1000
0010
0001
0010
1000
0001
1000
0001
0010
0100
1000
0100
,
0010
0100
1000
0001
0100
1000
0100
0010
0100
0001
1000
0010
1000
0100
0010
0001
,
1000
0100
1000
0100
0010
0001
0100
0010
1000
0001
0010
0100
1000
0010
0100
0010
,
0001
0010
1000
0001
0022
0000
0000
0033
2020
0000
0000
3030
0011
0010
0100
0010
,
0001
1000
0010
0100
0010
1000
0001
0010
0001
1000
0100
0010
0110
0100
1000
0001
,
1000
0010
0100
0001
1000
0001
0010
0100
1000
0001
1000
0010
0200
0000
0000
0000
,
0000
0000
0000
0004
,
0000
0000
0000
0000
0000
0000
0300
0000
1003
0100
1000
0000
0001
0000
0100
0000
0010
0000
1000
0000
0001
0000
1000
0000
0001
0000
0010
0000
0001
0000
1000
0000
,
0010
0100
0010
0001
0010
0100
0001
1000
0100
0010
0100
1000
0001
0010
0001
1000
,
0100
0001
0100
0010
0001
1000
0010
0100
0001
1000
0100
1000
0001
0100
0010
1000
,
0001
0010
0100
1000
0001
0010
0100
1000
0010
0100
0001
1000
0200
0000
0000
0000
,
0002
0000
0300
0000
2000
0000
0003
0000
0020
0000
3000
0000
0031
1000
0100
1000
,
0010
0100
0001
0010
0100
0010
1000
0010
0001
1000
0001
0100
0010
1000
0100
0010
,
0001
0100
0010
0100
1000
0100
0010
1000
0001
0010
0100
1000
0100
0010
0100
1000
,
0001
0100
0010
0100
0010
1000
0001
1000
0100
0010
0001
1000
0020
0000
0000
0000
,
0002
0000
0030
0000
2000
0000
0003
0000
0200
0000
3000
0000
0301
1000
0001
0010
,
0100
1000
0010
0100
0001
0100
1000
0100
0001
1000
0001
1000
0100
0010
0001
0010
,
0100
0010
0001
1000
0010
0001
0010
0100
0010
1000
0001
0100
0001
0010
0100
1000
,
0001
0010
0001
0010
0100
1000
0010
0100
0001
1000
0100
0010
0001
0100
0010
0100
,
1000
0100
0001
1000
2200
0000
0000
3300
0202
0000
0000
0303
2200
0000
0000
0000
,
0000
0000
0000
0000
0000
3300
0220
0000
,
0000
0000
0000
0000
0000
0330
0022
0000
,
0000
0000
0000
0000
0000
0000
0000
0000
0000
0000
0030
0000
2000
0000
0000
0003
,
3001
0100
0010
1010
0000
0000
1000
0001
0100
2202
0000
0000
,
0000
0000
33M3
MM0M
0000
0000
0000
0000
0000
0000
0000
0000
0000
0000
0000
0000
,
0000
0000
0000
M000
,
00M0
000M
0M00
00M0
,
M000
0M00
000M
00M0
,
0M00
M000
00M0
000M
,
0M00
00M0
M000
000M
,
00M0
000M
M000
00M0
,
00M0
M000
0M00
000M
,
000M
0M00
M000
000M
,
0M00
M000
00M0
0000
;
