#TITLE:Cold Breath;
#SUBTITLE:;
#ARTIST:SHIKI;
#TITLETRANSLIT:;
#SUBTITLETRANSLIT:;
#ARTISTTRANSLIT:;
#CREDIT:;
#BANNER:Cold Breath bana.png;
#BACKGROUND:Cold Breath bg.png;
#LYRICSPATH:;
#CDTITLE:cdtitle.png;
#MUSIC:Cold Breath.mp3;
#OFFSET:-1.320;
#SAMPLESTART:39.560;
#SAMPLELENGTH:12.000;
#SELECTABLE:YES;
#DISPLAYBPM:200.000;
#BPMS:0.000=200.000,396.000=180.000,412.000=170.000,420.000=160.000,424.000=150.000,428.000=140.000;
#STOPS:;
#BGCHANGES:;
// cache tags:
#FIRSTBEAT:32.000;
#LASTBEAT:436.000;
#SONGFILENAME:Songs/Japanese Collaboration Mix/Cold Breath/Cold Breath.sm;
#HASMUSIC:1;
#HASBANNER:1;
#MUSICLENGTH:135.242;
// end cache tags

//---------------dance-single - ----------------
#NOTES:
     dance-single:
     :
     Hard:
     9:
     0.598,0.725,0.266,0.067,0.000,521.000,36.000,9.000,0.000,0.000:
0000
0000
0000
0000
,
0000
0000
0000
0000
,
0000
0000
0000
0000
,
0000
0000
0000
0000
,
0000
0000
0000
0000
,
0000
0000
0000
0000
,
0000
0000
0000
0000
,
0000
0000
0000
0000
,
0010
1000
0100
0010
,
0001
0000
0100
0000
0010
0000
1000
0001
,
0100
0001
1000
0100
,
0010
0100
1000
0001
,
0110
1000
0001
0010
,
0100
1000
0001
0100
,
0101
1000
0100
0010
,
0110
1001
0110
1001
,
0001
1000
0100
0010
,
0100
1000
0001
0000
1000
0000
0100
0000
,
0010
0001
0100
0000
0001
0000
1000
0000
,
0100
1000
0010
0000
0100
0000
0001
0000
,
1000
0001
0010
0000
0100
0000
1000
0000
,
0001
1000
0100
0000
0010
0000
0001
0000
,
0100
0001
0100
0000
0010
1000
0010
0000
,
0100
0000
0010
0000
1000
0001
0010
0000
,
0100
1000
0001
0000
1000
0100
1000
0000
,
0001
0010
0001
0000
1000
0001
0100
0000
,
0001
1000
0010
0000
1000
0010
0100
0000
,
0010
1000
0001
0000
0010
0000
0110
0000
,
1000
0100
1000
0000
0001
0010
0001
0000
,
0100
0001
0100
0000
0010
1000
0010
0000
,
1000
0001
0010
0100
,
1001
1001
1001
1001
,
0010
0000
0110
0000
1000
0001
0010
0000
,
0100
1000
1001
1001
,
0001
0100
0010
0000
0100
0000
0001
0000
,
1000
0000
0100
0000
0010
0100
1000
0000
,
0010
1000
0010
0000
0100
0001
0100
0000
,
0001
0010
0001
0000
1000
0100
1000
0000
,
0001
0010
0100
1000
,
1100
0011
0101
1010
,
0001
0000
0100
0000
0010
1000
0001
0000
,
0100
0000
0010
0000
1000
0100
0010
0000
,
0001
0000
1000
0000
0100
0010
0001
0000
,
1000
0000
0100
0000
0010
0100
1000
0001
,
0100
0000
0010
0000
1000
0010
0100
0000
,
0001
0000
1000
0000
0001
1000
0100
0010
,
0001
0000
1000
0000
0100
0010
0100
0000
,
1000
0000
0001
0000
0100
0010
1000
0001
,
0010
0100
1000
0001
,
0100
0010
1000
0001
,
0100
0001
1000
0100
0010
0000
0010
0000
,
0001
1000
0100
0000
1000
0000
0100
0000
,
1000
0001
0100
0010
1000
0000
0000
0000
,
0001
1000
0100
0010
,
0001
0100
0001
0100
0001
0000
0000
0000
,
1000
0010
1000
0010
1000
0000
0000
0000
,
0010
1000
0100
0010
,
1001
0100
0010
0001
,
0110
1000
0001
0000
,
1000
0100
0010
0001
,
0010
0001
0100
0010
1000
0000
0000
0000
,
0010
1000
0100
0010
,
0001
1000
0100
0010
0200
0000
0000
0000
,
1300
0001
0100
0010
0200
0000
0000
0000
,
0310
1000
0001
1000
0010
1000
0001
0010
,
0100
1000
0100
0010
0100
1000
0100
0000
,
0010
0001
0010
0100
0010
0001
0010
0000
,
0001
0100
0010
0100
0001
0100
0010
0000
,
1000
0100
0010
0100
1000
0100
0010
0100
,
1000
0001
0100
0000
0001
1000
0100
0000
,
1000
0001
0010
0000
0001
1000
0010
0000
,
0100
0010
1000
0000
0001
0010
0100
0000
,
1001
0110
1001
0110
,
0001
0100
0010
0100
0001
0100
0010
0000
,
1000
0010
0100
0010
1000
0010
0100
0000
,
0010
1000
0100
0000
0010
0001
0100
0000
,
0100
0001
1000
0000
0100
1000
0001
0000
,
1000
0010
1000
0000
0001
0010
0001
0000
,
1000
0100
1000
0000
0001
0100
0001
1000
,
0010
0100
0001
0000
0001
0100
0010
0000
,
0010
1000
0100
0010
0100
1000
0001
0000
,
0120
0000
0100
0000
0100
0000
0130
0010
,
1000
0001
0010
0000
0100
1000
0000
1000
,
0001
0010
0100
1000
0010
0100
0001
0000
,
0001
0100
0010
1000
0100
0010
0000
0010
,
0100
1000
0010
0100
0001
1000
0100
0000
,
0100
1000
0001
0100
0010
1000
0001
0010
,
0110
0110
0110
0110
,
1001
0100
0010
0001
0100
0010
1000
0000
,
1000
0010
0100
0001
0010
0100
1000
0001
,
0101
0100
0010
0000
0001
1000
0010
0100
,
0001
0000
0010
0100
1000
0001
0010
0000
,
0100
1000
0010
1000
0100
0010
0001
0000
,
0001
0100
0010
1000
0001
0010
0100
0000
,
0100
1000
0010
1000
0100
0010
0001
0000
,
1001
1100
0110
0011
,
0101
0010
1000
0000
0001
0100
0010
0000
,
0010
0100
0001
0010
0100
1000
0010
0100
,
0020
0000
0000
0030
,
0100
0000
0000
0010
0000
0010
1000
0100
,
0010
0001
1000
0010
,
0100
0000
0000
0100
0020
0000
0000
0000
,
0030
0000
0000
0001
0000
0001
0000
1000
,
0100
0000
0000
0010
0200
0000
0000
0000
,
0300
0000
0000
0001
0000
0001
0000
1000
,
0010
0000
0000
0100
0020
0000
0000
0000
,
1030
0000
0000
0001
2000
0000
0000
0000
,
0002
0000
0000
0000
,
0000
0000
0000
0000
,
3003
0000
0000
0000
;
