#TITLE:Little Swing;
#SUBTITLE:;
#ARTIST:AronChupa ft. Little Sis Nora;
#TITLETRANSLIT:;
#SUBTITLETRANSLIT:;
#ARTISTTRANSLIT:;
#CREDIT:;
#BANNER:../Banner.png;
#BACKGROUND:../BG.png;
#LYRICSPATH:;
#CDTITLE:../CDTitleSpooky.png;
#MUSIC:song_0.ogg;
#OFFSET:-0.451;
#SAMPLESTART:100.000;
#SAMPLELENGTH:16.000;
#SELECTABLE:YES;
#BPMS:0.000=126.000,263.000=63.000,311.750=126.000;
#STOPS:;
#BGCHANGES:;
// cache tags:
#FIRSTBEAT:48.000;
#LASTBEAT:425.000;
#SONGFILENAME:Songs/Index Fusion - Part 2/Little Swing - [Spooky Magician]/chart_1.sm;
#HASMUSIC:1;
#HASBANNER:1;
#MUSICLENGTH:229.598;
// end cache tags

//---------------dance-single - ----------------
#NOTES:
     dance-single:
     :
     Challenge:
     1:
     0.480,1.000,0.013,0.283,0.520,703.000,3.000,65.000,0.000,1.000:
0000
0000
0000
0000
,
0000
0000
0000
0000
,
0000
0000
0000
0000
,
0000
0000
0000
0000
,
0000
0000
0000
0000
,
0000
0000
0000
0000
,
0000
0000
0000
0000
,
0000
0000
0000
0000
,
0000
0000
0000
0000
,
0000
0000
0000
0000
,
0000
0000
0000
0000
,
0000
0000
0000
0000
,
1000
0001
1000
0001
1000
0001
1000
0001
,
0100
0010
0100
0010
0100
0010
0100
0010
,
1000
0010
1000
0010
1000
0010
1000
0010
,
0100
0001
0100
0001
0100
0000
0020
0000
,
0032
0000
0000
0000
0203
0000
0000
0010
1300
0000
0100
0000
2000
0000
0000
3100
,
0001
0000
0010
0000
0100
0000
0000
0100
0001
0000
0020
0000
1030
0000
0200
0000
,
0302
0000
0003
0000
0020
0000
0030
0001
0200
0000
2300
0000
3100
0010
0000
0002
,
0000
0000
0000
0003
2000
3200
0000
0302
0000
0000
0000
0000
0000
0000
0203
0000
,
0320
0000
0030
1000
0001
0000
0010
0000
1000
0000
0010
0000
0100
0000
0010
0000
,
0002
0000
0000
0000
0023
0000
0000
0130
0002
0000
0000
0000
1003
0000
0000
0010
,
0001
0000
1000
0000
0010
0000
0100
0010
,
1000
0100
0000
0001
0010
0000
0100
0000
1000
0000
0000
0000
2002
0000
3003
0000
,
0001
0000
0100
1000
0100
0001
0100
1000
,
0001
0000
0000
0001
0100
0000
1000
0000
0001
0000
0100
0000
1000
0000
0001
0000
,
0010
0000
1000
0010
0001
0010
1000
0010
,
1000
0000
0000
0010
0001
0000
0010
0000
1000
0000
0010
0000
0001
0000
1000
0000
,
0001
0000
1000
0001
1000
0001
1000
0001
,
0100
0000
0000
1000
0001
0000
1000
0000
0001
0000
1000
0000
0001
0000
1000
0000
,
0010
0000
0100
0010
0100
0010
0100
0010
,
0001
0000
0000
0100
0010
0000
0100
0000
0010
0000
0100
0000
2000
0000
0000
0000
,
3002
0000
0000
0000
0023
0000
0000
0130
0020
0000
0032
0000
2003
0000
3000
0100
,
0020
0230
0320
0230
2300
3000
0000
0200
,
0302
0000
0000
0000
0023
0000
0000
0130
2000
0000
3200
0000
0302
0000
0023
0000
,
0230
0000
0300
1000
0100
0001
0000
0020
0000
0000
0000
0000
0130
0000
0001
0000
,
2000
0000
0000
3100
0002
0000
0023
0000
0032
0000
2003
0000
3020
0000
0230
0000
,
0302
0000
0000
0000
0203
0000
0000
1300
0020
0000
0000
0000
0030
0000
0000
1000
,
0002
0000
0203
0000
0320
0000
2030
3100
,
0010
0001
0000
0001
0010
0000
0100
0000
1000
0000
0000
0000
0220
0000
0330
0000
,
0001
0000
0010
0100
0001
0010
0100
0001
,
1000
0000
0000
0001
0010
0000
0100
0000
0001
0000
0010
0000
0100
0000
0001
0000
,
0010
0000
0100
1000
0010
0100
1000
0010
,
0001
0000
0000
0010
0100
0000
1000
0000
0010
0000
0100
0000
1000
0000
0010
0000
,
0001
0000
1000
0100
0001
0100
1000
0001
,
0010
0000
0000
0001
1000
0000
0100
0000
0001
0000
0100
0000
1000
0000
0001
0000
,
0010
0000
1000
0010
0001
0010
1000
0001
,
0100
0000
0000
0010
1000
0000
0010
0000
0001
0000
0010
0000
1000
0000
0001
0000
,
0100
0000
1000
0010
0001
0000
1000
0010
0001
0000
1000
0010
0001
0000
1000
0010
,
0001
0000
0100
0000
0001
1000
0100
0010
0001
0000
0100
0000
0010
0000
0000
0002
,
1003
0100
0010
0001
,
0001
0010
0100
1000
,
1000
0000
0000
0000
0100
0000
0000
0100
0010
0000
0100
0000
0001
0000
0000
0000
,
0010
0100
0000
0000
0001
1000
0000
0000
,
0001
0010
0100
0010
0100
1000
0001
0010
0100
0010
0100
1000
,
0001
0010
0100
1000
0100
0010
0001
0010
0100
1000
0000
0000
,
0001
0000
0000
1000
0000
0001
0010
0000
0100
1000
0000
0001
,
0100
0000
0001
1000
0100
0010
0001
0000
0010
1000
0000
0100
,
0001
0000
0010
1000
0100
0010
0001
0000
0010
1000
0000
0001
,
0010
0000
0001
1000
0000
0100
0001
0000
0010
0100
0000
0010
,
0001
0000
0000
0100
0000
1000
0001
0000
0010
1000
0000
0100
,
0001
0000
0010
0100
1000
0100
0001
0000
0010
1000
0000
0001
,
0010
0000
0000
1000
0000
0100
0001
0000
0010
0100
0000
0001
,
0000
0000
1000
0100
0000
0010
0001
0000
0001
0010
0000
0100
,
1000
1000
1000
1000
,
1000
0000
0000
0000
0000
0000
0000
0000
1000
0000
0000
0000
0000
0000
0000
0000
1000
0000
0000
0000
0000
0000
0000
0000
1000
0000
0000
0000
0000
0000
0000
0100
,
0010
0001
0000
0000
0000
0000
0000
0000
0000
0000
0000
0000
0000
0000
0000
0000
0000
0100
0000
0000
0000
0000
0000
0000
0000
1000
0100
0000
0010
0000
0001
1000
,
0000
0000
0100
0000
0000
0000
0000
0000
0000
0000
0010
0000
0000
0000
0000
0000
0001
0000
0000
0000
0000
0000
1000
0000
0000
0000
0000
0000
0000
0000
0010
0000
0100
0000
0000
0000
0000
0000
0000
0000
0000
0000
0000
0001
0000
0000
0000
0010
0000
0000
0000
0001
0000
0000
0010
0000
0000
1000
0000
0000
0000
0010
0000
0000
,
0000
0000
0000
0000
0000
0000
0000
0000
0000
0000
0100
0000
0000
0000
0010
0000
0000
0000
0001
0000
0000
0000
0100
0000
1000
0000
0001
0000
0000
0100
0010
0000
0001
0100
1000
0000
0100
0000
0010
0000
0000
0000
0000
0001
0000
1000
0000
0000
0001
0010
1000
0000
0000
1000
0001
0010
0100
0000
1000
0001
0010
0100
1000
0001
,
0010
0000
0000
0100
0000
0000
1000
0000
0000
0001
0000
0000
0010
0000
0000
0100
0000
0000
1000
0000
0000
0001
0000
0000
0010
0000
0000
0100
0000
0000
1000
0000
0000
0001
0000
0000
0010
0000
0000
0000
0000
0000
0100
0000
0000
0000
0000
0000
1000
0000
0000
0100
0000
0000
0010
0000
0000
0000
0000
0000
0001
0000
0000
0000
0000
0000
0010
0000
0000
0000
0000
0000
0000
0000
0000
0100
0000
0000
0000
0000
0000
0000
0000
0000
0000
0000
0000
0000
0000
0000
0000
0000
0000
1000
0000
0000
0000
0000
0000
0001
0000
0000
0000
0000
0000
0010
0000
0000
0000
0000
0000
0000
0000
0000
0000
0000
0000
0100
0000
0000
0000
0000
0000
0000
0000
0000
0000
0000
0000
1000
0000
0000
0000
0000
0000
1000
0000
0100
0010
0001
0000
0000
0000
0000
0000
0000
0000
0000
0000
0000
0100
0000
0000
1000
0000
0000
0000
0000
0000
0100
0000
0000
0000
0000
0000
0010
0000
0000
0000
0000
0000
0001
0000
0000
0000
0000
0000
0000
0000
0000
0010
0000
0000
0000
0000
0000
0000
0000
0000
0000
0000
0000
,
0000
0000
0000
0100
0000
0000
0000
0000
0000
0000
0000
0000
0010
0000
0000
0000
0000
0000
0000
0000
0000
0000
0000
0000
0000
0000
0000
0000
0000
0000
0000
0000
0000
0000
0000
0000
0000
0000
0000
0000
0000
0000
0000
0000
0000
0000
0000
0000
0000
0000
0000
1000
0000
0100
0010
0001
0000
0000
0000
0000
0000
0000
0000
0000
0000
0000
0000
0000
0000
1000
0100
0010
0001
0000
0000
0000
0000
0000
0000
0000
0000
0000
0000
0000
1000
0100
0010
0000
0001
0000
0000
0000
0000
0000
0000
0000
0000
0000
0000
0000
1000
0100
0000
0010
0001
0000
0000
0000
0000
0000
0000
0000
0000
0000
0000
0000
0000
0000
0100
0000
0000
0000
0000
0000
0000
0000
0000
0000
0000
0000
0000
0000
0000
0000
0000
0000
0000
0000
0000
0000
0000
0001
0000
0000
0000
0000
0000
0000
0000
0000
0000
0000
0000
0000
0000
0000
0000
0000
0000
0000
0000
0000
0000
0000
0000
0000
0000
0000
0000
0000
0000
0000
0000
0000
0000
0000
0000
0000
0000
0000
0000
0000
0000
0000
0000
0000
0000
0000
0000
0000
0000
0000
,
0000
0000
0000
0000
0000
0000
0000
0000
0000
0000
1000
0100
0001
0000
0000
0000
,
0000
0000
0001
0010
0100
0000
0000
0000
0000
1000
0100
0001
0000
0000
0000
0010
,
0000
0000
0100
0001
1000
0020
0000
0000
0000
0000
0000
0000
0000
0000
0030
0000
,
0000
0100
0010
0001
0000
0000
1000
0100
0000
0001
0010
0000
0000
0000
0000
0000
,
0000
0000
1000
0010
0001
0000
0000
1000
0001
0100
1000
0000
0000
0000
0000
0000
,
0000
0000
0000
0000
0000
0000
0000
0000
0000
0000
0010
0000
0000
0000
0000
0001
,
0000
0000
0000
0000
0000
0100
0000
0000
0000
0000
0000
0000
0000
1000
0000
0000
,
0000
0000
1000
1000
,
1000
1000
0100
0100
,
0100
0000
0100
1000
0010
0000
0010
0000
,
0010
0000
0010
0100
0001
0000
0001
0000
,
0001
0000
0000
1000
0001
0000
0100
0000
0010
0000
0100
0000
0010
0000
0100
0000
,
0001
1000
0001
1000
0001
0010
0001
0010
,
1000
0000
0100
0000
1000
0000
0100
0010
0001
0000
0000
0001
0010
0000
0000
0010
,
0100
0000
0000
0100
2000
0000
0000
0000
3000
0000
0000
0000
0000
0000
0000
1000
,
0010
0001
0000
0200
0000
0000
0000
0000
0300
0000
0000
0000
0000
0000
0000
0000
,
0000
0000
0000
0000
0000
0000
1000
0000
0100
0001
0000
0010
0100
0000
0100
0000
,
1000
0000
0220
0000
0331
0000
1000
0100
,
0001
0000
0010
0000
1000
0000
0100
0000
0000
0000
0000
0010
0100
0000
1000
0000
,
0001
0100
1000
0010
0001
0000
1000
0100
,
0001
0000
0100
0000
1000
0000
0001
0000
0010
0000
0000
0001
1000
0000
0100
0000
,
0001
0100
0001
1000
0001
0000
0010
1000
,
0010
0000
0001
0000
0010
0000
1000
0000
0100
0000
0000
0001
0010
0000
1000
0000
,
0001
0010
1000
0010
0001
0000
1000
0100
,
0001
0010
1000
0100
0020
0000
0000
0000
,
0230
0000
0000
0000
0000
0000
0301
0000
0000
1000
0000
0100
,
0001
0000
0100
1000
0000
0001
0010
0000
0001
1000
0000
1000
,
0001
0000
0100
1000
0000
0100
0001
0000
0000
0010
1000
0010
,
0001
0000
0010
1000
0000
0001
0100
0000
0001
1000
0000
0100
,
0001
0000
1000
0001
0000
0100
0010
0000
0000
0100
0000
0010
,
0100
0000
0010
0100
0000
0010
1000
0000
0100
0010
0000
0010
,
0100
0000
0100
0010
0000
0100
0001
0000
1000
0001
1000
0001
,
1000
0000
0001
1000
0000
0001
0100
0000
0010
0001
0000
0001
,
0010
0000
0010
0100
0000
1000
0100
0000
0000
0100
0000
0000
,
0100
0100
0100
0100
,
0100
0100
0000
0000
;
