#TITLE:High Price;
#SUBTITLE:;
#ARTIST:Squnto;
#TITLETRANSLIT:;
#SUBTITLETRANSLIT:;
#ARTISTTRANSLIT:;
#CREDIT:ChaosUnown;
#BANNER:high-bn.png;
#BACKGROUND:high.png;
#LYRICSPATH:;
#CDTITLE:chaosunownCD.png;
#MUSIC:high.ogg;
#OFFSET:0.006;
#SAMPLESTART:41.140;
#SAMPLELENGTH:12.000;
#SELECTABLE:YES;
#DISPLAYBPM:70.000:140.000;
#BPMS:0.000=140.000,64.000=70.000,68.000=140.000,75.000=280.000,76.000=70.000,76.167=210.000,76.667=140.000,84.500=280.000,84.875=56.000,85.000=140.000,86.000=280.000,86.375=56.000,86.500=140.000,87.000=280.000,87.375=56.000,87.500=280.000,88.000=140.000,88.500=280.000,88.875=56.000,89.000=280.000,90.000=280.000,90.375=56.000,90.500=280.000,90.875=56.000,91.000=280.000,91.375=56.000,91.500=280.000,92.000=140.000,94.000=210.000,94.500=70.000,94.667=210.000,95.167=70.000,95.333=210.000,95.833=70.000,96.000=210.000,96.500=70.000,96.667=210.000,97.167=70.000,97.333=210.000,97.833=70.000,98.000=210.000,98.500=70.000,98.667=210.000,99.167=70.000,99.333=210.000,99.833=70.000,100.000=140.000,100.500=280.000,100.875=56.000,101.000=140.000,102.000=280.000,102.375=56.000,102.500=140.000,103.000=280.000,103.375=56.000,103.500=280.000,104.000=140.000,105.500=56.000,105.625=280.000,106.000=140.000,106.500=280.000,106.875=56.000,107.125=280.000,107.500=140.000,116.500=280.000,117.250=56.000,117.500=140.000,118.500=280.000,119.875=56.000,120.000=210.000,120.750=70.000,121.000=210.000,121.750=70.000,122.000=210.000,122.750=70.000,123.000=210.000,123.750=70.000,124.000=140.000,124.500=280.000,124.875=56.000,125.000=280.000,125.500=140.000,126.000=70.000,126.250=210.000,127.000=140.000,128.500=280.000,128.875=56.000,129.000=280.000,130.000=70.000,130.250=210.000,131.000=140.000,134.500=280.000,134.875=56.000,135.000=140.000,135.500=280.000,135.875=56.000,136.000=140.000,139.500=280.000,139.875=56.000,140.000=140.000,148.000=70.000,152.000=140.000,216.000=70.000,222.000=140.000,225.000=280.000,226.750=56.000,227.000=140.000,228.000=280.000,228.750=56.000,229.000=140.000,230.000=280.000,230.375=56.000,230.500=140.000,231.000=280.000,231.375=56.000,231.500=140.000,232.000=56.000,232.125=280.000,232.875=56.000,233.000=140.000,234.000=280.000,234.500=56.000,234.667=280.000,235.167=56.000,235.333=280.000,235.833=56.000,236.000=280.000,236.500=56.000,236.667=280.000,237.167=56.000,237.333=280.000,237.833=56.000,238.000=280.000,238.500=56.000,238.667=280.000,239.167=56.000,239.333=280.000,239.833=56.000,240.000=280.000,240.500=56.000,240.667=280.000,241.167=56.000,241.333=280.000,241.833=56.000,242.000=140.000,242.667=56.000,242.750=280.000,243.000=140.000,244.667=56.000,244.750=280.000,245.000=140.000,261.333=280.000,262.000=140.000,266.667=56.000,266.750=280.000,267.000=140.000,267.667=56.000,267.750=280.000,268.000=140.000,268.667=56.000,268.750=280.000,269.000=140.000,269.667=56.000,269.750=280.000,274.000=140.000,278.000=280.000,282.000=140.000,282.667=56.000,282.750=280.000,283.000=140.000,284.667=56.000,284.750=280.000,285.000=140.000,285.667=56.000,285.750=280.000,286.000=140.000,286.667=280.000,287.667=140.000,288.000=280.000,288.667=140.000,289.000=280.000,289.750=56.000,290.000=70.000;
#STOPS:75.000=0.215
,87.500=0.054
,87.750=0.053
,89.000=0.054
,89.250=0.053
,89.500=0.054
,89.750=0.053
,91.500=0.054
,91.750=0.053
,103.500=0.054
,103.750=0.053
,118.500=0.054
,118.750=0.054
,119.000=0.054
,119.250=0.053
,125.000=0.054
,125.250=0.053
,129.000=0.054
,129.250=0.053
,129.500=0.054
,129.750=0.053
,225.000=0.213
,261.333=0.071
,261.667=0.072
,270.000=0.071
,270.333=0.072
,270.667=0.071
,271.000=0.072
,271.333=0.071
,271.667=0.072
,272.000=0.071
,272.333=0.072
,272.667=0.071
,273.000=0.071
,273.333=0.072
,273.667=0.071
,278.000=0.071
,278.333=0.072
,278.667=0.071
,279.000=0.072
,279.333=0.071
,279.667=0.072
,280.000=0.071
,280.333=0.072
,280.667=0.071
,281.000=0.072
,281.333=0.071
,281.667=0.071
,286.667=0.071
,287.000=0.072
,287.333=0.072
,288.000=0.071
,288.333=0.072
;
#BGCHANGES:;
// cache tags:
#FIRSTBEAT:32.000;
#LASTBEAT:290.000;
#SONGFILENAME:Songs/Omnifarious/(ChaosUnown) High Price/high.sm;
#HASMUSIC:1;
#HASBANNER:1;
#MUSICLENGTH:134.603;
// end cache tags

//---------------dance-single - P. Mason----------------
#NOTES:
     dance-single:
     P. Mason:
     Challenge:
     11:
     0.588,0.862,0.253,0.513,0.884,429.000,34.000,69.000,170.000,1.000:

0000
0000
0000
0000
,
0000
0000
0000
0000
,
0000
0000
0000
0000
,
0000
0000
0000
0000
,
0000
0000
0000
0000
,
0000
0000
0000
0000
,
0000
0000
0000
0000
,
0000
0000
0000
0000
,
11MM
0000
0000
1000
1001
0000
0000
0000
,
0000
0000
0000
0000
0000
0000
0000
0000
0001
0000
0000
0000
0000
0000
0000
0000
0000
0000
0000
0000
0000
0000
0000
0000
0001
0000
0000
0000
0000
0000
0000
0000
0101
0000
0000
0000
0000
0000
0000
0000
0000
0000
0000
0000
0000
0000
0000
0000
M22M
0000
0000
0000
0000
0000
0000
0000
0000
0000
0000
0000
0000
0000
0000
0330
,
202M
0000
0000
0000
,
0000
0000
0000
0000
0000
0000
0000
0000
0000
0000
0000
0000
0000
0000
0000
0000
0000
0000
0000
0000
0000
0000
0000
3030
1M01
0000
0000
0000
0000
0000
0000
0000
,
0MM1
1000
0010
0000
0000
0001
0000
0000
0001
1000
0010
0000
0001
1000
0010
0000
,
10MM
0100
0010
0000
0000
1000
0000
0000
1000
0100
0010
0001
0100
0010
0100
0001
,
1000
0001
0010
0000
0000
1000
0000
0000
1000
0001
0010
0000
1000
0001
0010
0000
,
M0M1
0100
0010
0000
0000
0001
0000
0000
0001
0100
0010
1000
0001
0010
0100
0010
,
MM01
0000
0000
0000
,
11MM
0000
0000
0000
0000
0000
0000
0000
0000
0000
0000
0000
1MM1
0000
0000
0000
0000
0000
1MM1
0000
0000
0000
0000
0000
0001
0000
0000
0100
0000
0000
0001
0000
0000
0100
0000
0000
0010
0000
1000
0000
0001
0000
0100
0000
0010
0000
1000
0000
,
0001
0000
0001
0000
0001
0000
0010
0000
0010
0000
0010
0000
0100
1000
0001
0100
0010
0100
0001
0000
0000
0000
0000
0000
,
1MM1
0000
00M0
0000
00M0
0000
00M0
0000
0M00
0000
0M00
0000
0M00
0000
0M00
0000
0M00
0000
1M00
0000
0M00
0001
0M00
0000
0M10
0000
0M00
0000
0M00
0000
0M00
0000
0M00
0000
0M00
0000
0M00
0000
0M00
0000
0M00
0000
0M00
0000
0M00
0000
0M00
0000
,
MM11
0000
0M00
0000
0M00
0000
0M00
0000
0M00
0001
0M00
0000
0M00
0000
0M00
0000
0M00
0000
0M01
0000
0M00
1000
0M00
0000
0M10
0000
0M00
0000
0M00
0000
0M00
0000
0M00
0000
0M00
0000
0M00
0000
0M00
0000
0M00
0000
0M00
0000
0M00
0000
0M00
0000
,
1MM0
0000
0000
0000
0000
0000
0000
0000
0001
0000
0000
0000
0000
0000
0000
0000
1000
0000
0000
0000
0000
0000
0000
0000
0200
0000
0000
0000
0000
0000
0000
0000
0000
0000
0000
0000
0000
0000
0000
0000
0000
0000
0000
0000
0000
0000
0000
0000
0300
0000
0000
0000
0000
0000
0000
0000
0000
0000
0000
0000
0000
0000
0000
0000
0000
0000
0000
0000
0000
0000
0000
0000
0010
0000
0000
0000
0000
0000
0000
0000
0000
0000
0000
0000
0000
0000
0000
0000
0000
0000
0000
0000
0000
0000
0000
0000
0M12
0000
0000
0000
0000
0000
0000
0000
0000
0000
0000
0000
0000
0000
0000
0000
0000
0000
0003
0000
0000
0000
0000
0000
0001
0000
0000
0000
0000
0000
0000
0000
0100
0000
0000
0000
0000
0000
0000
0000
0010
0000
0000
0000
0000
0000
0000
0000
2000
0000
0000
0000
0000
0000
0000
0000
0000
0000
0000
0000
0000
0000
0000
0000
0000
0000
0000
0000
0000
0000
0000
0000
3001
0000
0000
0000
0000
0000
0000
0000
0000
0000
0000
0000
0010
0000
0000
0000
0000
0000
0000
0000
0000
0000
0000
0000
,
M10M
0000
0010
0000
0100
0000
0020
0000
0000
0000
0000
0000
0031
0000
0000
1000
0000
0000
0001
0000
0000
1000
0000
0000
0M20
0000
0000
0000
0000
0000
0230
0000
0000
0000
0000
0000
0320
0000
0000
0000
0000
0000
1030
0000
0000
0100
0000
0000
,
001M
0000
0000
0100
0000
0000
1000
0000
0000
0001
0000
0000
0100
0000
0000
0010
0000
0000
1000
0000
0000
0001
0000
0000
0M20
0000
0000
0000
0000
0000
0000
0000
0230
0000
0000
0000
0000
0000
0000
0000
2300
0000
0000
0000
0000
0000
0000
0000
,
3002
0000
0203
0000
2300
0000
30M2
0000
0023
0000
0230
0000
,
03M1
0000
0000
0000
0000
0000
0000
0000
1000
0000
0000
0000
0000
0000
0000
0000
0001
0000
0000
0000
0000
0000
0000
0000
0020
0000
0000
0000
0000
0000
0000
0000
0000
0000
0000
0000
0000
0000
0000
0000
0000
0000
0000
0000
0000
0000
0000
0000
0030
0000
0000
0000
0000
0000
0000
0000
0000
0000
0000
0000
0000
0000
0000
0000
0000
0000
0000
0000
0000
0000
0000
0000
0100
0000
0000
0000
0000
0000
0000
0000
0000
0000
0000
0000
0000
0000
0000
0000
0000
0000
0000
0000
0000
0000
0000
0000
21M0
0000
0000
0000
0000
0000
0000
0000
0000
0000
0000
0000
0000
0000
0000
0000
0000
0000
3000
0000
0000
0000
0000
0000
1000
0000
0000
0000
0000
0000
0000
0000
0001
0000
0000
0000
0000
0000
0000
0000
0100
0000
0000
0000
0000
0000
0000
0000
0020
0000
0000
0000
0000
0000
0000
0000
0000
0000
0000
0000
0000
0000
0000
0000
0000
0000
0000
0000
0000
0000
0000
0000
1030
0000
0000
0000
0000
0000
0000
0000
0000
0000
0000
0000
0001
0000
0000
0000
0000
0000
0000
0000
0000
0000
0000
0000
,
0010
0100
1000
0001
0100
0001
1000
0100
1000
0002
0000
0000
01M3
0000
0000
0020
0000
0000
0230
0000
0000
0301
1000
0100
,
001M
000M
000M
000M
000M
000M
0000
0000
,
0000
0000
0000
0000
0000
0000
0000
0000
0000
0000
0000
0000
10M1
0000
0000
0004
0400
0000
0000
0000
0000
0000
0003
0000
,
0340
0000
0000
0000
0000
0000
4030
0000
0000
0000
0000
0000
0000
0000
0000
0000
0000
0000
3001
0000
0100
0000
0001
0000
10M0
0000
0000
0000
0000
0000
0100
0000
0000
0010
0000
0000
0100
0000
0000
0010
0000
0000
0002
0000
0000
0000
0000
0000
,
2MM3
3020
023M
0302
,
M013
0000
0100
0000
0010
0000
0200
0000
0000
0000
0000
0000
1300
0000
0000
0001
0000
0000
1000
0000
0001
0000
1000
0000
0M20
0000
0000
0000
0000
0000
0000
0000
0000
0000
0000
0000
0430
0000
0000
0000
0000
0000
0301
0000
1000
0000
0001
0000
,
0010
0000
0000
0000
0000
0000
0000
0000
0001
0000
0000
0000
0000
0000
0000
0000
1000
0000
0000
0000
0000
0000
0000
0000
0020
0000
0000
0000
0000
0000
0000
0000
0000
0000
0000
0000
0000
0000
0000
0000
0000
0000
0000
0000
0000
0000
0000
0000
0130
0000
0000
0000
0000
0000
0000
0000
0000
0000
0000
0000
0001
0000
0000
0000
0000
0000
0000
0000
0000
0000
0000
0000
0100
0000
0000
0000
0000
0000
0000
0000
0000
0000
0000
0000
0001
0000
0000
0000
0000
0000
0000
0000
0000
0000
0000
0000
20M0
0000
0000
0000
0000
0000
0000
0000
0000
0000
0000
0000
0000
0000
0000
0000
0000
0000
0000
0000
0000
0000
0000
0000
0000
0000
0000
0000
0000
0000
0000
0000
0000
0000
0000
0000
0000
0000
0000
0000
0000
0000
0000
0000
0000
0000
0000
0000
3400
0000
0000
0000
0000
0000
0000
0000
0000
0000
0000
0000
0000
0000
0000
0000
0000
0000
0000
0000
0000
0000
0000
0000
0000
0000
0000
0000
0000
0000
0000
0000
0000
0000
0000
0000
0000
0000
0000
0000
0000
0000
0000
0000
0000
0300
0000
0000
,
M011
0000
0000
0000
0000
0000
0000
0000
0000
0000
0000
0000
0000
0000
0000
0000
0000
0000
0001
0000
0000
1000
0000
0000
001M
0000
0100
0000
0010
0000
2000
0000
0000
0000
0000
0000
3100
0000
1000
0000
0100
0000
0020
0000
0000
0000
0000
0000
,
MM32
0000
0000
0000
0000
0000
0000
0000
0000
0000
0000
0000
0000
0000
0000
0000
0000
0000
0000
0000
0000
0000
0000
0000
0000
0000
0000
0000
0000
0000
0000
0000
0000
0000
0000
0000
0000
0000
0000
0000
0000
0000
0000
0000
0000
0003
0000
0000
0002
0000
0000
0000
0000
0000
0000
0000
0000
0000
0000
0000
0000
0000
0000
0000
0000
0000
0000
0000
0000
0000
0000
0000
0000
0000
0000
0000
0000
0000
0000
0000
0000
0000
0000
0000
0000
0000
0000
0000
0000
0000
0000
0000
0000
0003
0000
0000
10M2
0000
0000
0000
0000
0000
0000
0000
0000
0000
0000
0000
0000
0000
0000
0000
0000
0000
0000
0000
0000
0000
0000
0000
0000
0000
0000
0000
0000
0000
0000
0000
0000
0000
0000
0000
0000
0000
0000
0000
0000
0000
0000
0000
0000
0003
0000
0000
0001
0000
0000
0000
0000
0000
0000
0000
1000
0000
0000
0000
0000
0000
0000
0000
0001
0000
0000
0000
0000
0000
0000
0000
0200
0000
0000
0000
0000
0000
0000
0000
0000
0000
0000
0000
0000
0000
0000
0000
0000
0000
0000
0000
0000
0300
0000
0000
,
M11M
0000
0000
0000
0000
0000
0000
0000
0000
0000
0000
0000
0010
0000
0000
0000
201M
0000
0000
0000
0000
0000
0000
3000
2000
0000
0000
0000
3001
0000
0000
0000
,
1000
0001
1000
0000
0000
0000
1000
0001
1000
00M0
00M0
00M0
10M0
00M1
10M0
00M0
00M0
00M0
10M0
00M1
10M0
00M0
00M0
00M0
,
11MM
0000
0000
0000
0000
0000
0000
0000
0000
0000
0000
0000
0000
0000
0000
1000
,
1MM2
0000
0M10
0203
,
0000
0000
0000
0000
0000
0000
0000
0000
0000
0000
0000
0000
0000
0000
0000
0000
1000
0000
0000
0000
0000
0000
0000
0000
0000
0000
0000
0000
0000
0000
0000
0000
032M
0000
0000
0000
0000
0000
0000
0000
0000
0000
0000
0000
0000
0000
0000
0000
0000
0000
0000
0000
0000
0000
0000
0000
0000
0000
0000
0000
0000
0000
0000
0030
,
2M01
0000
01M0
0000
,
0000
0000
0000
0000
0000
0000
0000
0000
0000
0000
0000
0000
0000
0000
0000
0000
0001
0000
0000
0000
0000
0000
0000
0000
0001
0000
0000
0000
0000
0000
0000
0000
0M10
0000
0000
0000
0000
0000
0000
0000
0000
0000
0000
0000
0000
0000
0000
0000
0000
0000
0000
0000
0000
0000
0000
0000
0000
0000
0000
0000
0000
0000
0000
3000
,
0M12
0000
01M0
2003
,
0000
0000
0000
0000
0000
0000
0000
0000
0000
0000
0000
0000
0000
0000
0000
0000
0001
0000
0000
0000
0000
0000
0000
0000
0000
0000
0000
0000
0000
0000
0000
0000
3M20
0000
0000
0000
0000
0000
0000
0000
0000
0000
0000
0000
0000
0000
0000
0000
0000
0000
0000
0000
0000
0000
0000
0000
0000
0000
0000
0000
0000
0000
0000
0030
,
M102
0000
0000
0000
0000
0000
0000
0000
M010
0000
0000
0000
0103
0010
0200
0000
,
0000
0000
1000
0000
00M1
0000
0310
1000
,
1MM2
0000
0000
0010
1M00
0000
0000
0000
,
0000
0000
0000
0000
0000
0000
0000
0000
0100
0000
0000
0000
0000
0000
0000
0000
0000
0000
0000
0000
0000
0000
0000
0000
0100
0000
0000
0000
0000
0000
0000
0000
M010
0000
0000
0000
0000
0000
0000
0000
0000
0000
0000
0000
0000
0000
0000
0000
2M23
0000
0000
0000
0000
0000
0000
0000
0000
0000
0000
0000
0000
0000
0000
3030
,
2M02
0000
0000
0000
,
0000
0000
0000
0000
0000
0000
0000
0000
0000
0000
0000
0000
0000
0000
0000
0000
0000
0000
0000
0000
0000
0000
0000
0000
0000
0000
0000
0000
0000
0000
0000
0000
0000
0000
0000
0000
0000
0000
0000
0000
0000
0000
0000
0000
0000
0000
0000
3003
11M0
0000
0000
0000
0000
0000
0000
0000
0000
0000
0000
0000
0000
0000
0000
0000
,
1MM0
0001
0100
0000
0000
1000
0000
0000
1000
0001
0100
0000
1000
0001
0100
0000
,
MM01
0010
0100
0000
0000
0001
0000
0000
0001
0010
0100
1000
0010
0100
0010
1000
,
0001
1000
0100
0000
0000
0001
0000
0000
0001
1000
0100
0000
0001
1000
0100
0000
,
1M0M
0010
0100
0000
0000
1000
0000
0000
1000
0010
0100
0001
1000
0100
0010
0100
,
10MM
0000
0000
0000
,
0000
0000
0000
0000
0000
0000
1MM1
0000
0000
0001
1000
0001
,
1000
0010
1000
0010
1000
0010
0100
0000
0000
0000
0000
0000
M1M4
0000
0000
0000
0000
0000
1003
0000
0000
0000
0400
0000
,
0340
0000
0000
0000
0000
0000
0031
0000
0000
0000
4000
0000
3040
0000
0000
0030
0000
0000
0040
0000
0000
0030
0100
0000
,
0004
0000
0000
4003
0000
0000
3000
0000
0000
0000
0100
0000
M04M
0000
0000
0030
0040
0000
0000
0030
0040
0000
0000
0030
,
0041
0000
0000
0030
0040
0000
0000
0030
0040
0000
0000
0000
0430
0000
0000
0000
4300
0000
0000
0000
3004
0000
0000
0000
,
0403
0000
0340
0000
0034
0000
0013
0000
2000
3000
0000
0010
,
0010
0000
2000
3000
0000
0010
0010
0000
0000
0010
0000
0100
,
0010
0000
0000
0010
0010
0010
1M0M
0000
0000
1000
0000
1000
,
0001
0000
1000
0001
0000
1000
0001
0000
0000
0001
0000
0010
,
0001
0000
0000
0010
0010
0010
M10M
0000
0000
0100
0000
1000
,
0002
0000
0000
0000
0103
0100
0200
0000
0300
0010
1000
0001
,
0010
0000
0000
0100
1000
0001
0100
0000
0020
0130
0000
0020
,
0130
0000
0020
0130
0000
0020
0130
0001
0100
0001
1000
0001
,
0010
0100
0010
0001
1000
0001
M1M0
0001
1000
0100
1000
0001
,
0200
0000
0000
0000
0000
0000
0301
0000
1000
0000
0001
0000
0010
0M00
0010
0000
1000
0000
0100
00M0
0100
0000
0001
0000
,
0010
0M0M
0010
0000
1000
0000
0100
00M0
0100
0000
M001
0000
0010
0000
0000
0000
0200
0000
0310
0000
0000
0000
0010
0000
,
M010
0000
0002
0013
0000
0002
1003
1000
0010
0100
0010
1000
,
0M01
0000
0000
0000
0000
0000
0000
0000
0000
0000
0000
0000
0000
0000
0000
0000
0001
0000
0000
0000
0000
0000
0000
0000
0000
0000
0000
0000
0000
0000
0000
0000
0010
0000
0000
0000
0000
0000
0000
0000
0000
0000
0000
0000
0000
0000
0000
0000
0400
0000
0000
0000
0000
0000
0000
0000
0000
0000
0000
0000
0000
0000
0000
0000
0000
0000
0000
0000
0000
0000
0000
0000
0000
0000
0000
0000
0000
0000
0000
0000
0000
0000
0000
0000
0000
0000
0000
0000
0000
0000
0000
0000
0000
0300
0000
0000
10M1
0000
0000
0000
0000
0000
0000
0000
0000
0000
0000
0000
0000
0000
0000
0000
0000
0000
0000
0000
0000
0000
0000
0000
0000
0000
0000
0000
0000
0000
0000
0000
0000
0000
0000
0000
0000
0000
0000
0000
0000
0000
0000
0000
0000
0000
0000
0000
0000
0000
0000
0000
0000
0000
0000
0000
0000
0000
0000
0000
0000
0000
0000
0000
0000
0000
0000
0000
0000
0000
0000
0000
0000
0000
0000
0000
0000
0000
0000
0000
0000
0000
0000
0000
0000
0000
0000
0000
0000
0000
0000
0000
0000
0000
0000
0000
;
