#TITLE:Holy Thunderforce;
#SUBTITLE:;
#ARTIST:Rhapsody;
#TITLETRANSLIT:;
#SUBTITLETRANSLIT:;
#ARTISTTRANSLIT:;
#CREDIT:;
#BANNER:ba.jpg;
#BACKGROUND:bg.jpg;
#LYRICSPATH:lyric.lrc;
#CDTITLE:cd.png;
#MUSIC:Holy Thunderforce.mp3;
#OFFSET:-0.240;
#SAMPLESTART:102.380;
#SAMPLELENGTH:18.700;
#SELECTABLE:YES;
#BPMS:0.000=180.000,232.000=179.000,235.000=180.000;
#STOPS:104.000=0.340
,107.000=0.340
,118.000=0.320
,121.000=0.340
,132.000=0.320
,133.000=0.340
,134.000=0.320
,135.000=0.340
,144.000=0.320
,145.000=0.340
,146.000=0.320
,147.000=0.360
,232.000=0.320
,235.000=0.340
,246.000=0.340
,249.000=0.340
,260.000=0.340
,261.000=0.340
,262.000=0.340
,263.000=0.300
,272.000=0.340
,273.000=0.340
,274.000=0.340
,275.000=0.320
,504.000=0.340
,507.000=0.340
,518.000=0.320
,521.000=0.320
,532.000=0.340
,533.000=0.340
,534.000=0.340
,535.000=0.320
,544.000=0.340
,545.000=0.340
,546.000=0.340
,547.000=0.320
;
#BGCHANGES:;
// cache tags:
#FIRSTBEAT:0.000;
#LASTBEAT:732.000;
#SONGFILENAME:Songs/toune 2/(AS)[P]Holy Thunderforce/HT.sm;
#HASMUSIC:1;
#HASBANNER:1;
#MUSICLENGTH:261.534;
// end cache tags

//---------------dance-single - ----------------
#NOTES:
     dance-single:
     :
     Hard:
     12:
     1.000,1.000,0.834,0.619,1.000,1776.000,218.000,162.000,0.000,0.000:
1100
0010
0000
0001
0000
0010
0100
1000
,
0101
0010
0000
0100
0000
0010
0100
0010
,
2002
0000
0000
0000
0000
3003
0020
0000
0000
0000
0000
0030
0110
0000
0000
0000
,
2020
0000
0000
0000
0000
3030
0200
0000
0000
0000
0000
0000
0000
0000
0300
0000
,
1001
0010
0000
0100
0000
0010
0001
0110
,
1010
0001
0000
0100
0000
1000
0001
0100
,
2020
0000
0000
0000
0000
3030
0200
0000
0000
0000
0000
0300
0011
0000
0000
0000
,
2200
0000
0000
0000
0000
3300
0012
0000
0100
0000
0000
0000
1000
0100
0013
0000
,
0100
1000
0100
0010
0100
1000
0100
0001
0010
0100
0010
0001
0100
0010
0100
0010
,
0100
1000
0100
0010
0100
1000
0100
0010
0001
0100
0001
0100
0010
0100
1000
0100
,
0012
0000
0100
0000
1000
0003
0120
0000
0001
0000
1000
0030
0101
0000
0010
0000
,
2100
0000
0010
0000
0001
3000
0210
0000
0001
0000
0000
0000
0001
0000
0300
0000
,
0010
0100
0010
0001
1000
0100
0010
0001
0100
1000
0100
0010
0100
1000
0100
0010
,
0001
0010
0100
0010
0001
1000
0100
0010
0100
0010
0100
0010
0001
0010
0100
1000
,
0210
0000
0001
0000
1000
0300
0021
0000
0100
0000
1000
0030
0101
0000
0010
0000
,
1200
0000
0010
0000
1000
0300
0012
0000
0100
0000
0000
0000
0010
0100
1003
0000
,
0010
0100
0010
0100
1001
0000
0100
0010
0100
0010
1001
0000
0010
0100
0010
0100
,
1001
0000
0000
0000
1010
0000
0000
0000
0101
0000
0000
0000
0010
1000
0010
1000
,
0101
0000
1000
0010
1000
0010
0101
0000
0010
1000
0010
1000
0101
0000
0000
0000
,
0012
0000
0000
0103
1020
0000
0001
0030
,
0001
0010
0001
0010
1100
0000
0010
0001
0010
0001
1100
0000
0001
0010
0001
0010
,
1100
0000
0000
0000
0101
0000
0000
0000
0110
0000
0000
0000
0001
0100
0001
0100
,
1010
0000
0100
0001
0100
0001
1010
0000
0001
0100
0001
0100
1010
0000
0000
0000
,
1200
0000
0000
0000
0000
0300
2010
0000
0000
0000
0000
3000
0120
0000
0000
0030
,
1002
0000
0000
0000
0000
0000
1000
0003
0120
0000
0000
0000
0100
0000
0000
0030
,
2002
0000
0000
0000
0000
0000
0000
3003
,
1010
0100
0001
0110
,
1000
0000
0000
0000
0100
0000
0000
0000
2100
0000
0010
0000
0001
0000
0000
3000
,
0012
0000
0100
0000
1000
0000
0000
0003
0210
0000
0000
0000
0001
0000
0000
0000
,
0000
0001
0310
0000
1010
0000
0010
0000
,
0100
1001
0010
0001
,
1020
0000
0000
0000
0100
0000
0000
0030
0201
0000
0000
0000
0001
0000
0000
0300
,
0120
0000
1000
0130
,
1010
1010
1010
1010
,
2100
0000
0001
0000
0010
0000
0000
3000
0201
0000
0010
0000
1000
0000
0000
0300
,
0021
0100
0001
0000
0000
0000
0030
0000
,
1100
0000
1100
0000
1100
0001
1100
0000
,
0102
0000
0000
0000
1000
0000
0000
0003
0120
0000
0000
0000
0001
0000
0000
0030
,
2010
0000
0000
0000
0010
0000
0010
0000
0010
0001
3010
0100
0010
0001
0010
0000
,
1000
0100
0010
0100
1000
0001
1000
0010
0100
0010
0001
0010
0100
0001
0100
0001
,
1000
0100
0010
0100
1000
0100
0010
0001
0010
1000
0010
1000
0100
0010
0100
1000
,
0001
0100
0001
0100
0010
1000
0010
1000
0100
0010
0100
0010
0100
0001
0100
0001
,
1000
0100
0010
0001
0010
0100
1000
0100
0010
1000
0010
1000
0100
0010
0001
0010
,
0100
0001
0100
0010
0100
1000
0100
0010
1000
0100
0010
0100
0010
0100
0001
0100
,
0001
0010
0100
0010
0100
0010
0001
0010
0100
0010
0001
0010
1000
0100
0010
0001
,
0100
1000
0100
1000
0010
0100
0010
0100
0001
0010
0001
0010
0100
0010
0100
0010
,
2001
0000
0010
0000
0100
0000
0010
0000
0001
0000
0010
0000
0100
0000
0010
3000
,
0201
0000
0000
0000
0001
0000
0000
0000
0001
0000
0000
0000
0001
0000
0000
0300
,
1001
0010
0100
0000
1000
0000
0100
0000
0011
0000
0000
0000
0100
0000
1000
0000
0100
0000
1000
0000
0011
0000
0000
0000
1000
0000
0100
0000
1000
0000
0100
0000
,
0011
0000
0000
0000
0101
0000
0000
0000
1010
0000
0000
0000
0001
0010
0001
0010
,
1100
0000
0010
0001
0010
0001
1100
0000
0001
0010
0001
0010
1100
0000
0000
0000
,
2010
0000
0000
3001
0210
0000
0010
0300
,
1000
0010
1000
0010
1100
0000
0010
1000
0010
1000
1100
0000
1000
0010
1000
0010
,
1100
0000
0000
0000
0110
0000
0000
0000
0101
0000
0000
0000
0010
0100
0010
0100
,
0011
0000
0100
0010
0100
0010
0011
0000
0010
0100
0010
0100
0011
0000
0000
0000
,
1020
0000
0000
0000
0000
0030
0201
0000
0000
0000
0000
0300
0021
0000
0000
0030
,
2100
0000
0000
0000
0000
0000
0001
3000
0210
0000
0000
0000
0010
0000
0000
0300
,
2002
0000
0000
0000
0000
0000
0000
3003
,
1010
0000
0100
0010
0001
0000
0110
0000
,
0001
0010
0100
0010
0001
0000
0000
0000
2010
0000
0100
0000
0010
0000
0000
3000
,
0102
0000
0000
0000
1000
0000
0000
0003
0210
0000
1000
0010
0001
0000
0000
0000
,
0010
0000
0010
0000
0310
0000
0000
0000
0101
0000
0000
0000
1000
0010
0100
0000
,
0010
0000
1010
0000
1100
0100
0101
0000
,
2010
0000
0000
0000
0010
0000
0000
3000
0102
0000
0000
0000
1000
0000
0000
0003
,
0120
0000
0000
0000
0000
0000
0100
0000
0000
0000
0000
0000
1000
0100
0001
0000
0000
0000
1030
0100
0001
0000
0000
0000
,
0110
0000
0110
0000
0110
0001
0110
0000
,
0021
0000
1000
0000
0100
0000
0000
0030
1200
0000
0001
0000
0010
0000
0000
0300
,
2001
0010
0000
3000
,
0101
0000
0101
0010
0101
1000
0101
0000
,
2010
0000
0100
0000
0010
0000
0000
3000
0201
0000
0010
0000
1000
0000
0000
0300
,
1002
0000
0000
0000
0000
0000
0000
0000
0000
0000
0000
0000
0010
0000
0000
0100
0000
0000
1000
0000
0000
0100
0000
0000
0010
0000
0100
0000
1000
0000
0100
0000
0010
0003
0001
0000
1010
0000
0000
0000
0000
0000
0100
0000
0000
0000
0000
0000
,
0010
1000
0010
1000
0100
0010
0001
0010
0100
0010
0100
0010
0001
0010
0100
1000
,
0010
0100
1000
0100
0010
0001
0010
0001
1000
0010
1000
0010
0100
0010
0001
0010
,
0100
1000
0100
1000
0001
0010
0001
0010
1000
0010
1000
0010
0001
0100
0001
0100
,
0010
0100
1000
0100
0010
0001
0010
0100
1000
0100
0010
0001
1000
0100
0010
0100
,
1000
0001
0010
0100
1000
0010
0100
1000
0100
0010
0001
0010
0100
1000
0100
1000
,
0001
0010
0100
0000
1000
0000
0100
0000
0010
0000
0100
0000
0010
0000
0100
0000
1000
0100
0010
0000
0001
0000
0010
0000
0100
0000
0001
0000
0100
0000
0001
0000
,
0010
0100
1000
0100
0010
0001
0010
0100
0001
0010
0001
0010
1000
0100
1000
0100
,
0001
0010
0100
0010
0001
0010
0100
0010
0100
1000
0100
0010
0001
0010
0100
1000
,
0001
0010
0100
1000
0100
0001
0010
0100
0010
0100
1000
0100
0010
0001
0010
0100
,
1001
0100
0010
0000
0001
0000
0000
0000
0000
0000
0000
0000
0010
0000
0000
0000
0000
0000
0000
0000
0100
0000
0000
0000
1000
0000
0000
0000
0010
0000
0000
0000
,
1100
0001
0000
0010
0000
0100
1000
0010
,
2200
0000
0000
0000
0000
3300
0020
0000
0000
0000
0000
0030
1001
0000
0000
0000
,
0220
0000
0000
0000
0000
0330
2000
0000
0000
0000
0000
0000
0000
0000
3000
0000
,
1010
0100
0000
0010
0000
0100
0010
0100
,
1001
0110
0000
0100
0000
0010
0100
0010
,
2200
0000
0000
0000
0000
3300
0020
0000
0000
0000
0000
0030
0101
0000
0000
0000
,
2020
0000
0000
0000
0000
0000
0000
0000
0000
0000
0000
0000
0000
0000
0000
3000
1000
0000
0000
0000
0030
0000
0000
0000
0002
0000
0000
0000
0010
0000
0000
0000
0100
0000
0000
0000
1000
0000
0000
0000
0100
0000
0000
0000
0000
0000
0000
0000
0010
0000
0000
0000
0100
0000
0000
0000
1003
0000
0000
0000
0000
0000
0000
0000
,
0100
0010
0100
1000
0100
0010
0100
1000
0001
0010
0100
0010
0100
1000
0100
0010
,
1000
0100
0010
0100
1000
0010
1000
0010
0100
0010
0100
0010
0001
0010
0100
0010
,
2000
0100
0010
0001
0100
3010
0200
0010
1000
0010
0001
0310
1100
0010
0100
0010
,
0002
0010
0100
1000
0100
1003
0020
0100
1000
0100
0001
0100
1000
0100
0031
0000
,
0010
0100
0010
0100
1000
0100
0010
0001
0010
0100
0010
0100
1000
0010
1000
0010
,
0100
0010
0001
0010
0100
0010
0100
1000
0001
0010
0001
0010
0100
0010
0100
0010
,
0200
0010
0001
0010
1000
0310
2000
0100
0010
0001
0010
3100
0011
0100
1000
0100
,
0020
0001
0100
1000
0100
0031
0200
0010
0001
0010
1000
0010
0001
0010
1300
0000
,
0101
1000
0010
0000
0110
0001
0010
0000
1001
0010
0100
0000
1000
0000
0100
0000
,
1010
0100
0010
0000
0110
0001
0010
0000
0011
0100
0010
0000
1000
0000
0100
0000
,
0001
0010
0001
0000
0100
1000
0100
0000
0001
0100
0001
0000
0010
0001
0010
0000
,
1000
0010
1000
0000
0100
1000
0100
0000
0001
1000
0001
0000
0100
0010
0100
0000
,
0001
0010
0001
0000
1000
0010
1000
0000
0100
0001
0100
0000
0010
0100
0010
0000
,
0001
0010
0001
0000
0100
0010
0100
0000
0010
0001
0010
0000
0100
0010
0100
0000
,
2000
0000
0000
0000
0010
0001
0010
3001
2000
0000
0000
0000
0001
0010
0001
3010
,
0001
0000
0010
0000
0100
0010
1000
0010
0200
0000
0000
0000
0001
0010
0001
0310
,
1000
0000
0100
0000
0010
0100
0001
0010
0200
0000
0000
0000
0001
0010
0001
0310
,
1000
0000
0100
0000
1000
0100
0010
0100
0002
0000
0000
0000
0010
0000
0010
0000
,
0010
0000
0000
0100
0000
0000
1000
0000
0000
0100
0000
0000
1000
0000
0100
0000
0010
0000
0100
0000
0000
0003
0000
0000
0100
0000
0000
0010
0000
0000
0100
0000
0000
0010
0000
0000
1000
0000
0000
0010
0000
0000
1000
0000
0000
0010
0000
0000
,
0100
0001
0100
0001
0010
0100
0010
0100
1000
0010
1000
0010
0100
0010
0100
0010
,
0001
0100
0001
0100
0010
0100
0010
0100
1000
0100
0010
0001
0010
0100
1000
0100
,
0001
0010
0100
1000
0100
0010
0001
0010
1000
0100
0010
0100
1000
0100
0010
0001
,
0010
0100
1000
0100
0010
0001
0010
0100
0001
0010
0001
0010
0100
0010
0100
0010
,
1000
0100
1000
0100
0010
1000
0010
1000
0100
0010
0100
0010
0001
0100
0001
0100
,
0010
0000
0000
0000
1000
0000
0000
0000
0010
0000
0000
0000
1000
0000
0000
0000
0100
0000
0000
0000
0010
0000
0000
0000
0100
0000
0000
0000
0010
0000
0000
0000
0001
1000
0000
0000
0100
0000
0000
0000
0001
0000
0000
0000
0100
0000
0000
0000
0001
0000
0000
0000
0100
0000
0000
0000
0001
0000
0000
0000
0100
0000
0000
0000
,
1000
0001
0000
0000
0010
0000
0000
0000
1000
0000
0000
0000
0010
0000
0000
0000
1000
0000
0000
0000
0010
0000
0000
0000
1000
0000
0000
0000
0010
0000
0000
0000
0100
1000
0000
0000
0010
0000
0000
0000
0100
0000
0000
0000
0010
0000
0000
0000
0100
0000
0000
0000
0010
0000
0000
0000
0100
0000
0000
0000
0010
0000
0000
0000
,
0100
0000
0000
0000
0010
0000
0000
0000
0100
0000
0000
0000
0010
0000
0000
0000
0100
0000
0000
0000
0010
0000
0000
0000
0100
0000
0000
0000
0010
0000
0000
0000
0100
1000
0000
0000
0001
0000
0000
0000
0100
0000
0000
0000
0001
0000
0000
0000
0100
0000
0000
0000
0001
0000
0000
0000
0100
0000
0000
0000
0001
0000
0000
0000
,
0100
0001
0100
0001
0100
0001
0100
0001
1010
0100
0010
0000
0110
0001
0010
0000
,
0011
0100
1000
0000
0001
0000
0010
0000
1100
0010
0100
0000
0011
0100
1000
0000
,
1001
0010
0100
0000
0010
0000
0100
0000
1000
0100
0010
0000
0100
0010
0001
0000
,
0010
0100
1000
0000
0010
0100
0001
0000
0010
1000
0100
0000
0001
0100
1000
0000
,
0010
0100
0001
0000
0100
1000
0001
0000
0010
0100
0001
0000
0010
1000
0100
0000
,
0001
0100
0010
0000
0001
0100
0010
0000
0001
0010
0100
0000
0010
1000
0100
0000
,
0001
0100
0010
0000
0100
0001
0010
0000
0200
0000
0000
0000
0001
1000
0001
1300
,
0200
0000
0000
0000
0010
0001
0010
0301
1000
0000
0100
0000
0010
0100
0001
0100
,
0020
0000
0000
0000
1000
0001
1000
0031
0100
0000
0010
0000
0001
0100
0010
0100
,
2000
0000
0000
0000
0100
0001
0100
3001
0010
0000
0100
0000
0010
0100
1000
0100
,
0002
0000
0000
0000
0000
0000
0000
0000
0000
0000
0000
0000
1000
0000
0000
0100
0000
0000
0010
0000
0000
0100
0000
0000
1000
0000
0000
0000
0100
0000
0000
0000
0010
0000
0000
0000
0100
0000
0000
0000
0010
0000
0000
0000
0100
0003
0000
0000
,
1001
0000
0010
0100
1000
0000
0101
0000
,
0100
0000
0010
0000
0100
0000
0000
0000
2010
0000
0010
0000
0010
0000
0000
3000
,
0210
0000
0010
0000
0010
0000
0000
0300
1002
0000
0100
0000
0010
0000
0000
0000
,
1000
0100
0013
0100
1010
0000
0100
0000
,
0010
0011
0100
1000
,
1020
0000
0000
0000
0100
0000
0000
0030
0201
0000
0000
0000
0010
0000
0000
0300
,
2001
0000
0000
0000
0000
0000
0000
0000
0000
0000
0000
0000
0100
0010
0001
0000
0000
0000
3100
0010
0001
0000
0000
0000
,
1001
0000
1001
0000
1001
0100
1001
0000
,
0102
0000
0000
0000
0100
0000
0000
0003
1020
0000
0000
0000
0001
0000
0000
0030
,
1200
0000
0000
0000
0001
0010
0301
0010
,
0101
0000
0101
1000
0101
0010
0101
0000
,
1200
0000
0000
0000
1000
0000
0000
0300
0021
0000
0000
0000
0001
0000
0000
0030
,
0220
0000
0000
0000
0000
0000
0000
0000
0000
0000
0000
0000
0000
0000
0000
0000
0000
0000
0000
0000
0000
0000
0000
0000
0000
0000
0000
0000
0000
0000
0000
0000
0000
0000
0000
0000
0000
0000
0000
0000
0000
0000
0000
0000
0000
0000
0000
0330
1001
0000
0000
0000
0000
0000
0000
0000
1010
0000
0000
0000
0000
0000
0000
0000
,
1000
0100
0010
0100
1000
0001
0010
0100
0010
0100
1000
0100
0010
0100
1000
0100
,
1000
0001
0010
0100
1000
0010
1000
0010
0100
0010
0100
1000
0100
1000
0100
0010
,
1100
0010
0001
0010
1100
0010
0001
0010
1100
0010
0001
0010
1100
0010
0001
0010
,
0100
0001
0100
0001
0010
0100
1000
0100
0010
0001
0100
0001
0100
1000
0100
0010
,
0001
0010
0001
0010
0100
0010
0100
1000
0010
0100
1000
0100
0010
1000
0010
1000
,
0100
0010
0001
0000
0010
0000
0001
0000
0100
0000
0001
0000
0100
0000
0001
0000
0010
0100
1000
0000
0010
0000
0100
0000
0010
0000
1000
0000
0010
0000
0100
0000
,
0010
0001
0010
0100
1000
0010
1000
0010
0100
0001
0100
0001
0010
0100
0010
0100
,
1000
0100
0010
0001
0010
0100
1000
0100
0010
0100
0010
0001
0010
0100
1000
0001
,
0010
0100
0010
0100
1000
0100
0010
0100
1000
0010
0100
1000
0101
0000
0011
0000
,
2020
3030
0000
0000
0000
0000
0000
0000
0000
0000
0000
0000
0000
0000
0000
0000
0000
0000
0000
0000
0000
0000
0000
0000
0000
0000
0000
0000
0000
0000
0000
0000
0220
0330
0000
0000
0000
0000
0000
0000
0000
0000
0000
0000
0000
0000
0000
0000
0000
0000
0000
0000
0000
0000
0000
0000
0000
0000
0000
0000
0000
0000
0000
0000
,
0202
0303
0000
0000
0000
0000
0000
0000
0000
0000
0000
0000
0000
0000
0000
0000
0000
0000
0000
0000
0000
0000
0000
0000
0000
0000
0000
0000
0000
0000
0000
0000
0022
0033
0000
0000
0000
0000
0000
0000
0000
0000
0000
0000
0000
0000
0000
0000
0000
0000
0000
0000
0000
0000
0000
0000
0000
0000
0000
0000
0000
0000
0000
0000
,
2020
3030
0000
0000
0000
0000
0000
0000
0000
0000
0000
0000
0000
0000
0000
0000
0000
0000
0000
0000
0000
0000
0000
0000
0000
0000
0000
0000
0000
0000
0000
0000
2200
3300
0000
0000
0000
0000
0000
0000
0000
0000
0000
0000
0000
0000
0000
0000
0000
0000
0000
0000
0000
0000
0000
0000
0000
0000
0000
0000
0000
0000
0000
0000
,
0220
0000
0000
0000
0000
0000
0000
0000
0000
0000
0000
0000
0000
0000
0000
0000
0000
0000
0000
0000
0000
0000
0000
0000
0000
0000
0000
0000
0000
0000
0000
0030
0001
0000
0000
0000
0000
0000
0000
0000
0000
0000
0000
0000
0000
0000
0000
0000
0010
0000
0000
0000
0000
0000
0000
0000
1000
0000
0000
0000
0300
0000
0000
0000
,
0022
0033
0000
0000
0000
0000
0000
0000
0000
0000
0000
0000
0000
0000
0000
0000
0000
0000
0000
0000
0000
0000
0000
0000
0000
0000
0000
0000
0000
0000
0000
0000
2020
3030
0000
0000
0000
0000
0000
0000
0000
0000
0000
0000
0000
0000
0000
0000
0000
0000
0000
0000
0000
0000
0000
0000
0000
0000
0000
0000
0000
0000
0000
0000
,
2200
3300
0000
0000
0000
0000
0000
0000
0000
0000
0000
0000
0000
0000
0000
0000
0000
0000
0000
0000
0000
0000
0000
0000
0000
0000
0000
0000
0000
0000
0000
0000
0220
0330
0000
0000
0000
0000
0000
0000
0000
0000
0000
0000
0000
0000
0000
0000
0000
0000
0000
0000
0000
0000
0000
0000
0000
0000
0000
0000
0000
0000
0000
0000
,
0022
0033
0000
0000
0000
0000
0000
0000
0000
0000
0000
0000
0000
0000
0000
0000
0000
0000
0000
0000
0000
0000
0000
0000
0000
0000
0000
0000
0000
0000
0000
0000
0220
0330
0000
0000
0000
0000
0000
0000
0000
0000
0000
0000
0000
0000
0000
0000
0000
0000
0000
0000
0000
0000
0000
0000
0000
0000
0000
0000
0000
0000
0000
0000
,
2020
0000
0000
0000
0000
0000
0000
0000
0000
0000
0000
0000
0000
0000
0000
0000
0000
0000
0000
0000
0000
0000
0000
0000
0000
0000
0000
0000
0000
0000
0000
0000
0000
0000
0000
0000
0000
0000
0000
0000
0000
0000
0000
0000
0000
0000
0000
0000
0000
0000
0000
0000
0000
0000
0000
0000
0000
0000
0000
0000
0000
0000
0000
0030
,
0002
0000
0000
0000
0000
0000
0000
0000
0000
0000
0000
0000
0000
0000
0000
0000
0000
0000
0000
0000
0000
0000
0000
0000
0000
0000
0000
0000
0000
0000
0000
0000
0000
0000
0000
0000
0000
0000
0000
0000
0000
0000
0000
0000
0000
0000
0000
3003
0001
0000
0000
0000
0000
0000
0000
0000
0100
0000
0000
0000
0000
0000
0000
0000
,
0010
0100
1000
0100
0010
1000
0010
1000
0100
0010
0001
0010
0100
0001
0010
0100
,
0010
0001
0100
0010
0100
1000
0010
0100
1000
0100
0010
0100
1000
0010
0100
0010
,
1001
0010
0100
0010
1001
0100
0010
0100
1001
0010
0100
0010
1001
0100
0010
0100
,
0001
0010
0100
1000
0100
0010
0001
0010
0100
1000
0100
0010
0001
0010
0100
0010
,
0001
0100
0001
0100
0010
0100
1000
0100
0010
1000
0010
1000
0100
0010
0100
1000
,
0010
0100
1000
0000
0100
0000
0010
0000
0100
0000
0001
0000
0100
0000
0001
0000
0010
0100
1000
0000
0100
0000
0010
0000
0100
0000
0010
0000
0001
0000
0010
0000
,
0100
1000
0010
0100
1000
0100
0010
0001
0010
0100
0010
0100
0001
1000
0001
1000
,
0012
0000
0000
0000
1000
0000
0000
0000
1000
0000
0000
0000
1000
0000
0000
0003
,
0120
0000
0000
0000
0100
0000
0000
0000
0100
0000
0000
0000
0100
0000
0000
0030
,
1100
0010
0001
0000
0100
0000
0000
0000
1000
0000
0100
0000
0010
0000
0100
0000
1000
0000
0010
0000
1000
0000
0010
0000
0100
0000
0010
0000
0001
0000
0010
0000
,
0100
0010
0100
0010
0001
0010
0100
0010
0001
1000
0001
1000
0010
0100
1000
0100
,
0020
0001
0100
1000
0100
0031
2000
0100
0010
0001
0010
3100
0011
1000
0100
1000
,
0020
0100
1000
0100
1000
0130
2000
0100
0010
0001
0010
0100
0010
0001
3010
0100
,
1000
0100
0010
0001
0100
0010
0001
0010
0100
1000
0010
1000
0010
0100
0010
0001
,
0010
0100
1000
0010
1000
0010
0100
0010
0001
0010
0100
0010
0100
0001
0100
0001
,
0020
0001
0100
1000
0100
0031
0200
1000
0010
0001
0010
1300
0011
0100
1000
0100
,
0002
0010
0100
1000
0100
1003
0020
0100
1000
0100
0001
0100
1000
0100
0031
0010
,
1001
0100
0000
0010
0000
0100
0010
0100
,
1001
1010
0000
0100
0000
0010
0100
1000
,
0202
0000
0000
0000
0000
0303
0020
0000
0000
0000
0001
0030
1100
0000
0000
0000
,
2020
0000
0000
0000
0000
3030
0200
0000
0020
0000
0000
0000
0000
0000
0330
0000
,
1100
0010
0000
0100
0000
0001
0100
0001
,
1010
0101
0000
0010
0000
1000
0100
0010
,
2200
0000
0000
0000
0000
3300
0200
0000
0000
0000
1000
0300
0011
0000
0000
0000
,
2020
0000
0000
0000
0000
0000
0000
0000
0000
0000
3030
0000
0002
0000
0000
0000
0000
0000
0000
0000
0000
0000
0000
0000
0010
0100
0000
0000
0003
0000
0000
0000
,
2200
0000
0000
0000
0000
0000
0000
0000
0000
0000
3300
0000
0200
0000
0000
0000
0000
0000
0000
0000
0000
0000
0000
0000
0010
0001
0000
0000
0300
0000
0000
0000
,
1001
0000
0000
0000
;

//---------------dance-single - ----------------
#NOTES:
     dance-single:
     :
     Medium:
     9:
     0.959,1.000,1.000,0.623,0.291,1230.000,363.000,163.000,0.000,0.000:
1100
0000
0000
0000
,
0101
0010
0000
0000
0000
0000
0000
0000
,
2002
0000
0000
0000
0000
3003
0020
0000
0000
0000
0000
0030
0110
0000
0000
0000
,
2020
0000
0000
0000
0000
3030
0200
0000
0000
0000
0000
0000
0000
0000
0300
0000
,
1001
0000
0000
0000
0000
0000
0000
0100
,
1010
0001
0000
0000
0000
0000
0000
0000
,
2020
0000
0000
0000
0000
3030
0200
0000
0000
0000
0000
0300
0011
0000
0000
0000
,
2200
0000
0000
0000
0000
3300
0012
0000
0100
0000
0000
0000
0010
0000
0103
0000
,
1010
0100
0011
0010
0101
0100
1010
0010
,
0101
0100
1001
0010
0011
0100
1010
0100
,
0012
0000
0100
0000
1000
0003
0120
0000
0001
0000
1000
0030
0101
0000
0010
0000
,
2100
0000
0010
0000
0001
3000
0210
0000
0001
0000
0000
0000
0001
0000
0300
0000
,
1010
0100
0101
0010
0110
0100
1100
0010
,
0101
1000
0011
0100
1001
0010
0101
1000
,
0210
0000
0001
0000
1000
0300
0021
0000
0100
0000
1000
0030
0101
0000
0010
0000
,
1200
0000
0010
0000
1000
0300
0012
0000
0100
0000
0000
0000
1000
0000
1003
0000
,
0010
0100
0010
0100
0010
0000
0100
0010
0100
0010
0100
0000
0010
0100
0010
0100
,
0010
0000
0000
0000
1010
0000
0000
0000
0101
0000
0000
0000
0010
1000
0010
1000
,
0010
0000
1000
0010
1000
0010
1000
0000
0010
1000
0010
1000
0010
0000
0000
0000
,
0012
0000
0000
0103
1020
0000
0001
0030
,
0001
0100
0001
0100
0001
0000
0100
0001
0100
0001
0100
0000
0001
0100
0001
0100
,
0001
0000
0000
0000
0101
0000
0000
0000
0110
0000
0000
0000
0001
1000
0001
1000
,
0001
0000
1000
0001
1000
0001
1000
0000
0001
1000
0001
1000
0001
0000
0000
0000
,
1200
0000
0000
0000
0000
0300
2010
0000
0000
0000
0000
3000
0120
0000
0000
0030
,
1002
0000
0000
0000
0000
0000
1000
0003
0120
0000
0000
0000
0100
0000
0000
0030
,
2002
0000
0000
0000
0000
0000
0000
3003
,
1010
0100
0001
0110
,
1000
0000
0000
0000
0100
0000
0000
0000
2100
0000
0010
0000
0001
0000
0000
3000
,
0012
0000
0100
0000
1000
0000
0000
0003
0210
0000
0000
0000
0001
0000
0000
0000
,
0000
0001
0310
0000
1010
0000
0010
0000
,
0100
1001
0010
0001
,
1020
0000
0000
0000
0100
0000
0000
0030
0201
0000
0000
0000
0001
0000
0000
0300
,
0120
0000
1000
0130
,
1010
1010
1010
1010
,
2100
0000
0001
0000
0010
0000
0000
3000
0201
0000
0010
0000
1000
0000
0000
0300
,
0021
0100
0001
0000
0000
0000
0030
0000
,
1001
1001
1001
1001
,
0102
0000
0000
0000
1000
0000
0000
0003
0120
0000
0000
0000
0001
0000
0000
0030
,
2010
0000
0000
0000
0010
0000
0010
0000
0010
0000
3010
0000
0001
0010
0100
0000
,
1010
0100
0101
0010
1100
0001
0110
0100
,
1010
0010
1001
0010
0110
0010
1100
0100
,
0001
0010
0001
0000
0010
0100
0010
0000
0100
1000
0100
0000
0001
0010
0100
1000
,
0102
0000
0000
0103
1010
0000
1001
0100
,
0110
0001
1010
0100
0011
0100
1010
0100
,
0011
0100
0000
0100
0011
0000
0010
0000
1100
0000
0100
0000
1010
0000
0100
0000
,
0011
0100
1010
0010
0101
0010
0110
0100
,
2001
0000
0010
0000
0100
0000
0010
0000
0001
0000
0010
0000
0100
0000
0010
3000
,
0201
0000
0000
0000
0001
0000
0000
0000
0001
0000
0000
0000
0001
0000
0000
0300
,
1001
0010
1000
0010
1000
0000
0010
1000
0010
1000
0010
0000
1000
0010
1000
0010
,
1000
0000
0000
0000
0101
0000
0000
0000
1010
0000
0000
0000
0001
0100
0001
0100
,
0001
0000
0100
0001
0100
0001
0100
0000
0001
0100
0001
0100
0001
0000
0000
0000
,
2010
0000
0000
3001
0210
0000
0010
0300
,
1000
0010
1000
0010
1000
0000
0010
1000
0010
1000
0010
0000
1000
0010
1000
0010
,
1000
0000
0000
0000
0110
0000
0000
0000
0101
0000
0000
0000
0010
0100
0010
0100
,
0010
0000
0100
0010
0100
0010
0100
0000
0010
0100
0010
0100
0010
0000
0000
0000
,
1020
0000
0000
0000
0000
0030
0201
0000
0000
0000
0000
0300
0021
0000
0000
0030
,
2100
0000
0000
0000
0000
0000
0001
3000
0210
0000
0000
0000
0010
0000
0000
0300
,
2002
0000
0000
0000
0000
0000
0000
3003
,
1010
0000
0100
0010
0001
0000
0110
0000
,
0001
0010
0100
0000
0010
0000
0000
0000
2010
0000
0100
0000
0010
0000
0000
3000
,
0102
0000
0000
0000
1000
0000
0000
0003
0210
0000
0001
0000
0001
0000
0000
0000
,
0010
0000
0010
0000
0310
0000
0000
0000
0101
0000
0000
0000
1000
0100
0001
0000
,
0010
0000
1010
0000
1100
0100
0101
0000
,
2010
0000
0000
0000
0010
0000
0000
3000
0102
0000
0000
0000
1000
0000
0000
0003
,
0120
0000
0000
0000
0000
0000
0100
0000
0000
0000
0000
0000
1000
0100
0000
0000
0000
0000
1030
0100
0000
0000
0000
0000
,
0110
0110
0110
0110
,
0021
0000
0100
0000
1000
0000
0000
0030
1200
0000
0010
0000
0001
0000
0000
0300
,
2001
0010
0000
3000
,
0101
0101
0101
0101
,
2010
0000
0001
0000
0010
0000
0000
3000
0201
0000
0010
0000
0001
0000
0000
0300
,
1002
0000
0000
0000
0010
0000
0100
0000
1000
0000
0100
0003
1000
0100
0001
0000
,
1010
0100
1100
0010
0101
0010
1001
0100
,
0110
0001
1010
0100
1001
0100
0110
0001
,
1000
0100
0010
0000
0001
0010
0100
0000
1000
0100
0010
0000
0001
0010
0100
0000
,
1000
0100
1000
0100
1000
0000
0100
0000
1010
0000
0000
0000
0101
0000
0010
0000
,
1100
0010
1001
0100
0110
0001
1010
0100
,
0011
0100
0000
0100
1010
0000
0001
0010
1100
0000
0001
0000
1100
0000
0010
0000
,
0101
0010
1100
0100
1001
0010
1100
0100
,
1002
0000
0010
0000
0100
0000
1000
0000
0010
0000
1000
0000
0010
0000
0100
0003
,
1020
0100
0001
1000
0100
0001
0100
0031
,
1100
0010
0001
0000
0000
0000
0010
0000
0000
0000
0100
0000
1000
0000
0010
0000
,
1100
0001
0000
0010
0000
0100
1000
0010
,
2200
0000
0000
0000
0000
3300
0020
0000
0000
0000
0000
0030
1001
0000
0000
0000
,
0220
0000
0000
0000
0000
0330
2000
0000
0000
0000
0000
0000
0000
0000
3000
0000
,
1010
0100
0000
0010
0000
0100
0010
0100
,
1001
0110
0000
0100
0000
0010
0100
0010
,
2200
0000
0000
0000
0000
3300
0020
0000
0000
0000
0000
0030
0101
0000
0000
0000
,
2020
0000
0000
0000
0000
0000
0000
0000
0000
0000
0000
0000
0000
0000
0000
3000
1000
0000
0000
0000
0030
0000
0000
0000
0002
0000
0000
0000
0000
0000
0000
0000
0000
0000
0000
0000
0000
0000
0000
0000
0100
0000
0000
0000
0000
0000
0000
0000
0010
0000
0000
0000
0000
0000
0000
0000
0103
0000
0000
0000
0000
0000
0000
0000
,
1001
0010
1100
0100
0011
1000
0101
0010
,
1001
0100
1010
0010
0101
1000
0011
0100
,
2010
0000
0001
0000
0010
3000
0200
0000
0010
0000
0001
0300
1010
0000
0100
0000
,
1002
0000
0010
0000
0100
0003
0020
0000
1000
0000
0100
0000
1000
0000
0130
0000
,
1010
0100
0011
1000
0101
0010
1001
0100
,
0110
0001
1010
0100
1001
0010
0101
1000
,
0201
0000
0010
0000
0001
0300
2000
0000
0100
0000
0010
3000
0011
0000
0100
0000
,
1020
0000
0100
0000
0001
0030
0200
0000
0001
0000
0010
0000
0001
0000
0310
0000
,
1000
0100
0010
0000
0001
0010
0100
0000
1000
0000
0001
0000
1000
0000
0001
0000
,
0010
0100
0010
0000
1000
0001
1000
0000
0010
0000
0010
0000
0100
0000
0100
0000
,
0001
0011
0100
0110
0001
0101
0010
0110
,
1000
1010
0100
0110
0001
0011
0100
0110
,
0001
0101
1000
1010
0100
0101
0010
0110
,
0001
0011
0100
1100
0010
0011
0100
0110
,
2000
0000
0000
0000
0010
0000
0001
3000
2000
0000
0000
0000
0001
0000
0010
3000
,
0100
0000
0010
0000
0100
0000
0010
0000
0200
0000
0000
0000
0001
0000
0010
0300
,
1000
0000
0100
0000
0010
0000
0001
0000
0020
0000
0000
0000
0001
0000
0100
0030
,
1000
0100
1000
0100
0002
0000
0010
0100
,
1000
0000
0100
0000
0010
0100
1000
0003
0100
0010
0100
0000
1000
0001
1000
0000
,
0100
0001
0100
0000
0010
0001
0010
0000
1000
0100
1000
0000
0100
0010
0100
0000
,
0001
0000
0000
0100
0000
0000
0001
0000
0000
0000
0000
0000
0010
0000
0000
1000
0000
0000
0010
0000
0000
0000
0000
0000
1000
0000
0000
0000
0100
0000
0000
0000
0010
0000
0000
0000
0001
0000
0000
0000
0010
0000
0000
0000
0100
0000
0000
0000
,
0001
0010
0100
1000
0100
0010
1000
0100
0010
0001
0010
0100
,
1000
0000
0100
0000
0010
0000
0000
0000
0001
0000
0000
0000
0010
0000
0000
0000
0100
0000
0000
0000
1000
0000
0000
0000
0001
0000
0000
0010
0000
0000
0001
0000
0000
0000
0000
0000
0100
0000
0000
0010
0000
0000
0100
0000
0000
0000
0000
0000
,
1000
0001
1000
0000
0010
0100
0010
0000
0100
0010
0100
0000
0001
1000
0001
0000
,
0010
1000
0010
0000
0001
0010
0100
0000
0101
0000
0100
0000
0101
0000
0100
0000
,
0101
0001
0101
0001
0101
0101
0101
0101
,
0101
0101
0101
0101
0110
0110
0110
0110
,
0110
0000
0110
0000
0110
0000
0110
0000
1000
0100
0001
0000
0001
0010
1000
0000
,
0100
0000
0100
0000
0001
0000
0001
0000
0010
0100
1000
0000
0100
0010
0001
0000
,
0100
0100
0100
0100
0010
1010
0100
0011
,
0010
1001
0010
0101
0010
0110
0001
1010
,
0100
1001
0010
1100
0100
0011
0100
1010
,
0001
0110
0010
0101
0100
1001
0010
1100
,
0010
0000
0011
0000
0100
0000
1010
0000
0200
0000
0000
0000
0001
0000
0001
0300
,
0200
0000
0000
0000
0010
0000
0010
0300
0010
0000
0100
0000
0010
0000
0001
0000
,
0020
0000
0000
0000
1000
0000
1000
0030
0100
0000
0010
0000
0001
0000
0010
0000
,
2000
0000
0000
0000
0100
0000
0010
3000
0001
0000
0100
0000
0010
0000
0100
0000
,
0002
0000
0000
0000
0000
0000
0000
0000
0000
0000
0000
0000
1000
0000
0000
0000
0000
0000
0100
0000
0000
0000
0000
0000
0010
0000
0000
0000
0100
0000
0000
0000
1000
0000
0000
0000
0100
0000
0000
0000
0010
0000
0000
0000
0100
0003
0000
0000
,
1001
0000
0010
0100
1000
0000
0101
0000
,
0100
0000
0010
0000
0100
0000
0000
0000
2010
0000
0010
0000
0010
0000
0000
3000
,
0210
0000
0010
0000
0010
0000
0000
0300
1002
0000
0100
0000
0010
0000
0000
0000
,
1000
0100
0013
0100
1010
0000
0100
0000
,
0010
0011
0100
1000
,
1020
0000
0000
0000
0100
0000
0000
0030
0201
0000
0000
0000
0010
0000
0000
0300
,
2001
0000
0000
0000
0000
0000
0000
0000
0000
0000
0000
0000
0000
0000
0000
0000
0100
0010
0000
0000
0000
0000
0000
0000
3100
0010
0000
0000
0000
0000
0000
0000
,
1001
1001
1001
1001
,
0102
0000
0000
0000
0100
0000
0000
0003
1020
0000
0000
0000
0001
0000
0000
0030
,
1200
0000
0000
0000
0001
0010
0301
0010
,
0101
0101
0101
0101
,
1200
0000
0000
0000
1000
0000
0000
0300
0021
0000
0000
0000
0001
0000
0000
0030
,
0220
0000
0000
0000
0000
0000
0000
0000
0000
0000
0000
0000
0000
0000
0000
0000
0000
0000
0000
0000
0000
0000
0000
0000
0000
0000
0000
0000
0000
0000
0000
0000
0000
0000
0000
0000
0000
0000
0000
0000
0000
0000
0000
0000
0000
0000
0000
0330
1000
0000
0000
0000
0000
0000
0000
0000
0100
0000
0000
0000
0000
0000
0000
0000
,
1010
0100
0110
0010
0101
1000
0110
0001
,
1010
0100
1001
0010
1100
0100
0011
0100
,
1000
0100
0010
0000
0001
0010
0100
0000
1000
0100
0010
0000
0001
0010
0100
0000
,
1000
0001
1000
0001
1000
0000
0010
0000
0101
0000
0000
0000
0100
0000
0100
0000
,
1001
0010
0101
0100
1010
0100
0011
0100
,
1010
0001
0000
0001
1010
0000
0100
0000
0010
0100
1000
0000
0110
0000
0010
0000
,
1100
0010
1001
0100
1010
0010
0101
0010
,
0100
0010
0100
0010
0100
0010
0100
0010
0100
0010
0100
0010
0100
0010
0100
0010
,
1000
0010
1000
0010
1000
0010
1000
0010
1000
0010
1000
0000
0001
0000
0100
0000
,
2020
3030
0000
0000
0000
0000
0000
0000
0000
0000
0000
0000
0000
0000
0000
0000
0000
0000
0000
0000
0000
0000
0000
0000
0000
0000
0000
0000
0000
0000
0000
0000
0220
0330
0000
0000
0000
0000
0000
0000
0000
0000
0000
0000
0000
0000
0000
0000
0000
0000
0000
0000
0000
0000
0000
0000
0000
0000
0000
0000
0000
0000
0000
0000
,
0202
0303
0000
0000
0000
0000
0000
0000
0000
0000
0000
0000
0000
0000
0000
0000
0000
0000
0000
0000
0000
0000
0000
0000
0000
0000
0000
0000
0000
0000
0000
0000
0022
0033
0000
0000
0000
0000
0000
0000
0000
0000
0000
0000
0000
0000
0000
0000
0000
0000
0000
0000
0000
0000
0000
0000
0000
0000
0000
0000
0000
0000
0000
0000
,
2020
3030
0000
0000
0000
0000
0000
0000
0000
0000
0000
0000
0000
0000
0000
0000
0000
0000
0000
0000
0000
0000
0000
0000
0000
0000
0000
0000
0000
0000
0000
0000
2200
3300
0000
0000
0000
0000
0000
0000
0000
0000
0000
0000
0000
0000
0000
0000
0000
0000
0000
0000
0000
0000
0000
0000
0000
0000
0000
0000
0000
0000
0000
0000
,
0220
0000
0000
0000
0000
0000
0000
0000
0000
0000
0000
0000
0000
0000
0000
0000
0000
0000
0000
0000
0000
0000
0000
0000
0000
0000
0000
0000
0000
0000
0000
0030
0001
0000
0000
0000
0000
0000
0000
0000
0000
0000
0000
0000
0000
0000
0000
0000
0010
0000
0000
0000
0000
0000
0000
0000
1000
0000
0000
0000
0300
0000
0000
0000
,
0022
0033
0000
0000
0000
0000
0000
0000
0000
0000
0000
0000
0000
0000
0000
0000
0000
0000
0000
0000
0000
0000
0000
0000
0000
0000
0000
0000
0000
0000
0000
0000
2020
3030
0000
0000
0000
0000
0000
0000
0000
0000
0000
0000
0000
0000
0000
0000
0000
0000
0000
0000
0000
0000
0000
0000
0000
0000
0000
0000
0000
0000
0000
0000
,
2200
3300
0000
0000
0000
0000
0000
0000
0000
0000
0000
0000
0000
0000
0000
0000
0000
0000
0000
0000
0000
0000
0000
0000
0000
0000
0000
0000
0000
0000
0000
0000
0220
0330
0000
0000
0000
0000
0000
0000
0000
0000
0000
0000
0000
0000
0000
0000
0000
0000
0000
0000
0000
0000
0000
0000
0000
0000
0000
0000
0000
0000
0000
0000
,
0022
0033
0000
0000
0000
0000
0000
0000
0000
0000
0000
0000
0000
0000
0000
0000
0000
0000
0000
0000
0000
0000
0000
0000
0000
0000
0000
0000
0000
0000
0000
0000
0220
0330
0000
0000
0000
0000
0000
0000
0000
0000
0000
0000
0000
0000
0000
0000
0000
0000
0000
0000
0000
0000
0000
0000
0000
0000
0000
0000
0000
0000
0000
0000
,
2020
0000
0000
0000
0000
0000
0000
0000
0000
0000
0000
0000
0000
0000
0000
0000
0000
0000
0000
0000
0000
0000
0000
0000
0000
0000
0000
0000
0000
0000
0000
0000
0000
0000
0000
0000
0000
0000
0000
0000
0000
0000
0000
0000
0000
0000
0000
0000
0000
0000
0000
0000
0000
0000
0000
0000
0000
0000
0000
0000
0000
0000
0000
0030
,
0002
0000
0000
0000
0000
0000
0000
0000
0000
0000
0000
0000
0000
0000
0000
0000
0000
0000
0000
0000
0000
0000
0000
0000
0000
0000
0000
0000
0000
0000
0000
0000
0000
0000
0000
0000
0000
0000
0000
0000
0000
0000
0000
0000
0000
0000
0000
3003
0001
0000
0000
0000
0000
0000
0000
0000
0100
0000
0000
0000
0000
0000
0000
0000
,
1010
0100
0011
0010
0101
0010
1001
0100
,
1010
0010
1100
0010
0101
0010
1100
0010
,
0100
0010
0001
0000
0010
0100
1000
0000
0100
0010
0001
0000
0010
0100
1000
0000
,
0001
0010
0100
1000
0100
0000
0010
0000
0101
0000
0000
0000
0001
0000
0100
0000
,
1001
0010
0101
1000
0110
0010
0101
1000
,
0010
1000
0010
1000
0010
0000
0010
0000
0101
0000
0000
0000
1010
0000
0001
0000
,
1100
0010
0101
0100
1010
0010
0101
0010
,
1002
0000
0000
0000
1000
0000
0000
0000
1000
0000
0000
0000
1000
0000
0000
0003
,
0120
0000
0000
0000
0100
0000
0000
0000
0100
0000
0000
0000
0100
0000
0000
0030
,
1100
0010
0001
0000
1010
0000
0100
0000
0110
0000
0010
0000
0101
0000
0010
0000
,
1001
0100
0011
0010
0101
0100
1010
0100
,
0021
0000
0100
0000
0001
0030
2000
0000
0100
0000
0010
3000
0101
0000
1000
0000
,
0021
0000
0100
0000
0001
0030
2000
0000
0100
0000
0001
0000
0010
0000
3100
0000
,
1010
0100
0011
0010
0101
0010
1100
0100
,
0011
0010
1100
0010
1001
0100
1010
0100
,
0021
0000
0100
0000
1000
0030
0200
0000
0001
0000
0010
0300
1001
0000
0100
0000
,
1010
0000
0100
0000
0011
0000
0010
0000
1100
0000
0100
0000
1000
0100
0010
0001
,
1100
0010
0000
1000
0000
0100
0010
0100
,
1001
1010
0000
0100
0000
0010
0100
1000
,
0202
0000
0000
0000
0000
0303
0020
0000
0000
0000
0001
0030
1100
0000
0000
0000
,
2020
0000
0000
0000
0000
3030
0200
0000
0020
0000
0000
0000
0000
0000
0330
0000
,
1100
0010
0000
0100
0000
0001
0100
0001
,
1010
0101
0000
0010
0000
1000
0100
0010
,
2200
0000
0000
0000
0000
3300
0200
0000
0000
0000
1000
0300
0011
0000
0000
0000
,
2020
0000
0000
0000
0000
3030
0002
0000
0000
0000
0000
0000
0010
0000
0003
0000
,
2200
0000
0000
0000
0000
3300
0200
0000
0000
0000
0000
0000
0010
0000
0300
0000
,
1001
0000
0000
0000
;
