#TITLE:Eight;
#SUBTITLE:;
#ARTIST:Emotional Joystick;
#TITLETRANSLIT:;
#SUBTITLETRANSLIT:;
#ARTISTTRANSLIT:;
#CREDIT:;
#BANNER:Eight-banner.jpg;
#BACKGROUND:Eight-bg.jpg;
#LYRICSPATH:;
#CDTITLE:!cdtitle.jpg;
#MUSIC:Eight.mp3;
#OFFSET:-0.393;
#SAMPLESTART:52.309;
#SAMPLELENGTH:12.000;
#SELECTABLE:YES;
#BPMS:0.000=92.500,96.000=185.000,128.000=92.500,132.000=185.000,140.000=92.500,148.000=185.000,244.000=92.500,248.000=185.000,272.000=92.500,288.000=185.000,368.000=92.500,370.000=185.000,382.000=92.499;
#STOPS:;
#BGCHANGES:;
// cache tags:
#FIRSTBEAT:16.000;
#LASTBEAT:429.500;
#SONGFILENAME:Songs/Keyboard Collaboration I/DanTheMan - Eight/Eight.sm;
#HASMUSIC:1;
#HASBANNER:1;
#MUSICLENGTH:199.862;
// end cache tags

//---------------dance-single - ----------------
#NOTES:
     dance-single:
     :
     Hard:
     12:
     0.955,1.000,1.000,0.300,0.731,1073.000,203.000,60.000,0.000,0.000:
0000
0000
0000
0000
,
0000
0000
0000
0000
,
0000
0000
0000
0000
,
0000
0000
0000
0000
,
1000
0100
0010
0001
0010
0001
1010
0101
,
0010
0100
1000
0100
1000
0100
0011
1100
,
0010
0100
0010
0100
0010
0101
0010
1100
,
0011
0100
1000
0101
0010
1001
0110
1001
,
0102
0000
1000
0000
0100
0000
0010
0000
1000
0003
0110
0000
1100
0000
0110
0000
,
2001
0000
0001
0000
3010
0000
2001
0000
0100
3000
0120
0000
1000
0030
1100
0000
,
0102
0000
0010
0000
0100
0000
1000
0003
2000
0000
0010
3200
0001
0000
0320
0030
,
1002
0000
0010
0000
0100
0000
1000
0003
1200
0000
0010
0300
1020
0000
0100
0030
,
2100
0000
0010
0000
0001
0000
0010
0000
0100
3000
0110
0000
0011
0000
0110
0000
,
1200
0000
1000
0000
0010
0300
0012
0000
1000
0003
0120
0000
0100
0030
1001
0000
,
2100
0001
0010
0100
3001
1010
0101
1010
,
0102
0000
0010
0000
0100
0003
2010
0000
0001
3000
0120
0000
1000
0030
2002
3003
,
0200
0010
0001
0010
0001
0320
0032
0023
,
2030
0100
0001
3020
0100
1000
0032
1000
,
0203
0010
0001
0010
0001
2300
3200
0320
,
0032
0010
0100
2003
0100
0010
3200
0310
,
1010
0000
0000
0000
0100
0000
0010
0000
1001
0000
0000
0000
0100
0000
1000
0100
0010
0000
0100
0000
1000
0000
0010
0000
1001
0000
0000
0000
0110
0000
0000
0000
,
0011
0000
0000
0000
0010
0000
0100
0000
1010
0000
0000
0000
0100
0000
0010
0001
0010
0000
0100
0000
1000
0000
0100
0000
0011
0000
0000
0000
0110
0000
0000
0000
,
1010
0000
0000
0000
0100
0000
0001
0000
1010
0000
0000
0000
0100
0000
0010
1000
0010
0000
0100
0000
1000
0000
0100
0000
1001
0000
0000
0000
0110
0000
0000
0000
,
1001
0000
0100
1000
0011
0000
2000
0000
3200
0000
0320
0000
0032
0000
2003
0000
,
3001
0000
0000
0010
0001
0000
0000
0010
1000
0000
0000
0010
0100
0010
0100
0010
,
0100
0000
0010
0000
0001
0000
1000
0000
0100
0000
0010
0000
0000
1000
0100
1000
,
0100
0000
0010
0001
0010
0000
0000
0100
1000
0010
0100
0010
1000
0010
0000
0000
,
1000
0000
0100
0000
0010
0000
0001
0000
0010
0000
0100
0000
0001
1000
0001
1000
,
0001
0000
0000
1000
0100
0000
0000
0010
0001
0000
0000
1000
0010
0100
0001
1000
,
0001
0000
0010
0000
0100
0000
1000
0000
0100
0000
0010
0000
0001
0010
0100
1000
,
0100
0000
0010
1000
0010
0000
0000
0100
0010
1000
0001
0100
0010
0000
0000
0000
,
1000
0000
0100
0000
1000
0000
0010
0000
1000
0000
0001
0000
1000
0100
1000
0010
,
1000
0000
0000
0000
0100
0000
0010
0000
1001
0000
0000
0000
0010
0000
1000
0100
1000
0000
0100
0000
0010
0000
0001
0000
0110
0000
0000
0000
1001
0000
0000
0000
,
0010
0000
0000
1000
0100
0000
0000
0010
0001
0010
0001
0010
0001
0000
0000
0000
,
0001
0000
0000
0000
0010
0000
0000
0000
0100
0000
0000
0000
1000
0100
0000
0010
,
0001
0000
0000
0000
0010
0000
0100
0000
1001
0000
0000
0000
0100
0000
0010
0100
0010
0000
1000
0000
0100
0000
1000
0000
0100
0000
0010
0000
0001
0010
0100
1000
,
0100
0000
0010
0001
0010
0000
0000
1000
0100
0000
0010
0100
0010
0000
0000
0000
2002
0000
0000
0000
0000
0000
0000
0000
0000
0000
0000
0000
0000
0000
3003
0000
,
0100
0000
0100
0000
0011
0000
0100
0010
0100
0000
1010
0000
0100
0010
0100
0010
,
1000
0000
0100
0010
0100
0010
0100
0000
1010
0000
0100
0000
1001
0000
1000
0100
,
0010
0000
0001
0000
1010
0000
1010
0000
1010
0000
0100
0001
0100
0001
0010
0000
,
1100
0000
0001
1000
0001
1000
0010
0100
0001
0100
0001
0000
1000
0100
0010
0100
,
0010
0000
1000
0000
0101
0000
1000
0010
1000
0100
0010
0000
0001
1000
0001
1000
,
0001
0000
0110
0000
0110
0000
0001
0000
0010
1000
0100
0010
0100
0010
0100
0010
,
0100
0000
1000
0000
0101
0000
0010
1000
0010
0100
0001
0000
1010
0000
1000
0100
,
0010
0000
0000
0000
0000
0000
0001
0000
0010
0000
0100
0000
1000
0000
0000
0100
0000
0000
0010
0000
0000
0001
0000
0000
0010
0000
0000
0000
0000
0000
1001
0000
0000
0000
0000
0000
1000
0000
0000
0001
0000
0000
1000
0000
0000
0001
0000
0000
,
1000
0000
1000
0100
1000
0100
1000
0100
1000
0000
0001
0010
0100
0000
0100
0000
,
1000
0000
0000
0000
0000
0000
0100
0000
0000
0000
0000
0000
1010
0000
0000
0000
0000
0000
0100
0000
0000
1000
0000
0000
0100
0000
0000
0010
0000
0000
0001
0000
0000
0000
0000
0000
1000
0000
0100
0000
0010
0000
0001
0000
0010
0000
0001
0000
,
0010
0000
1000
0000
0110
0000
0110
0000
0110
0000
1000
0100
1000
0000
0001
0010
,
0100
0000
2000
3000
1000
0100
0010
0001
0010
0100
1000
0100
0010
0000
0001
1000
,
0100
0000
0010
0000
1001
0000
0010
0000
0100
0000
1001
0000
1000
0010
0100
0000
,
1001
0000
0100
0000
0001
0010
0001
0000
0010
0100
0010
0100
0010
1000
0000
1000
,
0100
0000
0010
0000
0101
0000
0010
1000
0100
0010
0001
0000
0110
0000
0110
0000
,
1100
0000
0000
0000
0000
0000
1000
0000
0000
0100
0000
0000
0010
0000
0000
0000
0001
0000
0000
0000
0010
0000
0000
0000
0100
0000
0000
0000
1000
0000
0000
0000
0100
0000
0000
0000
2000
0000
0000
0000
0000
0000
0000
0000
0000
3000
0000
0000
,
0101
0000
0000
1000
0010
0000
0100
0010
0100
0000
0000
0001
1000
0000
1000
0100
,
1000
0000
0100
0000
0011
0000
0100
0000
0001
0010
0001
0010
0100
1000
0100
0010
,
0001
0000
0010
1000
0100
0000
1000
0001
1000
0001
0100
0000
0010
1000
0001
1000
,
0010
0000
1100
0000
0010
0001
0010
0000
0010
0000
0100
0000
1000
0100
0010
0100
,
0010
0000
0001
0010
0001
0000
0000
0010
0001
0010
0001
0000
0100
0000
0010
0100
,
1000
0000
0100
0000
0011
0000
0011
0000
0010
0100
0010
0000
0011
0000
0200
0300
,
0001
0000
0001
0000
1010
0000
1000
0100
0010
0100
0010
0001
1000
0100
0010
0001
,
0010
0000
0100
0000
1001
0000
0010
1000
0100
0000
1001
0000
0010
1000
0100
0010
,
0001
0000
0000
1000
0100
0000
0001
0010
0001
0000
1000
0100
1000
0000
0001
0010
0001
0000
1010
0000
0101
0000
0110
0000
1010
0000
0101
0000
1000
0100
0010
0001
,
0010
0000
1000
0100
0010
0000
0001
0010
0001
0010
0100
0000
1010
0000
0000
1000
,
0100
0000
0010
0000
0001
0010
0001
0010
0100
0000
1001
0000
0010
0100
0001
0010
,
0100
0000
0000
0000
1000
0000
0000
0000
0100
0000
0000
0000
0010
0000
0000
0000
0100
0000
0000
0000
0010
0000
0000
0000
0001
0000
0000
0000
0000
0000
0000
0000
0000
0100
0000
0000
0010
0000
0000
0100
0000
0000
0020
0000
0000
0030
0000
0000
,
1100
0110
0011
0110
1100
0110
0011
0110
,
1100
0000
0000
0000
0000
0000
0000
0000
0000
1000
0000
0000
0100
0000
0000
0000
0000
0000
0000
0000
0000
0001
0000
0000
0010
0000
0000
0100
0000
0000
1000
0000
0000
0000
0000
0000
0110
0000
0000
0000
0000
0000
1000
0000
0100
0000
0010
0000
,
0001
0000
0100
0000
1001
0000
1001
0000
1000
0100
1000
0010
1000
0001
1000
0010
,
1000
0000
0000
0000
0100
0000
0010
0000
1001
0000
0000
0000
1000
0000
0100
0010
0001
0000
0010
0000
0100
0000
0010
0000
1001
0000
0000
0000
0220
0000
0330
0000
,
1010
0000
0000
0000
0001
0000
0010
0000
1100
0000
0000
0000
0010
0000
1000
0100
1000
0000
0100
0000
0010
0000
0001
0000
0110
0000
0000
0000
2002
0000
3003
0000
,
0110
0000
0000
0000
1000
0000
0001
0000
0110
0000
0000
0000
1000
0000
0001
0010
0001
0000
0010
0000
0100
0000
1000
0000
0110
0000
0000
0000
0202
0000
0303
0000
,
1010
0000
0100
1000
0100
0000
0020
0000
0032
0000
0023
0000
0230
0000
2300
0000
,
3001
0000
0010
0000
1001
0000
1000
0100
0010
0000
0101
0000
0010
0100
1000
0100
,
0010
0000
0001
1000
0001
1000
0100
0000
0011
0000
0100
0000
0011
0000
0000
0100
,
1000
0000
0100
0000
0011
0000
0011
0000
0011
0000
0010
1000
0100
1000
0100
0000
,
1000
0000
0100
0010
0001
0010
0001
0000
1010
0000
1010
0000
1000
0100
0010
0001
,
0010
0000
0100
0000
1010
0000
1000
0100
1000
0100
0010
0000
0001
1000
0001
1000
,
0100
0000
1010
0000
1010
0000
0100
0000
1000
0010
0100
0010
0100
0001
0100
0001
,
0010
0000
0001
0000
1010
0000
0100
0010
0100
0010
0001
0000
1010
0000
0001
0100
,
0010
0000
2000
0000
3001
0010
0001
0010
0100
0000
1001
0000
1001
0000
1001
0000
,
1001
0000
0000
1000
0100
0000
0001
0010
0001
0000
0000
1000
0100
1000
0100
0010
,
0001
0000
0010
0000
1001
0000
0010
0000
1000
0100
1000
0001
0010
0000
0001
0010
,
0100
0000
1000
0100
0010
0000
0001
0010
0100
1000
0100
0000
0010
0100
0001
1000
,
0100
0000
0011
0000
0100
0000
0100
0000
0100
0000
0010
0000
1000
0100
1000
0010
,
0100
0000
0000
0001
1000
0000
0000
0001
0010
0100
0010
0100
0010
0000
1000
0100
,
0010
0000
0001
0000
1010
0000
1010
0000
0100
0010
0100
0000
1001
0000
0020
0030
,
1000
0000
1000
0000
0110
0000
0001
0010
0100
0010
0100
1000
0001
0010
0100
1000
,
0001
0000
0010
0000
1001
0000
0100
0010
0100
0000
1001
0000
0010
1000
0100
0010
,
0001
0000
0001
0010
0001
0000
0010
0100
0010
0100
0001
0000
0110
0000
0001
0010
,
0100
0000
0100
0000
0011
0000
0010
0001
0010
0100
1000
0000
0010
0100
1000
0100
,
0010
0000
0010
0000
1001
0000
0100
0010
0001
0010
0100
0000
1001
0000
0000
0010
,
0100
0000
0100
0000
1001
0000
0010
1000
0100
0010
0100
0000
1000
0010
1000
0010
,
1000
0000
0000
0000
1000
0000
0100
0000
1010
0000
0000
0000
0100
0000
0010
0001
0010
0000
0000
0000
0010
0000
0000
0000
1001
0000
0000
0000
1000
0000
0100
0000
,
0010
0001
0010
0000
0001
0010
0001
0010
0100
0000
0100
0000
1001
0000
0010
1000
,
0010
0100
0001
0000
0001
1000
0001
1000
0002
0000
0000
0000
0000
0000
0000
0000
,
0000
0000
0000
0000
0000
0000
0000
0003
1000
0000
0100
0000
0010
0000
0001
0000
,
0010
1010
0101
0110
1001
0010
0100
1000
,
0100
0011
0110
1100
0110
0001
0010
0100
,
1000
0110
0001
0110
1001
0100
0010
0101
,
1000
0110
1001
0110
1100
0010
0001
1000
,
0010
0101
1010
0101
1010
0100
1000
0101
,
0010
0101
0010
1010
0110
0001
0010
0100
,
1010
0000
0100
1001
0010
0000
1100
0000
0110
0000
0001
0000
1000
0000
0010
0000
,
1001
0100
0011
0100
1010
0100
0010
0001
,
0010
1001
0110
0011
1100
0010
0001
1010
,
0100
1010
0100
0011
1100
0010
0001
0010
,
0100
1010
0110
1001
0110
1000
0100
0011
,
0100
1010
0100
1001
0000
0000
0000
0000
;
