#TITLE:Over the Fullereneshift;
#SUBTITLE:;
#ARTIST:DJ Sharpnel;
#TITLETRANSLIT:;
#SUBTITLETRANSLIT:;
#ARTISTTRANSLIT:;
#CREDIT:;
#BANNER:fullerene bn.png;
#BACKGROUND:fullerene bg.png;
#LYRICSPATH:;
#CDTITLE:;
#MUSIC:Over the Fullereneshift.ogg;
#OFFSET:0.006;
#SAMPLESTART:188.331;
#SAMPLELENGTH:18.831;
#SELECTABLE:YES;
#BPMS:0.000=203.900;
#STOPS:;
#BGCHANGES:;
// cache tags:
#FIRSTBEAT:0.000;
#LASTBEAT:904.000;
#SONGFILENAME:Songs/SHARPNELSTREAMZ v2/Over the Fullereneshift/Over the Fullereneshift.sm;
#HASMUSIC:1;
#HASBANNER:1;
#MUSICLENGTH:269.493;
// end cache tags

//---------------dance-single - 17- (Zaia)----------------
#NOTES:
     dance-single:
     17- (Zaia):
     Hard:
     17:
     1.000,1.000,0.215,0.208,1.000,2330.000,58.000,56.000,12.000,0.000:
0000
0000
0000
0000
,
0000
0000
0000
0000
,
0000
0000
0000
0000
,
0000
0000
0000
0000
,
0000
0000
0000
0000
,
0000
0000
0000
0000
,
0000
0000
0000
0000
,
0000
0000
0000
0000
,
1000
0010
0100
0010
1000
0001
0010
0100
,
1000
0001
0100
0010
0100
0001
1000
0100
,
0010
0100
1000
0010
0100
0010
1000
0001
,
0010
0100
1000
0001
0100
0010
0100
0001
,
0001
1000
0100
1000
0001
0100
0001
1000
,
0100
0010
0001
1000
0010
0100
0010
1000
,
0001
0010
0100
1000
0001
0100
M010
0100
,
0001
0000
1000
0000
0010
0000
1000
0000
0001
0000
0100
0010
1000
0000
0100
0010
,
0001
1000
0100
1000
0010
0100
0001
1000
,
0001
0010
0001
0100
0010
1000
0100
1000
,
0001
1000
001M
0100
0001
0100
0010
1000
,
0001
1000
0100
1000
MM02
0013
0001
0100
,
0100
0001
1000
0001
0010
0001
0100
0010
,
1000
0100
1000
0001
1000
0100
0010
0001
,
0010
0100
1000
0001
1000
0010
0100
0010
,
1000
0000
0001
0000
0010
0000
0100
0000
0010
0000
0001
0100
0010
0000
1000
0100
,
0010
0001
1000
0010
0100
0001
1000
0100
,
0010
0001
0100
0010
1000
0001
0010
0100
,
2000
0000
0000
0000
3010
0000
0000
0000
0100
0000
0000
0000
0001
0000
0000
0000
0010
M00M
0000
0000
0100
0000
0000
0000
0100
0000
0000
0000
0001
0000
0000
0000
,
0020
M03M
0000
0000
0100
0000
0000
0000
0100
0000
0000
0000
0001
0000
0000
0000
0020
M03M
0000
0000
0100
0000
0000
0000
0100
0000
0000
0000
0001
0000
0000
0000
,
0020
M03M
0000
0000
0100
0000
0000
0000
0000
0000
0000
0000
1000
0000
0000
0000
0000
0000
0000
0000
0001
0000
0000
0000
0000
0000
0000
0000
0100
0000
0000
0000
,
0000
0010
0000
1000
0000
0001
0000
0010
,
0000
0100
0000
1000
0000
0010
0000
0100
,
0000
0001
0000
0010
0000
0100
0000
1000
,
0010
1000
0100
1000
0001
0000
0010
0001
0100
0001
1000
0001
0100
0000
0010
1000
,
0100
1000
0001
1000
0100
0000
0010
0001
0100
0001
1000
0001
0100
0000
0010
1000
,
0100
1000
0001
1000
0100
0000
0010
0001
0100
0001
1000
0001
0100
0000
0010
1000
,
0100
1000
0001
1000
0100
0000
0010
0001
0100
0001
1000
0001
0100
0000
0010
1000
,
0100
0010
0001
1000
0001
0000
0100
0001
0010
0001
1000
0001
0010
0000
0100
1000
,
0010
1000
0001
1000
0010
0000
0100
0001
0010
0001
1000
0001
0010
0000
0100
1000
,
0010
1000
0001
1000
0010
0000
0100
0001
0010
0001
1000
0001
0010
0000
0100
1000
,
0010
1000
0001
1000
0010
0000
0100
0001
0010
0001
1000
0100
0010
0000
0001
0100
,
0010
1000
0100
1000
0001
0000
0100
0001
0010
0001
1000
0001
0100
0000
0010
1000
,
0100
1000
0001
1000
0010
0000
0100
0001
0010
0001
1000
0001
0100
0000
0010
1000
,
0100
1000
0001
1000
0010
0000
0100
0001
0010
0001
1000
0001
0100
0000
0010
1000
,
0100
1000
0001
1000
0010
0000
0100
0001
0010
0001
1000
0001
0010
0000
0100
1000
,
0010
1000
0001
1000
0100
0000
0010
0001
0100
0001
1000
0001
0010
0000
0100
1000
,
0010
1000
0001
1000
0010
0000
0100
0001
0010
0001
1000
0001
0100
0000
0010
1000
,
0100
1000
0001
1000
0010
0000
0100
0001
0010
0001
1000
0001
0100
0000
0010
0000
,
4000
0004
0000
0000
0000
0000
0000
0000
0000
0000
0000
0000
0000
0000
3003
0000
,
1000
0001
1000
0001
0010
0001
0100
0010
1000
0001
1000
0001
0010
0001
0100
0010
,
1000
0001
1000
0001
0010
0001
0100
0010
1000
0001
1000
0001
0010
0001
1000
0001
,
0010
0100
0010
0100
1000
0001
0100
0001
0010
0100
0010
0100
1000
0001
0100
0001
,
0010
0100
0010
0100
1000
0001
0100
0001
0010
0100
0010
0100
1000
0010
1000
0001
,
1000
0001
0100
0001
1000
0100
0010
0001
0100
0001
0100
0010
1000
0100
0010
0001
,
0100
0001
0100
0010
1000
0100
0010
0001
0100
0001
0100
0010
1000
0100
0010
0001
,
0100
0010
0100
0001
1000
0010
1000
0010
0100
0001
0010
0100
1000
0010
1000
0010
,
0100
0000
0001
0000
1000
0000
0001
0000
1000
0100
0010
0001
1000
0010
0100
0001
,
1000
0001
1000
0001
0100
0001
0010
0100
1000
0001
1000
0001
0100
0001
0010
0100
,
1000
0001
1000
0001
0100
0001
0010
0100
1000
0001
1000
0001
0100
0001
1000
0001
,
0100
0010
0100
0010
1000
0001
0010
0001
0100
0010
0100
0010
1000
0001
0010
0001
,
0100
0010
0100
0010
1000
0001
0010
0001
0100
0010
0100
0010
1000
0100
1000
0001
,
1000
0100
0000
0010
0000
0001
0000
0100
,
0000
0010
0000
1000
0000
0001
0000
0010
,
0100
1000
0100
0010
0001
1000
0001
0100
0010
1000
0001
1000
0010
0100
0001
1000
,
0004
0000
0000
0000
0000
0000
0000
0003
,
1000
0100
0010
0001
0100
0001
1000
0010
1000
0100
0010
0001
1000
0001
0010
0001
,
1000
0100
0010
0001
0100
0001
1000
0010
1000
0100
0010
0001
1000
0001
0100
0010
,
1000
0001
0100
0010
0100
0001
1000
0100
0010
0001
1000
0001
1000
0010
0100
0001
,
1000
0100
1000
0001
0100
0010
0100
0001
1000
0001
0010
0100
1000
0010
0100
0001
,
1000
0100
0010
0001
0100
0001
1000
0010
1000
0100
0010
0001
1000
0001
0010
0001
,
1000
0100
0010
0001
0100
0001
1000
0010
1000
0100
0010
0001
1000
0001
0100
0010
,
1000
0001
0100
0010
0100
0001
1000
0100
0010
0001
1000
0001
1000
0010
0100
0001
,
1000
0100
1000
0001
0100
0010
0100
0001
1000
0001
0010
0100
1000
0001
1000
0001
,
1000
0010
0100
0001
0010
0001
1000
0100
1000
0010
0100
0001
1000
0001
0100
0001
,
1000
0010
0100
0001
0010
0001
1000
0100
1000
0010
0100
0001
1000
0001
0010
0100
,
1000
0001
0010
0100
0010
0001
1000
0010
0100
0001
1000
0001
1000
0100
0010
0001
,
1000
0010
1000
0001
0010
0100
0010
0001
1000
0001
0100
0010
1000
0100
0010
0001
,
1000
0010
0100
0001
0010
0001
1000
0100
1000
0010
0100
0001
1000
0001
0100
0001
,
1000
0010
0100
0001
0010
0001
1000
0100
1000
0010
0100
0001
1000
0001
0010
0100
,
1000
0001
0010
0100
0010
0001
1000
0010
0100
0001
1000
0001
1000
0100
0010
0001
,
1000
0010
1000
0001
0010
0100
0010
0001
1000
0001
0100
0010
1000
0001
1000
0001
,
1000
0100
0010
0001
0100
0001
1000
0010
1000
0100
0010
0001
1000
0001
0100
0001
,
1000
0100
0010
0001
0100
0001
1000
0010
1000
0100
0010
0001
1000
0001
0010
0100
,
1000
0001
0100
0010
0100
0001
1000
0100
0010
0001
1000
0001
1000
0010
0100
0001
,
1000
0100
1000
0001
0100
0010
0100
0001
1000
0001
0010
0100
1000
0010
0100
0001
,
1000
0100
0010
0001
0100
0001
1000
0010
1000
0100
0010
0001
1000
0001
0100
0001
,
1000
0100
0010
0001
0100
0001
1000
0010
1000
0100
0010
0001
1000
0001
0010
0100
,
1000
0001
0100
0010
0100
0001
1000
0100
0010
0001
1000
0001
1000
0010
0100
0001
,
1000
0100
1000
0001
0100
0010
0100
0001
1000
0001
0010
0100
1000
0010
1000
0001
,
1000
0010
0100
0001
0010
0001
1000
0100
1000
0010
0100
0001
1000
0001
0010
0001
,
1000
0010
0100
0001
0010
0001
1000
0100
1000
0010
0100
0001
1000
0001
0100
0010
,
1000
0001
0010
0100
0010
0001
1000
0010
0100
0001
1000
0001
1000
0100
0010
0001
,
1000
0010
1000
0001
0010
0100
0010
0001
1000
0001
0100
0010
1000
0100
0010
0001
,
1000
0000
0000
1010
0000
0000
0110
0000
0000
0101
0000
0000
0001
0000
1000
0000
,
1100
0000
0000
0110
0000
0000
0011
0000
0000
1001
0000
0000
1000
0000
0010
0000
,
0110
0000
0000
0101
0000
0000
1001
0000
0000
1100
0000
0000
0010
0000
0001
0000
,
1000
0000
0100
0000
1000
0000
0100
0000
1000
0001
0100
0010
1000
0001
1000
0010
,
0200
0000
0000
0001
,
0000
0000
0000
0000
,
0302
0000
0000
1000
,
0000
0000
0000
0000
,
2003
0000
0000
0010
,
0000
0000
0000
0000
,
3200
0000
0000
0010
,
0000
0000
2300
0000
,
3002
0000
0000
0100
,
0000
0000
0000
0000
,
0023
0000
0000
0100
,
0000
0032
0203
0320
,
2030
0000
0000
0001
,
0000
0000
0000
0000
,
3200
0000
0000
0010
,
0000
0000
0000
0000
0000
0000
0000
0000
0000
0000
0000
0000
0000
0000
0000
0000
0000
0000
0000
0000
0000
0000
0000
0000
0000
0000
0000
0000
0000
0000
0000
0000
0000
0000
0000
0000
0000
0000
0000
0000
0000
0000
0000
0000
0000
0000
0000
0000
0000
0000
0000
0000
0000
0000
0000
0000
0000
0000
0000
0000
0000
0000
0000
0300
,
1001
2000
0000
3200
,
0320
0000
0230
2300
,
0000
3002
0203
0000
,
0320
0000
0000
0030
,
2000
3002
0000
0203
,
0320
0000
0230
0302
,
0000
0023
0230
0000
,
2300
0000
3000
0002
,
0203
0320
0000
2030
,
3002
0000
0203
0302
,
0000
2003
3200
0000
,
0320
0000
0000
0230
,
2300
3002
0000
0203
,
0320
0000
0230
0302
,
0000
2003
3020
2030
,
3200
0000
0320
0000
,
0031
1000
0000
0000
0001
0000
0000
0100
0000
0000
0001
0000
1000
0000
0001
0000
,
0100
0010
0000
0000
0100
0000
0000
0001
0000
0000
0010
0000
0100
0000
1000
0000
,
0010
1000
0000
0000
0010
0000
0000
0100
0000
0000
0001
0000
0010
0000
0001
0000
,
1000
0100
0000
0000
0010
0000
0000
0100
0000
0000
1000
0000
0001
0000
0100
0000
,
0010
0100
0000
0000
0001
0000
0000
1000
0000
0000
0100
0000
1000
0000
0001
0000
,
1000
0010
0000
0000
0100
0000
0000
0010
0000
0000
1000
0000
0001
0000
0010
0000
,
0001
1000
0000
0000
0010
0000
0000
0100
0000
0000
0001
0000
0010
0000
0100
0000
,
1000
0001
0000
0000
0100
0000
0000
0001
0000
0000
0010
0001
0100
0000
0010
1000
,
0001
1000
0000
0000
0001
0000
0000
0010
0000
0000
0001
0000
1000
0000
0001
0000
,
0010
0100
0000
0000
0010
0000
0000
0001
0000
0000
0100
0000
0010
0000
1000
0000
,
0100
1000
0000
0000
0100
0000
0000
0010
0000
0000
0001
0000
0100
0000
0001
0000
,
1000
0010
0000
0000
0100
0000
0000
0010
0000
0000
1000
0000
0001
0000
0010
0000
,
0100
0010
0000
0000
0001
0000
0000
1000
0000
0000
0010
0000
1000
0000
0001
0000
,
1000
0100
0000
0000
0010
0000
0000
0100
0000
0000
1000
0000
0001
0000
0100
0000
,
0001
1000
0000
0000
0100
0000
0000
0010
0000
0000
0001
0000
0100
0000
0010
0000
,
1000
0001
0000
0000
1000
0000
0000
0100
0000
0000
0010
0001
0100
0000
0010
1000
,
0100
0110
0011
0101
,
1010
1001
1100
0011
,
0101
1010
1001
1100
,
0110
0000
0011
0000
1001
0000
1000
0010
,
0101
0110
1010
1100
,
0011
1001
0101
1001
,
1100
0110
0011
1100
,
0011
0000
0000
0000
1001
0000
0000
0000
0101
0000
0100
0010
1000
0000
0100
0010
,
0001
1001
0011
0110
,
1100
1001
1010
0110
,
0101
1001
1100
0011
,
0110
0000
1001
0000
1100
0000
0001
0010
,
1001
0000
0000
0000
,
0000
0000
0000
0000
,
0000
0000
0000
0000
,
1001
0000
0000
0000
,
1000
0100
1000
0010
1000
0001
0100
0001
0010
0001
1000
0010
0100
0001
1000
0100
,
1000
0001
0100
0010
1000
0001
1000
0100
1000
0001
0010
0001
1000
0010
0100
0001
,
1000
0100
1000
0001
0010
0100
1000
0001
0010
0001
1000
0100
0010
0100
1000
0001
,
1000
0010
0100
0010
1000
0001
1000
0100
1000
0001
0010
0001
1000
0010
0100
0001
,
1000
0100
0010
0100
1000
0001
0010
0100
1000
0100
0010
0001
1000
0001
0100
0010
,
1000
0001
0100
0010
1000
0001
0010
0100
1000
0001
1000
0100
1000
0010
0100
0001
,
1000
0100
1000
0010
0100
0001
1000
0010
0100
0001
1000
0001
0100
0010
1000
0001
,
0010
0100
0010
0001
1000
0010
0100
0001
1000
0001
0010
0100
1000
0001
0100
0010
,
1000
0001
0100
0001
0010
0001
1000
0100
1000
0010
1000
0001
0010
0100
1000
0001
,
1000
0100
0010
0001
1000
0001
0100
0001
1000
0010
1000
0001
0010
0100
1000
0001
,
0100
0001
1000
0010
0100
0001
1000
0010
1000
0001
0100
0010
0100
0001
1000
0001
,
0010
0100
0010
0001
1000
0001
0100
0001
1000
0010
1000
0001
0010
0100
1000
0001
,
0100
0010
0100
0001
1000
0010
0100
0001
0100
0010
1000
0001
1000
0100
1000
0001
,
1000
0100
0010
0001
1000
0010
0100
0001
1000
0001
0100
0001
0010
0100
1000
0001
,
0100
0001
0010
0100
1000
0001
0010
0100
1000
0001
1000
0100
0010
0001
1000
0010
,
0100
0010
1000
0001
0010
0100
1000
0001
1000
0010
0100
0001
1000
0100
0010
0001
,
1000
0010
1000
0100
1000
0001
0010
0001
0100
0001
1000
0100
0010
0001
1000
0010
,
1000
0001
0010
0100
1000
0001
1000
0010
1000
0001
0100
0001
1000
0100
0010
0001
,
1000
0010
1000
0001
0100
0010
1000
0001
0100
0001
1000
0010
0100
0010
1000
0001
,
1000
0100
0010
0100
1000
0001
1000
0010
1000
0001
0100
0001
1000
0100
0010
0001
,
1000
0010
0100
0010
1000
0001
0100
0010
1000
0010
0100
0001
1000
0001
0010
0100
,
1000
0001
0010
0001
1000
0001
0100
0010
1000
0001
1000
0010
1000
0100
0010
0001
,
1000
0010
1000
0100
0010
0001
1000
0100
0010
0001
1000
0001
0010
0100
1000
0001
,
0100
0010
0100
0001
1000
0100
0010
0001
1000
0001
0100
0010
1000
0001
0010
0100
,
1000
0001
0010
0001
0100
0001
1000
0010
1000
0100
1000
0001
0100
0010
1000
0001
,
1000
0010
0100
0001
1000
0001
0010
0001
1000
0100
1000
0001
0100
0010
1000
0001
,
0010
0001
1000
0100
0010
0001
1000
0100
1000
0001
0010
0100
0010
0001
1000
0001
,
0100
0010
0100
0001
1000
0001
0010
0001
1000
0100
1000
0001
0100
0010
1000
0001
,
0010
0100
1000
0001
0100
0001
1000
0100
0010
0001
1000
0010
0100
0001
1000
0001
,
1000
0010
1000
0001
0010
0001
1000
0010
0100
0001
1000
0100
0010
0001
1000
0001
,
1000
0100
1000
0001
0100
0001
1000
0100
0010
0001
1000
0010
0100
0001
0100
0010
,
1000
0000
0001
0000
1000
0000
0001
0000
1000
0100
0010
0001
1000
0010
0100
0001
,
1000
0100
0010
0001
0100
0001
1000
0010
1000
0100
0010
0001
1000
0001
0010
0001
,
1000
0100
0010
0001
0100
0001
1000
0010
1000
0100
0010
0001
1000
0001
0100
0010
,
1000
0001
0100
0010
0100
0001
1000
0100
0010
0001
1000
0001
1000
0010
0100
0001
,
1000
0100
1000
0001
0100
0010
0100
0001
1000
0001
0010
0100
1000
0010
0100
0001
,
1000
0100
0010
0001
0100
0001
1000
0010
1000
0100
0010
0001
1000
0001
0010
0001
,
1000
0100
0010
0001
0100
0001
1000
0010
1000
0100
0010
0001
1000
0001
0100
0010
,
1000
0001
0100
0010
0100
0001
1000
0100
0010
0001
1000
0001
1000
0010
0100
0001
,
1000
0100
1000
0001
0100
0010
0100
0001
1000
0001
0010
0100
1000
0001
1000
0001
,
1000
0010
0100
0001
0010
0001
1000
0100
1000
0010
0100
0001
1000
0001
0100
0001
,
1000
0010
0100
0001
0010
0001
1000
0100
1000
0010
0100
0001
1000
0001
0010
0100
,
1000
0001
0010
0100
0010
0001
1000
0010
0100
0001
1000
0001
1000
0100
0010
0001
,
1000
0010
1000
0001
0010
0100
0010
0001
1000
0001
0100
0010
1000
0100
0010
0001
,
1000
0010
0100
0001
0010
0001
1000
0100
1000
0010
0100
0001
1000
0001
0100
0001
,
1000
0010
0100
0001
0010
0001
1000
0100
1000
0010
0100
0001
1000
0001
0010
0100
,
1000
0001
0010
0100
0010
0001
1000
0010
0100
0001
1000
0001
1000
0100
0010
0001
,
1000
0010
1000
0001
0010
0100
0010
0001
1000
0001
0100
0010
1000
0001
1000
0001
,
1000
0100
0010
0001
0100
0001
1000
0010
1000
0100
0010
0001
1000
0001
0100
0001
,
1000
0100
0010
0001
0100
0001
1000
0010
1000
0100
0010
0001
1000
0001
0010
0100
,
1000
0001
0100
0010
0100
0001
1000
0100
0010
0001
1000
0001
1000
0010
0100
0001
,
1000
0100
1000
0001
0100
0010
0100
0001
1000
0001
0010
0100
1000
0010
0100
0001
,
1000
0100
0010
0001
0100
0001
1000
0010
1000
0100
0010
0001
1000
0001
0100
0001
,
1000
0100
0010
0001
0100
0001
1000
0010
1000
0100
0010
0001
1000
0001
0010
0100
,
1000
0001
0100
0010
0100
0001
1000
0100
0010
0001
1000
0001
1000
0010
0100
0001
,
1000
0100
1000
0001
0100
0010
0100
0001
1000
0001
0010
0100
1000
0010
1000
0001
,
1000
0010
0100
0001
0010
0001
1000
0100
1000
0010
0100
0001
1000
0001
0010
0001
,
1000
0010
0100
0001
0010
0001
1000
0100
1000
0010
0100
0001
1000
0001
0100
0010
,
1000
0001
0010
0100
0010
0001
1000
0010
0100
0001
1000
0001
1000
0100
0010
0001
,
1000
0010
1000
0001
0010
0100
0010
0001
1000
0001
0100
0010
1000
0100
0010
0001
,
1000
0010
1000
0001
0010
0001
1000
0010
0100
0001
1000
0100
0010
0001
1000
0001
,
1000
0100
1000
0001
0100
0001
1000
0100
0010
0001
1000
0010
0100
0001
1000
0001
,
1000
0010
1000
0001
0010
0001
1000
0010
0100
0001
1000
0100
0010
0001
0010
0100
,
1000
0000
0001
0000
1000
0000
0001
0000
1000
0001
0100
0010
1000
0001
1000
0010
,
0100
0000
0000
0000
;

//---------------dance-single - 17 (ZaiYLR)----------------
#NOTES:
     dance-single:
     17 (ZaiYLR):
     Challenge:
     17:
     1.000,1.000,0.174,0.212,1.000,2474.000,47.000,57.000,68.000,0.000:
0000
0000
0000
0000
,
0000
0000
0000
0000
,
0000
0000
0000
0000
,
0000
0000
0000
0000
,
0000
0000
0000
0000
,
0000
0000
0000
0000
,
0000
0000
0000
0000
,
0000
0000
0000
0000
,
0001
0100
0010
0100
0001
1000
0100
0010
,
0001
1000
0010
0100
0010
1000
0001
0010
,
0100
0010
0001
0100
0010
0100
0001
1000
,
0100
0010
0001
1000
0010
0100
0010
1000
,
1000
0001
0010
0001
1000
0010
1000
0001
,
0010
0100
1000
0001
0100
0010
0100
0001
,
1000
0000
0100
0000
0010
0000
0001
0000
1000
0000
0010
0000
M100
M000
M001
M000
,
M010
M000
M100
M000
M010
M000
M001
M000
M100
M000
M001
M010
M100
M000
M010
M001
,
M100
M000
M010
M000
M100
M000
M001
M000
M010
M000
M100
M000
M010
0000
0001
0000
,
1000
0010
1000
0100
0010
0001
0100
0001
,
1000
0000
0010
0000
010M
000M
001M
000M
100M
000M
010M
000M
001M
000M
010M
000M
,
100M
0000
000M
0010
000M
0000
010M
0000
000M
0010
000M
0000
2MM0
0000
0000
3001
0000
0000
1000
0000
0000
0010
0000
0000
,
0010
1000
0001
1000
0100
1000
0010
0100
,
0001
0010
0001
1000
0001
0010
0100
1000
,
0100
0010
0001
1000
0001
0100
0010
0100
,
0001
0000
1000
0000
0100
0000
0010
0000
0100
0000
1000
0010
0100
0000
0001
0010
,
0100
1000
0001
0100
0010
0100
0001
1000
,
0100
0010
0001
1000
0010
0100
0001
0010
,
0200
0300
0000
0000
1000
0000
0000
0000
0001
0000
0000
0000
0100
0000
0000
0000
0020
0M3M
0000
0000
1000
0000
0000
0000
0100
0000
0000
0000
0100
0000
0000
0000
,
0020
0M3M
0000
0000
1000
0000
0000
0000
0100
0000
0000
0000
0100
0000
0000
0000
0020
0M3M
0000
0000
1000
0000
0000
0000
0100
0000
0000
0000
0100
0000
0000
0000
,
0020
0M30
1000
0000
0001
0000
1000
0000
0010
0000
0100
0000
0001
0000
1000
0000
0001
0000
0010
0000
0100
0000
1000
0000
0001
0000
1000
0000
0100
0000
0010
0000
,
0001
1000
0010
1000
0001
0010
0100
1000
0001
0100
0010
1000
0001
1000
0010
0100
,
0001
1000
0100
1000
0001
0100
0010
1000
0100
0010
0001
0010
0100
1000
0001
0100
,
0010
1000
0001
0010
0100
0010
0001
1000
0010
0100
0001
0010
0100
0010
0001
0100
,
0010
1000
0100
1000
0001
0000
0010
0001
0100
0001
1000
0001
0100
0000
0010
1000
,
0100
1000
0001
1000
0100
0000
0010
0001
0100
0001
1000
0001
0100
0000
0010
1000
,
0100
1000
0001
1000
0100
0000
0010
0001
0100
0001
1000
0001
0100
0000
0010
1000
,
0100
1000
0001
1000
0100
0000
0010
0001
0100
0001
1000
0001
0100
0000
0010
1000
,
0100
0010
0001
1000
0001
0000
0100
0001
0010
0001
1000
0001
0010
0000
0100
1000
,
0010
1000
0001
1000
0010
0000
0100
0001
0010
0001
1000
0001
0010
0000
0100
1000
,
0010
1000
0001
1000
0010
0000
0100
0001
0010
0001
1000
0001
0010
0000
0100
1000
,
0010
1000
0001
1000
0010
0000
0100
0001
0010
0000
0100
1000
0010
0000
0100
0001
,
0010
0100
0010
0001
1000
0000
0010
1000
0100
1000
0001
1000
0010
0000
0100
0001
,
0010
0001
1000
0001
0100
0000
0010
1000
0100
1000
0001
1000
0010
0000
0100
0001
,
0010
0001
1000
0001
0100
0000
0010
1000
0100
1000
0001
1000
0010
0000
0100
0001
,
0010
0001
1000
0001
0100
0000
0010
1000
0100
1000
0001
1000
0100
0000
0010
0001
,
0100
0010
0100
0001
1000
0000
0010
1000
0100
1000
0001
1000
0010
0000
0100
0001
,
0010
0001
1000
0001
0100
0000
0010
1000
0100
1000
0001
1000
0010
0000
0100
0001
,
0010
0001
1000
0001
0100
0000
0010
1000
0100
1000
0001
1000
0010
0000
0100
0001
,
0010
0001
1000
0010
0100
0001
0100
0010
1000
0001
1000
0100
0010
0001
0100
0010
,
1000
0001
1000
0001
0010
0001
0100
0010
1000
0001
1000
0001
0010
0001
0100
0010
,
1000
0001
1000
0001
0010
0001
0100
0010
1000
0001
1000
0001
0010
0001
1000
0001
,
0010
0100
0010
0100
1000
0001
0100
0001
0010
0100
0010
0100
1000
0001
0100
0001
,
0010
0100
0010
0100
1000
0001
0100
0001
0010
0100
0010
0100
1000
0010
1000
0001
,
1000
0001
0100
0001
1000
0100
0010
0001
0100
0001
0100
0010
1000
0100
0010
0001
,
0100
0001
0100
0010
1000
0100
0010
0001
0100
0001
0100
0010
1000
0100
0010
0001
,
0100
0010
0100
0001
1000
0010
1000
0010
0100
0001
0010
0100
1000
0010
1000
0010
,
0100
0001
0010
0100
1000
0001
0010
0100
1000
0001
0010
0001
1000
0010
0100
0001
,
1000
0001
1000
0001
0100
0001
0010
0100
1000
0001
1000
0001
0100
0001
0010
0100
,
1000
0001
1000
0001
0100
0001
0010
0100
1000
0001
1000
0001
0100
0001
1000
0001
,
0100
0010
0100
0010
1000
0001
0010
0001
0100
0010
0100
0010
1000
0001
0010
0001
,
0100
0010
0100
0010
1000
0001
0010
0001
0100
0010
0100
0010
1000
0100
1000
0001
,
1000
0010
1000
0010
0100
0001
1000
0001
1000
0100
1000
0100
0010
0001
1000
0001
,
0100
0010
0100
0010
1000
0001
0100
0010
1000
0001
1000
0001
0010
0100
1000
0001
,
1000
0010
0100
0001
0010
0001
1000
0010
0100
0001
0010
0100
1000
0100
0010
0001
,
0100
0010
0100
0001
0010
0100
1000
0010
0100
0010
1000
0100
0010
0001
0100
0010
,
1000
0100
0010
0001
0100
0001
1000
0010
1000
0100
0010
0001
1000
0001
0010
0001
,
1000
0100
0010
0001
0100
0001
1000
0010
1000
0100
0010
0001
1000
0001
0100
0010
,
1000
0001
0100
0010
0100
0001
1000
0100
0010
0001
1000
0001
1000
0010
0100
0001
,
1000
0100
1000
0001
0100
0010
0100
0001
1000
0001
0010
0100
1000
0010
0100
0001
,
1000
0100
0010
0001
0100
0001
1000
0010
1000
0100
0010
0001
1000
0001
0010
0001
,
1000
0100
0010
0001
0100
0001
1000
0010
1000
0100
0010
0001
1000
0001
0100
0010
,
1000
0001
0100
0010
0100
0001
1000
0100
0010
0001
1000
0001
1000
0010
0100
0001
,
1000
0100
1000
0001
0100
0010
0100
0001
1000
0001
0010
0100
1000
0001
1000
0001
,
1000
0010
0100
0001
0010
0001
1000
0100
1000
0010
0100
0001
1000
0001
0100
0001
,
1000
0010
0100
0001
0010
0001
1000
0100
1000
0010
0100
0001
1000
0001
0010
0100
,
1000
0001
0010
0100
0010
0001
1000
0010
0100
0001
1000
0001
1000
0100
0010
0001
,
1000
0010
1000
0001
0010
0100
0010
0001
1000
0001
0100
0010
1000
0100
0010
0001
,
1000
0010
0100
0001
0010
0001
1000
0100
1000
0010
0100
0001
1000
0001
0100
0001
,
1000
0010
0100
0001
0010
0001
1000
0100
1000
0010
0100
0001
1000
0001
0010
0100
,
1000
0001
0010
0100
0010
0001
1000
0010
0100
0001
1000
0001
1000
0100
0010
0001
,
1000
0010
1000
0001
0010
0100
0010
0001
1000
0001
0100
0010
1000
0001
1000
0001
,
1000
0100
0010
0001
0100
0001
1000
0010
1000
0100
0010
0001
1000
0001
0100
0001
,
1000
0100
0010
0001
0100
0001
1000
0010
1000
0100
0010
0001
1000
0001
0010
0100
,
1000
0001
0100
0010
0100
0001
1000
0100
0010
0001
1000
0001
1000
0010
0100
0001
,
1000
0100
1000
0001
0100
0010
0100
0001
1000
0001
0010
0100
1000
0010
0100
0001
,
1000
0100
0010
0001
0100
0001
1000
0010
1000
0100
0010
0001
1000
0001
0100
0001
,
1000
0100
0010
0001
0100
0001
1000
0010
1000
0100
0010
0001
1000
0001
0010
0100
,
1000
0001
0100
0010
0100
0001
1000
0100
0010
0001
1000
0001
1000
0010
0100
0001
,
1000
0100
1000
0001
0100
0010
0100
0001
1000
0001
0010
0100
1000
0010
1000
0001
,
1000
0010
0100
0001
0010
0001
1000
0100
1000
0010
0100
0001
1000
0001
0010
0001
,
1000
0010
0100
0001
0010
0001
1000
0100
1000
0010
0100
0001
1000
0001
0100
0010
,
1000
0001
0010
0100
0010
0001
1000
0010
0100
0001
1000
0001
1000
0100
0010
0001
,
1000
0010
1000
0001
0010
0100
0010
0001
1000
0001
0100
0010
1000
0100
0010
0001
,
0100
0001
1000
0100
1000
0001
0100
0001
1000
0100
1000
0001
0100
0010
1000
0010
,
0100
0001
1000
0100
1000
0001
0100
0001
1000
0100
1000
0001
0100
0001
1000
0100
,
0010
0001
1000
0010
1000
0001
0010
0001
1000
0010
1000
0001
0010
0100
0010
0001
,
0100
0010
0100
0001
0010
0100
0010
0001
1000
0010
0100
0001
0010
0100
1000
0001
,
0200
0000
0000
0001
,
0000
0000
0000
0000
,
0302
0000
0000
1000
,
0000
0000
0000
0000
,
2003
0000
0000
0010
,
0000
0000
0000
0000
,
3200
0000
0000
0010
,
0000
0000
2300
0000
,
3002
0000
0000
0100
,
0000
0000
0000
0000
,
0023
0000
0000
0100
,
0000
0032
0203
0320
,
2030
0000
0000
0001
,
0000
0000
0000
0000
,
3200
0000
0000
0010
,
0000
0000
0000
0000
0000
0000
0000
0000
0000
0000
0000
0000
0000
0000
0000
0000
0000
0000
0000
0000
0000
0000
0000
0000
0000
0000
0000
0000
0000
0000
0000
0000
0000
0000
0000
0000
0000
0000
0000
0000
0000
0000
0000
0000
0000
0000
0000
0000
0000
0000
0000
0000
0000
0000
0000
0000
0000
0000
0000
0000
0000
0000
0000
0300
,
1001
2000
0000
3200
,
0320
0000
0230
2300
,
0000
3002
0203
0000
,
0320
0000
0000
0030
,
2000
3002
0000
0203
,
0320
0000
0230
0302
,
0000
0023
0230
0000
,
2300
0000
3000
0002
,
0203
0320
0000
2030
,
3002
0000
0203
0302
,
0000
2003
3200
0000
,
0320
0000
0000
0230
,
2300
3002
0000
0203
,
0320
0000
0230
0302
,
0000
2003
3020
2030
,
3200
0000
0320
0000
,
0031
1000
0000
0000
0001
0000
0000
0100
0000
0000
0001
0000
1000
0000
0001
0000
,
0100
0010
0000
0000
0100
0000
0000
0001
0000
0000
0010
0000
0100
0000
1000
0000
,
0010
1000
0000
0000
0010
0000
0000
0100
0000
0000
0001
0000
0010
0000
0001
0000
,
1000
0100
0000
0000
0010
0000
0000
0100
0000
0000
1000
0000
0001
0000
0100
0000
,
0010
0100
0000
0000
0001
0000
0000
1000
0000
0000
0100
0000
1000
0000
0001
0000
,
1000
0010
0000
0000
0100
0000
0000
0010
0000
0000
1000
0000
0001
0000
0010
0000
,
0001
1000
0000
0000
0010
0000
0000
0100
0000
0000
0001
0000
0010
0000
0100
0000
,
1000
0001
0000
0000
0100
0000
0000
0001
0000
0000
0010
0000
0100
0000
0010
0000
,
0001
1000
0000
0000
0001
0000
0000
0100
0000
0000
0001
0000
1000
0000
0001
0000
,
0100
0010
0000
0000
0100
0000
0000
0001
0000
0000
0010
0000
0100
0000
1000
0000
,
0010
1000
0000
0000
0010
0000
0000
0100
0000
0000
0001
0000
0010
0000
0001
0000
,
1000
0100
0000
0000
0010
0000
0000
0100
0000
0000
1000
0000
0001
0000
0100
0000
,
0010
0100
0000
0000
0001
0000
0000
1000
0000
0000
0100
0000
1000
0000
0001
0000
,
1000
0010
0000
0000
0100
0000
0000
0010
0000
0000
1000
0000
0001
0000
0010
0000
,
0001
1000
0000
0000
0010
0000
0000
0100
0000
0000
0001
0000
0010
0000
0100
0000
,
1000
0001
0000
0000
1000
0000
0000
0010
0000
0000
1000
0000
0001
0000
0010
0000
,
0110
1001
1100
0110
,
0011
1001
0101
0110
,
1010
1001
0011
1100
,
0110
0000
0011
0000
1010
0000
1000
0001
,
0101
0110
1010
1001
,
1100
0011
1001
0101
,
1010
0110
1001
1100
,
0011
0000
0000
0000
1001
0000
0000
0000
0101
0000
0100
0010
1000
0000
0100
0010
,
0001
1001
0011
0110
,
1100
1001
1010
0110
,
0101
1001
1100
0011
,
0110
0000
1001
0000
1100
0000
0001
0010
,
1001
0000
0000
0000
,
0000
0000
0000
0000
,
0000
0000
0000
0000
,
1001
0000
0000
0000
,
1000
0100
1000
0010
1000
0001
0100
0001
0010
0001
1000
0010
0100
0001
1000
0100
,
1000
0001
0100
0010
1000
0001
1000
0100
1000
0001
0010
0001
1000
0010
0100
0001
,
1000
0100
1000
0001
0010
0100
1000
0001
0010
0001
1000
0100
0010
0100
1000
0001
,
1000
0010
0100
0010
1000
0001
1000
0100
1000
0001
0010
0001
1000
0010
0100
0001
,
1000
0100
0010
0100
1000
0001
0010
0100
1000
0100
0010
0001
1000
0001
0100
0010
,
1000
0001
0100
0010
1000
0001
0010
0100
1000
0001
1000
0100
1000
0010
0100
0001
,
1000
0100
1000
0010
0100
0001
1000
0010
0100
0001
1000
0001
0100
0010
1000
0001
,
0010
0100
0010
0001
1000
0010
0100
0001
1000
0001
0010
0100
1000
0001
0100
0010
,
1000
0001
0100
0001
0010
0001
1000
0100
1000
0010
1000
0001
0010
0100
1000
0001
,
1000
0100
0010
0001
1000
0001
0100
0001
1000
0010
1000
0001
0010
0100
1000
0001
,
0100
0001
1000
0010
0100
0001
1000
0010
1000
0001
0100
0010
0100
0001
1000
0001
,
0010
0100
0010
0001
1000
0001
0100
0001
1000
0010
1000
0001
0010
0100
1000
0001
,
0100
0010
0100
0001
1000
0010
0100
0001
0100
0010
1000
0001
1000
0100
1000
0001
,
1000
0100
0010
0001
1000
0010
0100
0001
1000
0001
0100
0001
0010
0100
1000
0001
,
0100
0001
0010
0100
1000
0001
0010
0100
1000
0001
1000
0100
0010
0001
1000
0010
,
0100
0010
1000
0001
0010
0100
1000
0001
1000
0010
0100
0001
1000
0100
0010
0001
,
1000
0010
1000
0100
1000
0001
0010
0001
0100
0001
1000
0100
0010
0001
1000
0010
,
1000
0001
0010
0100
1000
0001
1000
0010
1000
0001
0100
0001
1000
0100
0010
0001
,
1000
0010
1000
0001
0100
0010
1000
0001
0100
0001
1000
0010
0100
0010
1000
0001
,
1000
0100
0010
0100
1000
0001
1000
0010
1000
0001
0100
0001
1000
0100
0010
0001
,
1000
0010
0100
0010
1000
0001
0100
0010
1000
0010
0100
0001
1000
0001
0010
0100
,
1000
0001
0010
0001
1000
0001
0100
0010
1000
0001
1000
0010
1000
0100
0010
0001
,
1000
0010
1000
0100
0010
0001
1000
0100
0010
0001
1000
0001
0010
0100
1000
0001
,
0100
0010
0100
0001
1000
0100
0010
0001
1000
0001
0100
0010
1000
0001
0010
0100
,
1000
0001
0010
0001
0100
0001
1000
0010
1000
0100
1000
0001
0100
0010
1000
0001
,
1000
0010
0100
0001
1000
0001
0010
0001
1000
0100
1000
0001
0100
0010
1000
0001
,
0010
0001
1000
0100
0010
0001
1000
0100
1000
0001
0010
0100
0010
0001
1000
0001
,
0100
0010
0100
0001
1000
0001
0010
0001
1000
0100
1000
0001
0100
0010
1000
0001
,
0010
0100
1000
0001
0100
0001
1000
0100
0010
0001
1000
0010
0100
0001
1000
0001
,
1000
0010
1000
0001
0010
0001
1000
0010
0100
0001
1000
0100
0010
0001
1000
0001
,
1000
0100
1000
0001
0100
0001
1000
0100
0010
0001
1000
0010
0100
0001
0100
0010
,
1000
0001
1000
0010
0100
0001
0010
0100
1000
0100
0010
0001
1000
0010
0100
0001
,
1000
0100
0010
0001
0100
0001
1000
0010
1000
0100
0010
0001
1000
0001
0010
0001
,
1000
0100
0010
0001
0100
0001
1000
0010
1000
0100
0010
0001
1000
0001
0100
0010
,
1000
0001
0100
0010
0100
0001
1000
0100
0010
0001
1000
0001
1000
0010
0100
0001
,
1000
0100
1000
0001
0100
0010
0100
0001
1000
0001
0010
0100
1000
0010
0100
0001
,
1000
0100
0010
0001
0100
0001
1000
0010
1000
0100
0010
0001
1000
0001
0010
0001
,
1000
0100
0010
0001
0100
0001
1000
0010
1000
0100
0010
0001
1000
0001
0100
0010
,
1000
0001
0100
0010
0100
0001
1000
0100
0010
0001
1000
0001
1000
0010
0100
0001
,
1000
0100
1000
0001
0100
0010
0100
0001
1000
0001
0010
0100
1000
0001
1000
0001
,
1000
0010
0100
0001
0010
0001
1000
0100
1000
0010
0100
0001
1000
0001
0100
0001
,
1000
0010
0100
0001
0010
0001
1000
0100
1000
0010
0100
0001
1000
0001
0010
0100
,
1000
0001
0010
0100
0010
0001
1000
0010
0100
0001
1000
0001
1000
0100
0010
0001
,
1000
0010
1000
0001
0010
0100
0010
0001
1000
0001
0100
0010
1000
0100
0010
0001
,
1000
0010
0100
0001
0010
0001
1000
0100
1000
0010
0100
0001
1000
0001
0100
0001
,
1000
0010
0100
0001
0010
0001
1000
0100
1000
0010
0100
0001
1000
0001
0010
0100
,
1000
0001
0010
0100
0010
0001
1000
0010
0100
0001
1000
0001
1000
0100
0010
0001
,
1000
0010
1000
0001
0010
0100
0010
0001
1000
0001
0100
0010
1000
0001
1000
0001
,
1000
0100
0010
0001
0100
0001
1000
0010
1000
0100
0010
0001
1000
0001
0100
0001
,
1000
0100
0010
0001
0100
0001
1000
0010
1000
0100
0010
0001
1000
0001
0010
0100
,
1000
0001
0100
0010
0100
0001
1000
0100
0010
0001
1000
0001
1000
0010
0100
0001
,
1000
0100
1000
0001
0100
0010
0100
0001
1000
0001
0010
0100
1000
0010
0100
0001
,
1000
0100
0010
0001
0100
0001
1000
0010
1000
0100
0010
0001
1000
0001
0100
0001
,
1000
0100
0010
0001
0100
0001
1000
0010
1000
0100
0010
0001
1000
0001
0010
0100
,
1000
0001
0100
0010
0100
0001
1000
0100
0010
0001
1000
0001
1000
0010
0100
0001
,
1000
0100
1000
0001
0100
0010
0100
0001
1000
0001
0010
0100
1000
0010
1000
0001
,
1000
0010
0100
0001
0010
0001
1000
0100
1000
0010
0100
0001
1000
0001
0010
0001
,
1000
0010
0100
0001
0010
0001
1000
0100
1000
0010
0100
0001
1000
0001
0100
0010
,
1000
0001
0010
0100
0010
0001
1000
0010
0100
0001
1000
0001
1000
0100
0010
0001
,
1000
0010
1000
0001
0010
0100
0010
0001
1000
0001
0100
0010
1000
0100
0010
0001
,
1000
0010
1000
0001
0010
0001
1000
0010
0100
0001
1000
0100
0010
0001
1000
0001
,
1000
0100
1000
0001
0100
0001
1000
0100
0010
0001
1000
0010
0100
0001
1000
0001
,
1000
0010
1000
0001
0010
0001
1000
0010
0100
0001
1000
0100
0010
0001
0010
0100
,
1000
0010
1000
0001
0010
0100
0010
0001
0100
0010
1000
0100
0010
0001
0100
0010
,
1000
0000
0000
0000
0000
0000
0000
0000
000M
0000
0000
0000
0M00
0000
0000
0M00
,
00M0
0000
0000
0M00
00M0
0000
0000
0M00
00M0
0000
0000
0000
0000
0000
0000
0000
;

//---------------dance-single - 15- (ZaiYLR)----------------
#NOTES:
     dance-single:
     15- (ZaiYLR):
     Medium:
     15:
     1.000,1.000,0.271,0.523,1.000,1859.000,73.000,141.000,83.000,0.000:
0000
0000
0000
0000
,
0000
0000
0000
0000
,
0000
0000
0000
0000
,
0000
0000
0000
0000
,
0000
0000
0000
0000
,
0000
0000
0000
0000
,
0000
0000
0000
0000
,
0000
0000
0000
0000
,
0001
0100
0010
0100
0001
1000
0100
0010
,
0001
1000
0010
0100
0010
1000
0001
0010
,
0100
0010
0001
0100
0010
0100
0001
1000
,
0100
0010
0001
1000
0010
0100
0010
1000
,
1000
0001
0010
0001
1000
0010
1000
0001
,
0010
0100
1000
0001
0100
0010
0100
0001
,
1000
0000
0100
0000
0010
0000
0001
0000
1000
0000
0010
0000
M100
M000
M001
M000
,
M010
0000
0000
M000
0000
0000
M100
0000
0000
M000
0000
0000
M010
0000
0000
M000
0000
0000
M001
0000
0000
M000
0000
0000
M100
0000
0000
M000
0000
0000
M001
0000
0010
M000
0001
0000
M010
0000
0000
M000
0000
0000
M001
0000
0100
M000
0001
0000
,
M100
M000
M001
M000
M010
M000
M001
M000
M100
M000
M010
M000
M100
0000
0001
0000
,
1000
0010
1000
0100
0010
0001
0100
0001
,
1000
0000
0010
0000
010M
000M
001M
000M
100M
000M
010M
000M
001M
000M
010M
000M
,
100M
0000
000M
0010
000M
0000
010M
0000
000M
0010
000M
0000
2MM0
0000
0000
3001
0000
0000
1000
0000
0000
0010
0000
0000
,
0010
1000
0001
1000
0100
1000
0010
0100
,
0001
0010
0001
1000
0001
0010
0100
1000
,
0100
0010
0001
1000
0001
0100
0010
0100
,
0001
0000
0000
1000
0000
0000
0100
0000
0000
0010
0000
0000
0100
0000
0000
1000
0001
1000
0001
0000
0000
1000
0001
1000
,
0001
1000
0010
1000
0100
0010
0001
1000
,
0001
0100
0001
1000
0010
0100
0001
0010
,
0200
0300
0000
0000
1000
0000
0000
0000
0001
0000
0000
0000
0100
0000
0000
0000
0020
0M3M
0000
0000
1000
0000
0000
0000
0100
0000
0000
0000
0100
0000
0000
0000
,
0020
0M3M
0000
0000
1000
0000
0000
0000
0100
0000
0000
0000
0100
0000
0000
0000
0020
0M3M
0000
0000
1000
0000
0000
0000
0100
0000
0000
0000
0100
0000
0000
0000
,
0020
0M3M
0000
0000
1000
0000
0000
0000
0000
0000
0000
0000
0001
0000
0000
0000
0000
0000
0000
0000
1000
0000
0000
0000
0000
0000
0000
0000
0100
0000
0000
0000
,
0000
0010
0000
0001
0000
0010
0000
0100
,
0000
1000
0000
0010
0000
0100
0000
0001
,
0000
1000
0000
0100
0000
1000
0000
0001
,
1000
0010
1000
0010
0100
0000
0010
1000
0001
1000
0001
1000
0100
0000
1000
0001
,
0010
0100
0010
0100
1000
0000
0100
0010
0001
1000
0001
1000
0010
0000
0100
0010
,
1000
0001
1000
0001
0010
0000
0001
1000
0001
0100
0001
0100
0010
0000
0100
0001
,
1000
0001
0100
0010
1000
0000
0100
0010
0001
0000
0100
0010
1000
0000
1000
0000
,
0001
0010
0001
0010
0100
0000
0010
0001
1000
0001
1000
0001
0100
0000
0001
1000
,
0010
0100
0010
0100
0001
0000
0100
0010
1000
0001
1000
0001
0010
0000
0100
0010
,
0001
1000
0001
1000
0010
0000
1000
0001
1000
0100
1000
0100
0010
0000
0100
1000
,
0001
0000
0000
1000
0000
0000
0100
0000
0000
0010
0000
0000
0001
0000
0000
0000
0000
0000
0100
0000
0000
0010
0000
0000
1000
0000
0000
0000
0000
0000
0001
0000
1000
0000
0001
0000
1000
0000
0000
0000
0000
0000
0001
0000
1000
0000
0001
0000
,
1000
0100
1000
0100
0010
0000
0100
1000
0001
1000
0001
1000
0010
0000
1000
0001
,
0100
0010
0100
0010
1000
0000
0010
0100
0001
1000
0001
1000
0100
0000
0010
0100
,
1000
0001
1000
0001
0100
0000
0001
1000
0001
0010
0001
0010
0100
0000
0010
0001
,
1000
0001
0010
0100
1000
0000
0010
0100
0001
0000
0010
0100
1000
0000
1000
0000
,
0001
0100
0001
0100
0010
0000
0100
0001
1000
0001
1000
0001
0010
0000
0001
1000
,
0100
0010
0100
0010
0001
0000
0010
0100
1000
0001
1000
0001
0100
0000
0010
0100
,
0001
1000
0001
1000
0100
0000
1000
0001
1000
0010
1000
0010
0100
0000
0010
1000
,
0004
4000
0000
0000
0000
0000
0000
0000
0000
0000
0000
0000
0000
0000
0000
0003
,
3010
0100
0010
0100
0001
0000
0100
0010
1000
0001
1000
0001
0010
0000
0001
1000
,
0100
0010
0100
0010
0001
0000
0010
0100
1000
0001
1000
0001
0100
0000
0010
0100
,
0001
1000
0001
1000
0100
0000
1000
0001
1000
0010
1000
0010
0100
0000
0010
1000
,
0001
1000
0010
0100
0001
0000
0010
0100
1000
0000
0010
0100
0001
0000
0001
0000
,
1000
0100
1000
0100
0010
0000
0100
1000
0001
1000
0001
1000
0010
0000
1000
0001
,
0100
0010
0100
0010
1000
0000
0010
0100
0001
1000
0001
1000
0100
0000
0010
0100
,
1000
0001
1000
0001
0100
0000
0001
1000
0001
0010
0001
0010
0100
0000
0010
0001
,
1000
0000
0001
0000
1000
0000
0001
0000
1000
0010
1000
0010
0100
0001
0010
0100
,
1000
0010
1000
0010
0100
0000
0010
1000
0001
1000
0001
1000
0100
0000
1000
0001
,
0010
0100
0010
0100
1000
0000
0100
0010
0001
1000
0001
1000
0010
0000
0100
0010
,
1000
0001
1000
0001
0010
0000
0001
1000
0001
0100
0001
0100
0010
0000
0100
0001
,
1000
0001
0100
0010
1000
0000
0100
0010
0001
0000
0100
0010
1000
0000
1000
0000
,
0001
0010
0001
0010
0100
0000
0010
0001
1000
0001
1000
0001
0100
0000
0001
1000
,
0010
0100
0010
0100
0001
0000
0100
0010
1000
0001
1000
0001
0010
0000
0100
0010
,
0001
1000
0001
1000
0010
0100
0001
1000
0100
0010
0100
0010
0001
1000
0010
0100
,
0004
4000
0000
0000
0000
0000
0000
0000
0000
0000
0000
0000
0000
0000
0000
0003
,
3002
0010
1003
0002
0010
1003
0002
1003
,
0002
0010
1003
0002
0010
1003
0002
1003
,
0001
0100
0010
1000
M000
0100
0001
1000
,
0100
0010
0100
1000
0010
0100
0001
0001
,
2000
0010
3001
2000
0010
3001
2000
3001
,
2000
0010
3001
2000
0010
3001
2000
3001
,
1000
0100
0010
0001
000M
0100
1000
0001
,
0100
0000
0000
0010
0000
0000
0100
0000
0000
0001
0000
0000
0010
0000
0000
0001
1000
0001
1000
0000
0000
0001
1000
0001
,
2000
0100
3001
2000
0100
3001
2000
3001
,
2000
0100
3001
2000
0100
3001
2000
3001
,
1000
0010
0100
0001
000M
0010
1000
0001
,
0010
0100
0010
0001
0100
0010
1000
1000
,
0002
0100
1003
0002
0100
1003
0002
1003
,
0002
0100
1003
0002
0100
1003
0002
1003
,
0001
0010
0100
1000
M000
0010
0001
1000
,
0010
0000
0000
0100
0000
0000
0010
0000
0000
1000
0000
0000
0100
0000
0000
1000
0001
1000
0001
0000
0000
1000
0001
1000
,
0002
0100
1003
0002
0100
1003
0002
1003
,
0002
0100
1003
0002
0100
1003
0002
1003
,
0001
0010
0100
1000
M000
0010
0001
1000
,
0010
0100
0010
1000
0100
0010
0001
0001
,
2000
0100
3001
2000
0100
3001
2000
3001
,
2000
0100
3001
2000
0100
3001
2000
3001
,
1000
0010
0100
0001
000M
0010
1000
0001
,
0010
0000
0000
0100
0000
0000
0010
0000
0000
0001
0000
0000
0100
0000
0000
0001
1000
0001
1000
0000
0000
0001
1000
0001
,
2000
0010
3001
2000
0010
3001
2000
3001
,
2000
0010
3001
2000
0010
3001
2000
3001
,
1000
0100
0010
0001
000M
0100
1000
0001
,
0100
0010
0100
0001
0010
0100
1000
1000
,
1001
0000
0000
0011
0000
0000
0110
0000
0000
1100
0000
0000
1000
0000
0001
0000
,
0101
0000
0000
0110
0000
0000
1010
0000
0000
1001
0000
0000
0001
0000
0010
0000
,
0110
0000
0000
1100
0000
0000
1001
0000
0000
0101
0000
0000
0010
0000
1000
0000
,
0001
0000
0100
0000
0001
0000
0100
0000
0010
1000
0010
1000
0100
0010
0001
1000
,
0020
0000
0000
1000
,
0000
0000
0000
0000
,
2030
0000
0000
0001
,
0000
0000
0000
0000
,
3002
0000
0000
0100
,
0000
0000
0000
0000
,
0023
0000
0000
0100
,
0000
0000
0032
0000
,
2003
0000
0000
0010
,
0000
0000
0000
0000
,
3200
0000
0000
0010
,
0000
2300
3020
0230
,
0302
0000
0000
1000
,
0000
0000
0000
0000
,
0023
0000
0000
0100
,
0000
0000
0000
0000
0000
0000
0000
0000
0000
0000
0000
0000
0000
0000
0000
0000
0000
0000
0000
0000
0000
0000
0000
0000
0000
0000
0000
0000
0000
0000
0000
0000
0000
0000
0000
0000
0000
0000
0000
0000
0000
0000
0000
0000
0000
0000
0000
0000
0000
0000
0000
0000
0000
0000
0000
0000
0000
0000
0000
0000
0000
0000
0000
0030
,
1001
0002
0000
0023
,
0230
0000
0320
0032
,
0000
2003
3020
0000
,
0230
0000
0000
0300
,
0002
2003
0000
3020
,
0230
0000
0320
2030
,
0000
3200
0320
0000
,
0032
0000
0003
2000
,
3020
0230
0000
0302
,
2003
0000
3020
2030
,
0000
3002
0023
0000
,
0230
0000
0000
0320
,
0032
2003
0000
3020
,
0230
0000
0320
2030
,
0000
3002
0203
0302
,
0023
0000
0230
0000
,
1300
0001
0000
0000
1000
0000
0000
0010
0000
0000
1000
0000
0001
0000
1000
0000
,
0010
0100
0000
0000
0010
0000
0000
1000
0000
0000
0100
0000
0010
0000
0001
0000
,
0100
0001
0000
0000
0100
0000
0000
0010
0000
0000
1000
0000
0100
0000
1000
0000
,
0001
0010
0000
0000
0100
0000
0000
0010
0000
0000
0001
0000
1000
0000
0010
0000
,
0100
0010
0000
0000
1000
0000
0000
0001
0000
0000
0010
0000
0001
0000
1000
0000
,
0001
0100
0000
0000
0010
0000
0000
0100
0000
0000
0001
0000
1000
0000
0100
0000
,
1000
0001
0000
0000
0100
0000
0000
0010
0000
0000
1000
0000
0100
0000
0010
0000
,
0001
1000
0000
0000
0010
0000
0000
1000
0000
0000
0100
0000
0010
0000
0100
0000
,
1000
0001
0000
0000
1000
0000
0000
0100
0000
0000
1000
0000
0001
0000
1000
0000
,
0100
0010
0000
0000
0100
0000
0000
1000
0000
0000
0010
0000
0100
0000
0001
0000
,
0010
0001
0000
0000
0010
0000
0000
0100
0000
0000
1000
0000
0010
0000
1000
0000
,
0001
0100
0000
0000
0010
0000
0000
0100
0000
0000
0001
0000
1000
0000
0100
0000
,
0010
0100
0000
0000
1000
0000
0000
0001
0000
0000
0100
0000
0001
0000
1000
0000
,
0001
0010
0000
0000
0100
0000
0000
0010
0000
0000
0001
0000
1000
0000
0010
0000
,
1000
0001
0000
0000
0010
0000
0000
0100
0000
0000
1000
0000
0010
0000
0100
0000
,
0001
1000
0000
0000
0001
0000
0000
0010
0000
0000
0001
0000
1000
0000
0010
0000
,
0110
1001
0011
0110
,
1100
1001
1010
0110
,
0101
1001
1100
0011
,
0110
0000
1100
0000
0101
0000
0001
1000
,
1010
0110
0101
1001
,
0011
1100
1001
1010
,
0101
0110
1001
0011
,
1100
0000
0000
0000
0000
0000
1010
0000
0000
0000
0000
0000
0101
0000
0000
0001
1000
0001
1000
0000
0000
0001
1000
0001
,
1000
1001
1100
0110
,
0011
1001
0101
0110
,
1010
1001
0011
1100
,
0110
0000
1001
0000
0011
0000
1000
0100
,
1001
0000
0000
0000
,
0000
0000
0000
0000
,
0000
0000
0000
0000
,
1001
0000
0000
0000
,
0001
0010
0001
0100
0001
1000
0010
1000
0100
1000
0001
0100
0010
1000
0001
0010
,
0001
1000
0010
0100
0001
1000
0001
0010
0001
1000
0100
1000
0001
0100
0010
1000
,
0001
0010
0001
1000
0100
0010
0001
1000
0100
1000
0001
0010
0100
0010
0001
1000
,
0001
0100
0010
0100
0001
1000
0001
0010
0001
1000
0100
1000
0001
0100
0010
1000
,
0001
0010
0100
0010
0001
1000
0100
0010
0001
0010
0100
1000
0001
1000
0010
0100
,
0001
1000
0010
0100
0001
1000
0100
0010
0001
1000
0001
0010
0001
0100
0010
1000
,
0001
0010
0001
0100
0010
1000
0001
0100
0010
1000
0001
1000
0010
0100
0001
1000
,
0100
0010
0100
1000
0001
0100
0010
1000
0001
1000
0100
0010
0001
1000
0010
0100
,
0001
1000
0010
1000
0100
1000
0001
0010
0001
0100
0001
1000
0100
0010
0001
1000
,
0001
0010
0100
1000
0001
1000
0010
1000
0001
0100
0001
1000
0100
0010
0001
1000
,
0010
1000
0001
0100
0010
1000
0001
0100
0001
1000
0010
0100
0010
1000
0001
1000
,
0100
0010
0100
1000
0001
1000
0010
1000
0001
0100
0001
1000
0100
0010
0001
1000
,
0010
0100
0010
1000
0001
0100
0010
1000
0010
0100
0001
1000
0001
0010
0001
1000
,
0001
0010
0100
1000
0001
0100
0010
1000
0001
1000
0010
1000
0100
0010
0001
1000
,
0010
1000
0100
0010
0001
1000
0100
0010
0001
1000
0001
0010
0100
1000
0001
0100
,
0010
0100
0001
1000
0100
0010
0001
1000
0001
0100
0010
1000
0001
0010
0100
1000
,
0001
0100
0001
0010
0001
1000
0100
1000
0010
1000
0001
0010
0100
1000
0001
0100
,
0001
1000
0100
0010
0001
1000
0001
0100
0001
1000
0010
1000
0001
0010
0100
1000
,
0001
0100
0001
1000
0010
0100
0001
1000
0010
1000
0001
0100
0010
0100
0001
1000
,
0001
0010
0100
0010
0001
1000
0001
0100
0001
1000
0010
1000
0001
0010
0100
1000
,
0001
0100
0010
0100
0001
1000
0010
0100
0001
0100
0010
1000
0001
1000
0100
0010
,
0001
1000
0100
1000
0001
1000
0010
0100
0001
1000
0001
0100
0001
0010
0100
1000
,
0001
0100
0001
0010
0100
1000
0001
0010
0100
1000
0001
1000
0100
0010
0001
1000
,
0010
0100
0010
1000
0001
0010
0100
1000
0001
1000
0010
0100
0001
1000
0100
0010
,
0001
1000
0100
1000
0010
1000
0001
0100
0001
0010
0001
1000
0010
0100
0001
1000
,
0001
0100
0010
1000
0001
1000
0100
1000
0001
0010
0001
1000
0010
0100
0001
1000
,
0100
1000
0001
0010
0100
1000
0001
0010
0001
1000
0100
0010
0100
1000
0001
1000
,
0010
0100
0010
1000
0001
1000
0100
1000
0001
0010
0001
1000
0010
0100
0001
1000
,
0100
1000
0001
0100
0001
1000
0100
1000
0001
0100
0001
1000
0100
0010
0100
1000
,
0010
1000
0001
0010
0001
1000
0010
1000
0001
0010
0001
1000
0010
0100
0010
1000
,
0100
0010
0001
0100
0001
0010
0100
1000
0010
0100
0010
1000
0100
0010
0100
1000
,
0010
0100
0010
1000
0100
0010
0001
0100
0010
1000
0001
0010
0100
1000
0010
0100
,
0002
0010
1003
0002
0010
1003
0002
1003
,
0002
0010
1003
0002
0010
1003
0002
1003
,
0001
0100
0010
1000
M000
0100
0001
1000
,
0100
0010
0100
1000
0010
0100
0001
0001
,
2000
0010
3001
2000
0010
3001
2000
3001
,
2000
0010
3001
2000
0010
3001
2000
3001
,
1000
0100
0010
0001
000M
0100
1000
0001
,
0100
0000
0000
0010
0000
0000
0100
0000
0000
0001
0000
0000
0010
0000
0000
0001
1000
0001
1000
0000
0000
0001
1000
0001
,
2000
0100
3001
2000
0100
3001
2000
3001
,
2000
0100
3001
2000
0100
3001
2000
3001
,
1000
0010
0100
0001
000M
0010
1000
0001
,
0010
0100
0010
0001
0100
0010
1000
1000
,
0002
0100
1003
0002
0100
1003
0002
1003
,
0002
0100
1003
0002
0100
1003
0002
1003
,
0001
0010
0100
1000
M000
0010
0001
1000
,
0010
0000
0000
0100
0000
0000
0010
0000
0000
1000
0000
0000
0100
0000
0000
1000
0001
1000
0001
0000
0000
1000
0001
1000
,
0002
0100
1003
0002
0100
1003
0002
1003
,
0002
0100
1003
0002
0100
1003
0002
1003
,
0001
0010
0100
1000
M000
0010
0001
1000
,
0010
0100
0010
1000
0100
0010
0001
0001
,
2000
0100
3001
2000
0100
3001
2000
3001
,
2000
0100
3001
2000
0100
3001
2000
3001
,
1000
0010
0100
0001
000M
0010
1000
0001
,
0010
0000
0000
0100
0000
0000
0010
0000
0000
0001
0000
0000
0100
0000
0000
0001
1000
0001
1000
0000
0000
0001
1000
0001
,
2000
0010
3001
2000
0010
3001
2000
3001
,
2000
0010
3001
2000
0010
3001
2000
3001
,
1000
0100
0010
0001
000M
0100
1000
0001
,
0100
0010
0100
0001
0010
0100
1000
1000
,
1001
0000
0000
0011
0000
0000
0110
0000
0000
1100
0000
0000
1000
0000
0001
0000
,
0101
0000
0000
0110
0000
0000
1010
0000
0000
1001
0000
0000
0001
0000
0010
0000
,
0110
0000
0000
1100
0000
0000
1001
0000
0000
0101
0000
0000
0010
0000
1000
0000
,
0001
0000
0100
0000
0001
0000
0100
0000
0010
1000
0010
1000
0100
0010
0001
1000
,
0100
0000
0000
0000
0000
0000
0000
0000
000M
0000
0000
0000
00M0
0000
0000
00M0
,
0M00
0000
0000
00M0
0M00
0000
0000
00M0
0M00
0000
0000
0000
0000
0000
0000
0000
;

//---------------dance-single - Oh Henry!----------------
#NOTES:
     dance-single:
     Oh Henry!:
     Edit:
     18:
     1.000,1.000,0.004,0.030,1.000,3178.000,1.000,8.000,1.000,0.000:
1000
0100
0010
0001
1000
0001
0010
0100
1000
0001
0100
0001
1000
0010
1000
0001
,
0010
0100
1000
0001
1000
0100
0010
0001
1000
0010
0100
0010
1000
0001
0100
0001
,
1000
0100
0010
0100
1000
0010
0100
0001
1000
0010
1000
0001
0100
0001
1000
0010
,
1000
0100
0010
0001
1000
0100
0010
0100
1000
0010
0100
0001
1000
0001
0100
0010
,
1000
0100
0010
0100
1000
0010
0100
0001
0100
0010
1000
0100
1000
0001
0010
0001
,
0100
0010
1000
0010
0100
0001
0010
0100
1000
0010
0100
0001
1000
0100
0010
0100
,
1000
0001
0100
0001
1000
0010
1000
0001
0010
0100
1000
0001
0010
0001
1000
0100
,
1000
0001
0100
0010
0100
0001
1000
0010
1000
0001
0010
0001
0100
0010
1000
0100
,
1000
0001
0100
0010
1000
0001
0100
0001
1000
0100
0010
0100
1000
0001
0010
0001
,
1000
0010
1000
0001
0100
0001
1000
0010
1000
0001
0010
0100
1000
0001
0010
0001
,
1000
0010
0100
0001
0100
0010
1000
0001
1000
0100
0010
0001
1000
0100
1000
0001
,
0100
0010
0100
0001
1000
0010
1000
0001
0010
0100
0010
0001
1000
0100
1000
0010
,
0100
0001
1000
0010
1000
0001
0100
0001
1000
0100
0010
0001
1000
0001
0010
0100
,
1000
0001
0100
0001
1000
0010
1000
0001
0010
0100
0010
0001
1000
0100
0010
0001
,
1000
0010
0100
0010
1000
0001
0100
0001
1000
0100
0010
0001
1000
0100
1000
0001
,
0100
0010
1000
0001
0100
0001
1000
0010
1000
0100
0010
0001
0100
0010
1000
0100
,
0010
0001
1000
0001
0010
0100
0010
0001
1000
0010
0100
0010
1000
0001
0100
0001
,
1000
0100
0010
0100
1000
0001
0010
0100
1000
0001
0100
0001
1000
0010
1000
0001
,
0010
0100
0010
0001
1000
0100
0010
0001
1000
0010
0100
0001
1000
0001
0100
0010
,
1000
0001
0010
0001
1000
0100
1000
0001
0100
0010
0100
0001
1000
0010
1000
0100
,
0010
0001
1000
0100
1000
0001
0010
0100
1000
0001
0100
0001
1000
0010
1000
0001
,
0010
0100
0010
0001
1000
0100
1000
0001
0100
0010
1000
0001
0100
0001
1000
0010
,
1000
0001
0010
0100
1000
0001
0010
0001
1000
0010
1000
0001
0100
0010
1000
0001
,
1000
0100
0010
0001
1000
0001
0010
0100
1000
0001
0100
0010
1000
0100
0010
0100
,
1000
0010
0100
0001
1000
0001
0100
0010
1000
0001
0010
0100
1000
0001
0010
0001
,
1000
0010
0100
0010
1000
0001
0100
0001
1000
0100
1000
0001
0010
0100
1000
0001
,
0100
0010
1000
0001
0100
0001
1000
0010
1000
0001
0010
0100
1000
0001
0010
0001
,
1000
0010
1000
0001
0100
0010
1000
0001
1000
0100
0010
0100
1000
0010
0100
0001
,
1000
0010
0100
0010
1000
0100
0010
0001
1000
0010
0100
0010
1000
0100
0010
0001
,
1000
0001
0100
0010
1000
0100
0010
0001
1000
0001
0100
0010
1000
0100
0010
0001
,
1000
0001
0010
0100
1000
0010
0100
0001
1000
0001
0010
0100
1000
0010
0100
0001
,
1000
0100
0010
0100
1000
0010
0100
0001
1000
0100
0010
0100
1000
0010
0100
0001
,
0010
0100
0010
0001
1000
0010
1000
0010
0100
0001
1000
0100
0010
0001
0010
0100
,
1000
0001
0100
0001
1000
0100
1000
0100
0010
0001
1000
0001
0100
0010
1000
0001
,
0010
0100
1000
0001
0100
0010
0100
0010
1000
0001
1000
0100
0010
0100
1000
0001
,
0100
0010
1000
0001
0010
0100
0010
0100
1000
0010
1000
0001
1000
0100
0010
0001
,
0100
0010
0100
0001
1000
0100
1000
0100
0010
0001
1000
0010
1000
0001
0100
0010
,
1000
0001
0010
0001
1000
0010
1000
0010
1000
0001
0010
0100
0010
0001
1000
0100
,
1000
0001
0100
0001
1000
0100
1000
0100
0010
0001
1000
0010
1000
0001
0100
0001
,
1000
0100
1000
0001
0100
0010
0100
0010
1000
0100
0010
0001
0100
0010
1000
0100
,
1000
0010
0100
0001
1000
0100
1000
0100
0010
0001
1000
0010
0100
0001
0100
0010
,
1000
0001
0010
0001
1000
0010
1000
0010
0100
0001
1000
0001
0010
0100
1000
0001
,
0100
0010
1000
0001
0010
0100
0010
0100
1000
0001
1000
0010
0100
0010
1000
0001
,
0010
0100
1000
0001
0100
0010
0100
0010
1000
0001
0010
0100
1000
0010
0100
0010
,
1000
0001
0100
0001
1000
0100
1000
0100
0010
0001
1000
0010
1000
0001
0100
0001
,
1000
0100
1000
0001
0100
0010
0100
0010
1000
0001
0010
0100
0010
0001
1000
0100
,
1000
0001
0100
0001
1000
0100
1000
0100
0010
0001
1000
0010
1000
0001
0100
0001
,
1000
0100
0010
0001
0100
0010
0100
0001
1000
0001
0010
0100
1000
0010
0100
0010
,
1000
0001
0010
0001
1000
0010
1000
0010
0100
0001
1000
0100
0010
0100
1000
0001
,
0100
0010
0100
0001
1000
0100
1000
0100
0010
0001
1000
0010
1000
0001
0100
0001
,
1000
0100
1000
0001
0100
0010
0100
0010
1000
0001
0010
0100
1000
0001
0010
0001
,
1000
0010
0100
0001
1000
0100
1000
0100
0010
0001
0100
0001
1000
0001
0100
0010
,
1000
0100
0010
0100
1000
0010
1000
0010
0100
0001
0010
0100
0010
0001
1000
0100
,
1000
0001
0100
0001
0010
0100
0010
0100
1000
0001
0010
0001
0100
0010
1000
0001
,
1000
0100
0010
0001
1000
0010
1000
0010
0100
0001
1000
0100
1000
0001
0010
0001
,
1000
0010
0100
0001
1000
0100
0010
0001
1000
0010
1000
0100
0010
0001
0100
0001
,
1000
0010
0100
0010
1000
0100
1000
0100
0010
0001
0100
0010
0100
0001
1000
0010
,
1000
0001
0010
0001
0100
0010
0100
0010
1000
0001
0100
0001
0010
0100
1000
0001
,
1000
0010
0100
0001
1000
0100
1000
0100
0010
0001
1000
0010
1000
0001
0100
0001
,
1000
0100
0010
0001
1000
0010
1000
0010
0100
0001
0010
0001
1000
0001
0100
0010
,
1000
0001
0010
0100
1000
0010
0100
0001
1000
0001
0010
0100
1000
0010
0100
0001
,
1000
0100
0010
0001
0100
0010
0100
0001
1000
0100
0010
0001
0100
0010
0100
0001
,
1000
0100
0010
0100
1000
0010
0100
0001
1000
0100
0010
0100
1000
0010
0100
0001
,
1000
0001
0010
0100
1000
0010
0100
0010
1000
0100
0010
0001
0100
0010
1000
0100
,
1000
0001
0100
0001
0010
0100
1000
0001
0010
0100
0010
0001
0100
0010
1000
0001
,
0010
0100
0010
0001
0100
0010
1000
0001
0100
0001
1000
0010
1000
0100
0010
0001
,
1000
0010
0100
0010
1000
0100
0010
0100
1000
0001
0010
0100
1000
0010
0100
0001
,
1000
0100
0010
0100
1000
0010
0100
0001
1000
0100
1000
0010
1000
0001
1000
0100
,
0010
0001
0010
0100
1000
0010
0100
0010
1000
0001
0100
0001
0010
0100
1000
0001
,
0100
0001
1000
0010
1000
0100
0010
0001
1000
0001
0010
0100
1000
0010
0100
0010
,
1000
0001
0010
0100
1000
0010
0100
0001
1000
0001
0100
0010
1000
0100
0010
0100
,
1000
0001
0100
0010
1000
0100
0010
0001
1000
0010
1000
0100
0010
0001
0100
0010
,
1000
0001
0010
0001
0100
0010
1000
0001
0100
0010
0100
0001
0010
0100
1000
0001
,
0100
0010
0100
0001
0010
0100
1000
0001
0010
0001
1000
0100
1000
0010
0100
0001
,
1000
0100
0010
0100
1000
0010
0100
0010
1000
0001
0100
0010
1000
0100
0010
0001
,
1000
0010
0100
0010
1000
0100
0010
0001
1000
0010
1000
0100
1000
0001
1000
0010
,
0100
0001
0100
0010
1000
0100
0010
0100
1000
0001
0010
0001
0100
0010
1000
0001
,
0010
0001
1000
0100
1000
0010
0100
0001
1000
0001
0100
0010
1000
0100
0010
0100
,
1000
0001
0100
0010
1000
0100
0010
0001
1000
0001
0010
0100
1000
0010
0100
0010
,
1000
0001
0010
0100
1000
0010
0100
0001
1000
0100
1000
0010
0100
0001
0010
0100
,
1000
0010
0100
0010
1000
0100
0010
0100
1000
0001
0010
0100
1000
0010
0100
0010
,
1000
0001
0010
0100
1000
0010
1000
0001
0100
0010
0100
0001
0010
0100
1000
0001
,
0100
0010
0100
0001
0010
0100
1000
0001
0100
0010
0100
0001
0100
0010
0100
0001
,
0010
0100
0010
0001
1000
0010
0100
0010
1000
0001
0010
0001
0100
0001
1000
0001
,
0010
0100
0010
0001
0100
0010
1000
0001
0100
0001
1000
0010
1000
0100
0010
0001
,
0100
0010
0100
0001
0100
0010
0100
0001
0100
0010
1000
0100
0010
0001
1000
0100
,
1000
0001
0100
0010
1000
0100
0010
0100
1000
0001
0010
0100
1000
0010
0100
0001
,
1000
0100
0010
0100
1000
0010
0100
0001
0010
0001
1000
0010
1000
0100
0010
0001
,
0100
0001
1000
0010
1000
0100
0010
0001
1000
0001
0010
0100
1000
0010
1000
0001
,
0010
0001
1000
0100
1000
0010
0100
0001
1000
0010
0100
0010
1000
0100
0010
0001
,
1000
0001
0100
0010
1000
0100
1000
0001
0010
0001
1000
0100
1000
0010
0100
0001
,
1000
0100
0010
0100
1000
0010
0100
0010
1000
0001
0010
0001
0100
0001
1000
0001
,
0100
0010
1000
0001
0010
0001
0100
0010
1000
0001
0010
0001
0100
0010
1000
0100
,
1000
0001
0010
0001
0100
0010
1000
0001
0010
0001
0100
0010
1000
0100
0010
0001
,
0100
0010
1000
0100
1000
0001
0100
0010
1000
0100
1000
0001
0100
0001
0010
0100
,
1000
0010
0100
0001
1000
0100
0010
0100
1000
0010
0100
0001
0010
0100
0010
0001
,
0200
0000
0000
0001
,
0000
0000
0000
0000
,
0320
0000
0000
1000
,
0000
0000
0000
0000
,
2030
0000
0000
0100
,
0000
0000
0000
0000
,
3002
0000
0000
0010
,
0000
0000
2003
0000
,
3020
0000
0000
1000
,
0000
0000
0000
0000
,
0230
0000
0000
0001
,
0000
0000
0000
0300
,
0002
0000
0000
0010
,
0000
0000
0000
0003
,
0001
0010
0100
1000
0001
0010
0001
1000
0010
0100
0010
1000
0001
0100
0010
1000
,
0100
0010
0100
1000
0010
0100
0001
0010
0100
1000
0010
0100
0001
1000
0100
0000
,
1100
1000
0000
0010
,
0100
0000
0001
0010
,
0000
0001
0100
0000
,
0010
1000
0100
0010
,
0001
0001
0000
0100
,
0010
0000
1000
0100
,
0000
1000
0010
0000
,
0100
0000
0001
0010
,
0100
0100
0000
1000
,
0010
0000
0100
0001
,
0000
0010
0100
0000
,
1000
0010
0100
0001
,
1000
1000
0000
0010
,
0100
0000
0001
0010
,
0000
0100
1000
0010
,
0100
0001
0010
0100
0010
0001
0100
0010
1000
0010
0100
0001
0010
0100
1000
0000
,
0001
0010
0100
1000
0001
0010
0001
1000
0100
0010
0001
1000
0001
0010
0100
1000
,
0010
0100
0010
1000
0001
0100
0001
1000
0100
0010
0100
1000
0001
0100
0010
0100
,
0001
1000
0100
0010
0001
1000
0001
0010
0100
1000
0001
0010
0001
1000
0100
1000
,
0010
0100
0010
1000
0001
0100
0001
1000
0100
0010
0100
1000
0001
0100
0010
0100
,
0001
0010
0100
1000
0001
1000
0100
0010
0001
1000
0100
1000
0010
0100
0010
1000
,
0001
0010
0100
1000
0001
1000
0010
0100
0001
1000
0010
1000
0001
0010
0100
1000
,
0001
0100
0010
0100
0001
1000
0010
1000
0001
0100
0010
0100
0001
1000
0001
0010
,
0100
1000
0100
0010
0001
1000
0010
1000
0001
0010
0100
1000
0010
0100
0001
0010
,
0001
1000
0010
1000
0001
0100
0001
1000
0010
0100
0001
1000
0001
0100
0010
1000
,
0100
0010
0100
1000
0001
0010
0001
1000
0010
0100
0010
1000
0001
0010
0100
0010
,
0001
1000
0010
0100
0001
1000
0001
0100
0010
1000
0001
0100
0001
1000
0010
1000
,
0100
0010
0100
1000
0001
0010
0001
1000
0010
0100
0010
1000
0001
0010
0100
0010
,
0001
0100
0010
1000
0001
1000
0010
0100
0001
1000
0010
1000
0100
0010
0100
1000
,
0001
0100
0010
1000
0001
1000
0100
0010
0001
1000
0100
1000
0001
0100
0010
1000
,
0001
0010
0100
0010
0001
1000
0100
1000
0001
0010
0100
0010
0001
1000
0001
0100
,
0010
1000
0100
0010
0001
0100
0010
1000
0010
0100
0001
0010
0100
0010
0001
0100
,
0001
1000
0010
1000
0001
0100
0001
1000
0100
0010
0001
1000
0001
0100
0010
1000
,
0100
0010
0100
1000
0001
0010
0001
1000
0010
0100
0010
1000
0001
0010
0100
0010
,
0001
1000
0010
0100
0001
1000
0001
0010
0100
1000
0001
0100
0001
1000
0010
1000
,
0100
0010
0100
1000
0001
0010
0001
1000
0010
0100
0010
1000
0001
0010
0100
0010
,
0001
0100
0010
1000
0001
1000
0100
0010
0001
1000
0010
1000
0100
0010
0100
1000
,
0001
0100
0010
1000
0001
1000
0100
0010
0001
1000
0100
1000
0001
0100
0010
1000
,
0001
0100
0010
0100
0001
1000
0100
1000
0001
0100
0010
0100
0001
1000
0001
0010
,
0100
1000
0100
0010
0001
1000
0010
1000
0001
0010
0100
1000
0010
0100
0001
0010
,
0001
1000
0100
1000
0001
0010
0001
1000
0010
0100
0001
1000
0001
0010
0100
1000
,
0010
0100
0010
1000
0001
0100
0001
1000
0100
0010
0100
1000
0001
0100
0010
0100
,
0001
1000
0100
0010
0001
1000
0001
0100
0010
1000
0001
0010
0001
1000
0100
1000
,
0010
0100
0010
1000
0001
0100
0001
1000
0100
0010
0100
1000
0001
0100
0010
0100
,
0001
1000
0001
0100
0010
1000
0001
0010
0100
1000
0100
0010
0001
1000
0010
1000
,
0001
0010
0100
1000
0100
0010
0001
1000
0010
0100
0010
1000
0001
0010
0100
1000
,
0010
0100
0010
1000
0100
0010
0001
0100
0001
1000
0010
1000
0100
0010
0100
1000
,
0010
0100
0010
1000
0001
0100
0001
1000
0100
0010
0001
1000
0010
1000
0001
0100
,
0001
0010
0100
0010
0001
1000
0100
1000
0001
0100
0010
0100
0001
1000
0100
1000
,
0010
0100
0010
1000
0001
0100
0001
0010
0100
1000
0100
0010
0001
0100
0010
0100
,
0001
0010
0100
1000
0001
0010
0100
0010
0001
1000
0010
1000
0001
0010
0100
0010
,
0001
0100
0010
1000
0010
0100
0001
0010
0100
1000
0001
0010
0001
0100
0010
0100
,
0001
0010
0100
1000
0001
1000
0100
0010
0001
0010
0100
1000
0001
1000
0010
1000
,
0100
0010
0001
0010
0100
0010
0001
0100
0010
1000
0010
0100
0001
0010
0100
1000
,
0001
0100
0010
0100
0001
1000
0010
1000
0001
0010
0100
1000
0001
0100
0010
0100
,
0001
0010
0100
1000
0001
0100
0001
1000
0100
1000
0001
0100
0001
0010
0100
1000
,
0010
0100
0001
0100
0010
1000
0001
0100
0001
1000
0100
0010
0001
1000
0010
1000
,
0100
0010
0100
1000
0001
0010
0001
0100
0010
1000
0010
0100
0001
0010
0100
0010
,
0001
0100
0010
1000
0001
0100
0010
0100
0001
1000
0100
1000
0001
0100
0010
0100
,
0001
0010
0100
1000
0100
0010
0001
0100
0010
1000
0001
0100
0001
0010
0100
0010
,
0001
0100
0010
1000
0001
1000
0010
0100
0001
0100
0010
1000
0001
0100
0001
0010
,
0001
1000
0010
0100
0010
1000
0001
0010
0100
1000
0100
0010
0001
0100
0010
1000
,
0001
0010
0100
0010
0001
1000
0100
1000
0001
0100
0010
1000
0001
0010
0100
0010
,
0001
0100
0010
1000
0001
0010
0001
1000
0010
1000
0001
0010
0001
0100
0010
1000
,
0100
0010
0001
1000
0100
0010
0100
1000
0001
0100
0001
1000
0100
0010
0100
1000
,
0010
1000
0001
0100
0010
0100
0001
0010
0001
1000
0100
0010
0001
0100
0010
0100
,
0001
0010
0100
0010
0001
1000
0100
1000
0001
0100
0010
1000
0001
0010
0100
0010
,
0001
0100
0010
1000
0001
0100
0001
0010
0100
1000
0001
0010
0001
0100
0010
0100
,
0001
0010
0100
0010
0001
1000
0100
1000
0001
0010
0100
1000
0001
1000
0010
1000
,
0100
0010
0001
0010
0100
0010
0001
0100
0010
1000
0001
0100
0001
0010
0100
1000
,
0001
1000
0010
0100
0001
1000
0010
1000
0001
0010
0100
0010
0001
1000
0010
0100
,
0001
0010
0100
0010
0001
1000
0010
1000
0001
0010
0100
1000
0010
1000
0100
0010
,
0001
0100
0001
1000
0010
0100
0010
1000
0001
0010
0001
1000
0010
0100
0010
1000
,
0100
1000
0001
0010
0100
0010
0001
0100
0001
1000
0010
0100
0001
0010
0100
0010
,
0001
0100
0010
0100
0001
1000
0010
1000
0001
0010
0100
1000
0001
0100
0010
0100
,
0001
0010
0100
1000
0001
0010
0001
0100
0010
1000
0001
0100
0001
0010
0100
0010
,
0001
0100
0010
1000
0100
1000
0001
0100
0010
1000
0100
1000
0001
0100
0010
1000
,
0100
0010
0001
0100
0001
1000
0100
0010
0001
0100
0001
1000
0100
0010
0100
1000
,
0001
0010
0001
0100
0010
1000
0001
0010
0001
0100
0010
1000
0001
0010
0100
1000
,
0010
0100
0010
1000
0001
0010
0100
1000
0001
0100
0001
1000
0100
0010
0001
0100
,
0001
1000
0010
1000
0100
0010
0001
1000
0100
0010
0100
1000
0010
0100
0001
1000
,
0100
0010
0100
1000
0010
0100
0001
1000
0010
1000
0001
0100
0001
0010
0100
1000
,
0001
0100
0010
0100
0001
0010
0100
0010
0001
1000
0100
0010
0001
0100
0010
1000
,
0001
0010
0100
0010
0001
0100
0010
1000
0001
0010
0001
0100
0001
1000
0001
0010
,
0100
1000
0100
0010
0001
0100
0010
0100
0001
1000
0010
1000
0100
0010
0001
1000
,
0010
1000
0001
0100
0001
0010
0100
1000
0001
1000
0100
0010
0001
0100
0010
0100
,
0001
1000
0100
0010
0001
0100
0010
1000
0001
1000
0010
0100
0001
0010
0100
0010
,
0001
1000
0010
0100
0001
0010
0100
1000
0001
0100
0001
0010
0100
1000
0010
0100
,
0001
1000
0100
1000
0010
0100
0001
1000
0010
0100
0010
1000
0100
0010
0001
1000
,
0010
0100
0010
1000
0100
0010
0001
1000
0100
1000
0001
0010
0001
0100
0010
1000
,
0001
0010
0100
0010
0001
0100
0010
0100
0001
1000
0010
0100
0001
0010
0100
1000
,
0001
0100
0010
0100
0001
0010
0100
1000
0001
0100
0001
0010
0001
1000
0001
0100
,
0010
1000
0010
0100
0001
0010
0100
0010
0001
1000
0100
1000
0010
0100
0001
1000
,
0100
1000
0001
0010
0001
0100
0010
1000
0001
1000
0010
0100
0001
0010
0100
0010
,
0001
1000
0010
0100
0001
0010
0100
1000
0001
1000
0100
0010
0001
0100
0010
0100
,
0001
1000
0100
0010
0001
0100
0010
1000
0001
0010
0001
0100
0010
1000
0100
0010
,
0001
0100
0010
0100
0001
0010
0100
0010
0001
1000
0100
0010
0001
0100
0010
0100
,
0001
1000
0100
0010
0001
0100
0001
1000
0010
0100
0010
1000
0100
0010
0001
1000
,
0010
0100
0010
1000
0100
0010
0001
1000
0001
0100
0010
0100
0001
0010
0001
1000
,
0100
0010
0100
1000
0001
0100
0010
0100
0001
1000
0100
1000
0010
1000
0001
1000
,
0100
0010
0100
1000
0010
0100
0001
1000
0010
1000
0001
0100
0001
0010
0100
1000
,
0001
0010
0001
1000
0010
1000
0001
0100
0010
0100
0001
0010
0100
1000
0001
0010
,
0001
1000
0010
0100
0001
0010
0100
0010
0001
1000
0100
0010
0001
0100
0010
1000
,
0001
0010
0100
0010
0001
0100
0010
1000
0100
1000
0001
0100
0001
0010
0100
1000
,
0010
1000
0001
0100
0001
0010
0100
1000
0001
1000
0100
0010
0001
0100
0001
1000
,
0100
1000
0001
0010
0001
0100
0010
1000
0001
0100
0010
0100
0001
0010
0100
1000
,
0001
1000
0010
0100
0001
0010
0001
1000
0100
1000
0001
0010
0001
0100
0010
1000
,
0001
0010
0100
0010
0001
0100
0010
0100
0001
1000
0100
1000
0010
1000
0001
1000
,
0010
0100
0001
1000
0100
1000
0010
0100
0001
1000
0100
1000
0010
0100
0001
0010
,
0001
1000
0100
1000
0010
0100
0001
1000
0100
1000
0010
0100
0001
0010
0100
1000
,
0010
0100
0001
0010
0001
1000
0010
0100
0001
0010
0001
1000
0010
1000
0100
0010
,
0001
0100
0010
1000
0001
0010
0100
0010
0001
0100
0010
1000
0100
0010
0100
1000
,
0001
0000
0000
0000
,
0000
0000
0000
0000
,
M000
0000
0000
0000
;
