#TITLE:shine☆true;
#SUBTITLE:;
#ARTIST:Stratos;
#TITLETRANSLIT:shine*true;
#SUBTITLETRANSLIT:;
#ARTISTTRANSLIT:;
#CREDIT:jammitch!;
#BANNER:shine true.png;
#BACKGROUND:shine true-bg.png;
#LYRICSPATH:;
#CDTITLE:jammitch!.png;
#MUSIC:shine true.ogg;
#OFFSET:-6.698;
#SAMPLESTART:96.714;
#SAMPLELENGTH:13.600;
#SELECTABLE:YES;
#BPMS:0.000=144.000;
#STOPS:;
#BGCHANGES:;
// cache tags:
#FIRSTBEAT:0.000;
#LASTBEAT:256.000;
#SONGFILENAME:Songs/stepmix .10/shine true/shine true.sm;
#HASMUSIC:1;
#HASBANNER:1;
#MUSICLENGTH:118.707;
// end cache tags

//---------------dance-single - Hard----------------
#NOTES:
     dance-single:
     Hard:
     Hard:
     8:
     0.496,0.455,0.000,0.017,0.219,410.000,0.000,2.000,13.000,0.000:
0001
0100
0000
0001
1000
0000
0010
1000
,
0000
0001
0000
0100
0000
0010
0000
0100
,
0000
0001
0000
0010
0000
0100
0000
1000
,
0010
0000
0100
0000
0010
0000
1000
0100
0000
0010
0001
0000
0100
0000
0010
0000
,
0100
0001
1000
0100
1000
0010
0100
0010
,
1000
0001
0010
0001
0100
0010
0100
0001
,
1000
0100
1000
0010
0100
0010
1000
0001
,
0010
0001
0100
0010
0100
0001
1000
0100
,
1000
0010
0100
0010
1000
0100
0010
0001
,
0100
0010
0100
0001
0010
0100
1000
0010
,
0100
0010
1000
0001
0010
0001
0100
0010
,
0100
0001
1000
0100
0010
0001
0100
0010
,
1000
0100
1000
0001
0100
0010
1000
0100
,
0M01
0100
0001
1000
0100
0010
0001
0100
,
0M10
0001
0100
0010
0100
0001
1000
0100
,
0M10
1000
0100
0010
0100
1000
0001
0100
,
0M10
0001
0100
0010
1000
0001
0010
0100
,
0M01
1000
0010
0100
0010
1000
0001
0100
,
0M10
0001
1000
0010
0100
0010
1000
0100
,
0M01
0010
0001
0100
0010
1000
0001
0010
,
10M0
0000
0000
0100
0000
0000
0100
0000
0000
0000
0000
1000
0000
0000
1000
0000
,
0000
0000
0000
0010
0000
0000
0010
0000
0000
0000
0000
0100
0000
0000
0100
0000
,
0000
0000
0000
0001
0000
0000
000M
0000
0000
0000
0000
1000
0000
0000
1000
0000
,
0000
0000
0000
0010
0000
0000
0010
0000
0000
0000
0000
0100
0000
0000
0100
0000
,
0000
0000
0000
0001
0000
0000
0010
0000
0000
0000
0000
0001
0000
0000
0100
0000
,
0000
0000
0000
0010
0000
0000
1000
0000
0000
0000
0000
0010
0000
0000
0100
0000
,
0000
0000
0000
1000
0000
0000
0100
0000
0000
0000
0000
1000
0000
0000
0010
0000
,
0100
0000
0001
0000
0100
0000
0010
1000
0000
1000
0001
0000
0100
0000
0010
0000
,
0100
1000
0000
0100
0001
0000
0010
0100
,
0000
0001
0000
0100
0010
0000
0001
0100
,
0000
1000
0000
0100
0001
0000
1000
0010
,
0000
0001
0000
0010
1000
0000
0001
0100
,
0010
0001
0000
0010
1000
0000
0100
0010
,
0000
1000
0000
0010
0100
0000
1000
0100
,
0000
0001
0000
0100
1000
0000
0001
0010
,
0000
0000
1000
0000
0000
0010
0000
0000
0001
0000
0000
1000
0000
0000
0100
0000
,
0020
0000
0000
0000
,
0031
0000
0100
0000
0001
0000
1000
0100
0000
0100
0010
0000
0001
0000
1000
0000
,
0001
0000
0100
0000
0010
0000
1000
0000
0100
0000
0000
0100
0000
0000
0100
0000
,
0010
0000
0001
0000
1000
0000
0010
0000
0100
0000
0000
0100
0000
0000
0100
0000
,
0010
0000
1000
0000
0100
0000
0010
0000
0001
0000
0000
0001
0000
0000
0001
0000
,
0100
0000
0010
0000
0100
0000
0001
0000
1000
0000
0000
1000
0000
0000
1000
0000
,
0010
0000
0100
0000
0001
0000
0010
0000
0001
0000
0000
0100
0000
0000
0010
0000
,
1000
0000
0001
0000
0010
0000
0001
0000
0100
0000
0000
0010
0000
0000
1000
0000
,
0100
0000
1000
0000
0010
0000
0100
0000
0001
0000
0000
1000
0000
0000
0100
0000
,
0010
0000
0001
0000
M000
0100
M000
0000
0010
0000
0000
0100
0000
0000
0001
0000
,
1000
0000
0010
0000
0100
0000
0010
0000
1000
0000
0000
1000
0000
0001
1000
0000
,
0100
0000
0010
0000
0100
0000
1000
0000
0010
0000
0000
0010
0000
0100
0010
0000
,
1000
0000
0010
0000
0100
0000
0001
0000
0010
0000
0000
0010
0000
0100
0010
0000
,
0001
0000
0100
0000
0010
0000
1000
0000
0001
0000
0000
0001
0000
0010
0001
0000
,
1000
0000
0010
0000
0100
0000
0010
0000
1000
0000
0000
0100
0000
1000
0010
0000
,
0100
0000
0001
0000
0010
0000
0001
0000
0100
0000
0000
0010
0000
0100
0001
0000
,
1000
0000
0100
0000
1000
0000
0010
0000
0100
0000
0000
0001
0000
1000
0100
0000
,
0010
0000
0001
0000
M000
0010
M000
0000
0100
0000
0000
0010
0000
0001
1000
0000
,
0100
1000
0000
0010
1000
0000
0001
1000
,
0000
0100
0000
1000
0001
0000
0100
0010
,
0000
0001
0000
0010
0100
0000
0001
0010
,
0000
0001
0000
0010
0100
0000
1000
0100
,
0010
0001
0000
0100
0001
0000
1000
0001
,
0000
0100
0000
0001
1000
0000
0010
0100
,
0000
1000
0000
0100
0010
0000
1000
0001
,
0000
0000
0010
0000
0000
0001
0000
0000
1000
0000
0000
0010
0000
0000
1000
0000
,
0100
0000
0010
0000
0100
0000
1000
0001
0000
0001
0100
0000
0010
0000
0100
0000
,
0002
0000
0003
0000
;

//---------------dance-single - Expert----------------
#NOTES:
     dance-single:
     Expert:
     Challenge:
     10:
     0.803,0.809,0.135,0.017,0.948,649.000,16.000,2.000,10.000,0.000:
0010
100M
0000
0010
M001
0000
0010
100M
,
0000
0000
0010
0000
0000
1000
0100
0000
0000
0000
0010
0000
0000
0001
0100
0000
,
0000
0000
0001
0000
0000
1000
0010
0000
0000
0000
0100
0000
0000
0010
1000
0000
,
0001
0000
1000
0100
1000
0000
0010
0100
0000
0010
1000
0000
0001
0100
0001
1000
,
0010
0100
0010
0000
1000
0100
1000
0000
0001
0010
0001
0000
0100
0010
0100
0000
,
0001
M000
0010
0000
0100
000M
1000
0000
0010
0000
0100
0000
0010
0000
1001
0000
,
0100
0010
0001
0100
0010
0100
0001
1100
,
0010
0001
0100
0010
1000
0100
1000
0101
,
0010
1000
0010
1000
0010
1000
0010
0000
0100
0001
0100
0001
0100
0001
0100
0000
,
0001
0010
0001
0010
0001
0010
0001
0000
1000
0100
1000
0100
1000
0100
1000
0000
,
0010
0100
0010
0100
0001
0100
0001
0000
1000
0010
1000
0010
0100
0010
0100
0000
,
0001
1000
0001
1000
0100
1000
0100
0000
0011
0M00
1001
00M0
0101
00M0
100M
0001
,
1000
0010
1000
0010
0100
0010
0100
0000
0001
1000
0001
1000
0010
1000
0010
0000
,
0100
0001
0100
0001
1000
0001
1000
0000
0010
0100
0010
0100
0001
0100
0001
0000
,
1000
0010
0100
0010
1000
0010
0100
0000
0001
0010
0100
0010
0001
0010
0100
0000
,
0001
1000
0001
0100
0001
1000
0001
0000
1000
0010
1000
0001
1000
0010
1000
0000
,
0001
0100
0010
0100
0001
1000
0001
0000
0100
0010
0100
0001
1000
0001
0100
0000
,
0010
1000
0010
0100
0001
0100
0010
0000
1000
0100
1000
0001
0100
0010
0100
0000
,
0001
0010
0001
1000
0010
0100
0010
0000
1000
0100
1000
0001
0100
0010
0100
0000
,
0001
0010
0001
0100
0010
0100
0001
0000
1000
0001
0010
0001
1000
0010
1000
0000
,
0001
0000
1000
0100
0000
0000
1000
0000
0010
0000
0000
0100
0001
0000
0010
0000
,
0000
0000
0100
0010
0000
0000
0001
0000
1000
0000
0000
0010
0100
0000
0001
0000
,
0000
0000
1000
0100
0000
0000
0010
0000
0001
0000
0000
1000
0010
0000
0100
0000
,
0000
0000
0001
0010
0000
0000
0001
0000
0100
0000
0000
0010
1000
0000
0001
0000
,
0100
0000
0010
0001
0000
0000
0010
0000
1000
0000
0000
0100
0010
0000
0001
0000
,
0000
0000
1000
0100
0000
0000
0001
0000
0100
0000
0000
1000
0001
0000
0100
0000
,
0000
0000
0010
0001
0000
0000
0010
0000
1000
0000
0000
0001
0100
0000
0000
0000
,
0010
0000
1000
0001
1000
0000
0010
0100
0000
0001
0100
0000
0010
1000
0001
1000
,
0100
0000
0010
0001
0000
0000
0100
0000
0010
0000
0000
1000
0001
0000
0010
0000
,
0000
0000
1000
0100
0000
0000
0010
0000
0001
0000
0000
0100
0010
0000
1000
0000
,
0000
0000
0001
0010
0000
0000
0100
0000
0010
0000
0000
0001
0100
0000
0010
0000
,
0000
0000
1000
0001
0000
0000
0100
0000
1000
0000
0000
0010
0100
0000
0001
0000
,
0100
0000
0010
1000
0000
0000
0100
0000
0001
0000
0000
1000
0100
0000
0010
0000
,
0000
0000
1000
0001
0000
0000
0100
0000
0010
0000
0000
1000
0001
0000
0100
0000
,
0000
0000
0001
0010
0000
0000
0001
0000
1000
0000
0000
0010
0100
0000
0001
0000
,
1000
0000
0100
0000
0000
0001
0000
0000
0010
0000
0000
1000
0000
0000
0001
0000
,
0200
0010
0010
0010
,
0301
0000
1000
0010
1000
0000
0001
0010
0000
0001
0100
0000
0010
1000
0001
1000
,
0100
0010
0100
1000
0100
0010
0100
1000
0100
0000
1000
0001
0000
1000
0010
0000
,
0100
0001
0100
0010
0100
0001
0100
0010
0100
0000
0001
0100
0000
0001
1000
0000
,
0010
0100
0010
1000
0010
0100
0010
1000
0010
0000
1000
0001
0000
1000
0100
0000
,
0010
0001
0010
0100
0010
0001
0010
0100
0010
0000
0001
0010
0000
0001
1000
0000
,
0001
0100
0010
0100
0001
0100
0010
0100
0001
0000
1000
0010
0000
1000
0100
0000
,
0010
0001
1000
0001
0100
0001
1000
0001
0010
0000
0100
1000
0000
0001
1000
0000
,
0010
1000
0001
1000
0100
1000
0001
1000
0010
0000
0100
0001
0000
1000
0100
0000
,
1000
0000
0010
0000
1000
0100
0000
1000
0001
0000
0100
0001
0000
0100
0010
0000
,
1000
0001
1000
0100
0010
0001
0010
0100
1000
0000
0010
0100
0000
0010
1000
0000
,
0001
0100
0010
0100
0001
1000
0100
1000
0001
0000
0100
0010
0000
0100
0001
0000
,
1000
0010
0100
0010
1000
0001
0010
0001
1000
0000
0010
0100
0000
0001
1000
0000
,
0010
0100
0001
1000
0010
0100
0010
1000
0001
0000
0010
0100
0000
0010
0001
0000
,
1000
0100
0010
0100
1000
0001
0100
0010
1000
0000
0001
0100
0000
0001
1000
0000
,
0010
0100
0001
1000
0100
0010
0001
1000
0010
0000
1000
0100
0000
1000
0001
0000
,
0010
0100
1000
0001
0100
0010
1000
0001
0100
0000
0010
1000
0000
0001
0100
0000
,
0010
0000
1000
0000
0001
0100
0000
0001
1000
0000
0010
1000
0000
0010
0100
0000
,
1000
0010
0100
0010
1001
0100
0010
0001
,
0100
1000
0100
0010
1100
0001
0010
1000
,
0100
1000
0010
0001
1100
0001
0100
0010
,
0001
0100
0001
0010
0101
0010
1100
0010
,
1001
0100
0001
1000
0101
0010
1000
0100
,
0001
0010
1000
0001
1100
0010
0001
1000
,
0010
0001
0100
0010
1100
0001
0010
1000
,
0100
0000
0001
0000
0100
0010
1000
0000
0101
0000
0010
1000
0001
0000
0100
0000
,
0001
0000
1000
0010
1000
0000
0001
0010
0000
0001
1000
0000
0010
0000
0100
0000
,
0002
0010
1000
0100
,
M003
0000
0000
0000
;

//---------------dance-single - Standard----------------
#NOTES:
     dance-single:
     Standard:
     Medium:
     5:
     0.401,0.374,0.000,0.017,0.017,331.000,0.000,2.000,0.000,0.000:
1000
0100
0000
0010
0001
0000
1000
0001
,
0000
0000
0000
1000
0000
0000
0000
0010
,
0000
0000
0000
0100
0000
0000
0000
0001
,
1000
0010
0100
0010
,
1000
0001
0000
0100
0000
0010
0000
0100
,
0000
0001
0000
1000
0000
0010
0000
0100
,
0000
0010
0000
1000
0000
0100
0000
0010
,
0000
0001
0000
0100
0000
0010
0000
1000
,
0001
0100
0001
0000
1000
0100
1000
0000
,
0010
0100
0010
0000
1000
0010
1000
0000
,
0001
0010
0001
0000
0100
0010
0100
0000
,
0001
1000
0001
0000
1000
0010
1000
0010
,
0100
0001
1000
0000
0010
0100
0001
0000
,
1000
0010
0100
0000
0001
1000
0100
0000
,
0010
0001
0100
0000
0010
1000
0001
0000
,
0100
0010
1000
0000
0001
0010
0100
1000
,
0010
0100
0001
0100
0000
0010
1000
0010
,
0000
1000
0100
1000
0000
0001
0010
0001
,
0000
0100
0010
0100
0000
0001
1000
0001
,
0000
1000
0100
1000
0000
0010
0100
0010
,
1000
0100
0000
1000
0001
0000
1000
0010
,
0000
0100
0000
0010
1000
0000
0001
0010
,
0000
0100
0000
0010
0001
0000
0100
0010
,
0000
1000
0000
0010
0100
0000
0001
1000
,
0001
0010
0000
0001
1000
0000
0001
0100
,
0000
0010
0000
0100
0001
0000
1000
0100
,
0000
0010
0000
0100
1000
0000
0010
0100
,
0001
0000
0100
0000
0010
0000
1000
0001
,
0100
0010
0000
0100
0001
0000
1000
0100
,
0000
0010
0000
0100
1000
0000
0001
0100
,
0000
0010
0000
0100
0001
0000
0010
0100
,
0000
1000
0000
0100
0010
0000
0001
1000
,
0100
0010
0000
0100
1000
0000
0001
0100
,
0000
0010
0000
0100
0001
0000
1000
0100
,
0000
0010
0000
0100
1000
0000
0010
0100
,
0000
0000
0001
0000
0000
0100
0000
0000
0010
0000
0000
1000
0000
0000
0001
0000
,
0200
0000
0000
0000
,
0310
0000
0010
0000
0010
0000
0010
1000
,
0001
0100
0010
0000
0010
0000
0010
0000
,
1000
0100
0010
0000
0010
0000
0010
0000
,
0001
1000
0100
0000
0100
0000
0100
0000
,
0010
0001
1000
0000
1000
0000
1000
0000
,
0010
0100
0001
0000
0001
0000
0001
0000
,
1000
0010
0100
0000
0100
0000
0100
0000
,
0001
1000
0100
0000
0100
0000
0100
0000
,
1000
0001
0010
0000
0010
0000
0010
0000
,
0001
0010
0001
1000
0010
0000
0010
0000
,
0010
0100
0001
0100
0010
0000
0010
0000
,
0010
1000
0100
0010
0001
0000
0001
0000
,
0001
0010
0100
0010
0001
0000
0001
0000
,
1000
0010
0100
0001
0010
0000
0010
0000
,
0010
0001
1000
0100
0010
0000
0010
0000
,
0001
1000
0100
1000
0010
0000
0010
0000
,
0010
0100
0001
1000
0100
0000
0100
0000
,
1000
0010
0000
1000
0001
0000
0100
0001
,
0000
0010
0000
0001
0100
0000
0010
1000
,
0000
0100
0000
1000
0010
0000
0100
0001
,
0000
1000
0000
0010
0100
0000
0001
1000
,
0001
0010
0000
0001
1000
0000
0100
1000
,
0000
0010
0000
1000
0100
0000
0010
0001
,
0000
0100
0000
0001
0010
0000
0100
1000
,
0000
0000
0001
0000
0000
1000
0000
0000
0100
0000
0000
0010
0000
0000
0001
0000
,
0100
0100
0100
0100
,
0200
0000
0300
0000
;

//---------------dance-single - Beginner----------------
#NOTES:
     dance-single:
     Beginner:
     Beginner:
     2:
     0.135,0.186,0.051,0.000,0.000,106.000,6.000,0.000,0.000,0.000:
0010
0000
0000
0000
,
1000
0000
0000
0000
,
0000
0000
0000
0000
,
0000
0000
0000
0000
,
1001
0000
0000
0000
,
1001
0000
0000
0000
,
1001
0000
0000
0000
,
1000
0000
0001
0000
,
1000
0000
1000
0000
,
0100
0000
0100
0000
,
0010
0000
0010
0000
,
0001
0000
0001
0000
,
1000
0000
1000
0000
,
0010
0000
0010
0000
,
0100
0000
0100
0000
,
0001
0000
0001
0000
,
1000
0000
1000
0000
,
0001
0000
0001
0000
,
0100
0000
0100
0000
,
0010
0000
0010
0000
,
1000
0000
0000
0000
,
0001
0000
0000
0000
,
1000
0000
0000
0000
,
0001
0000
0000
0000
,
0100
0000
0000
0000
,
0010
0000
0000
0000
,
0100
0000
0000
0000
,
0010
0000
0000
0000
,
0001
0000
0000
0000
,
1000
0000
0000
0000
,
0001
0000
0000
0000
,
1000
0000
0000
0000
,
0010
0000
0000
0000
,
0100
0000
0000
0000
,
0010
0000
0000
0000
,
0100
0000
0000
0000
,
1001
0000
0000
0000
,
0000
0000
0000
0000
,
1000
0000
0010
0010
,
0010
0000
0100
0100
,
0100
0000
0010
0010
,
0010
0000
1000
1000
,
1000
0000
0001
0001
,
0001
0000
0010
0010
,
0010
0000
0100
0100
,
0100
0000
0010
0010
,
0010
0000
0001
0001
,
0001
0000
0100
0100
,
0100
0000
0010
0010
,
0010
0000
1000
1000
,
1000
0000
0100
0100
,
0100
0000
1000
1000
,
1000
0000
0001
0001
,
0001
0000
0100
0100
,
0100
0000
0000
0000
,
0010
0000
0000
0000
,
1000
0000
0000
0000
,
0100
0000
0000
0000
,
1000
0000
0000
0000
,
0001
0000
0000
0000
,
0100
0000
0000
0000
,
0010
0000
0000
0000
,
1001
0000
0000
0000
,
1001
0000
0000
0000
;

//---------------dance-single - Light----------------
#NOTES:
     dance-single:
     Light:
     Easy:
     3:
     0.202,0.241,0.000,0.042,0.000,163.000,0.000,5.000,0.000,0.000:
1000
0000
0010
0000
,
0200
0000
0010
0000
,
0010
0000
0010
0000
,
0310
0000
1000
0000
,
1000
0010
1000
0010
,
0100
0001
0100
0001
,
1000
0100
1000
0100
,
0010
0001
0010
0001
,
0100
0100
0010
0010
,
1000
1000
0001
0001
,
0010
0010
0001
0001
,
1000
1000
0100
0100
,
1000
1000
0010
0010
,
0001
0001
0100
0100
,
0010
0010
1000
1000
,
0100
0100
0001
0001
,
1000
0010
1000
0100
,
0010
0001
0100
0001
,
1000
0010
0100
0001
,
1000
0100
0010
0001
,
0200
0000
0000
0000
,
0010
0000
0000
0000
,
0001
0000
0000
0000
,
0010
0000
0000
0000
,
0302
0000
0000
0000
,
0010
0000
0000
0000
,
1000
0000
0000
0000
,
0100
0000
0000
0000
,
1003
0000
0010
0000
,
1000
0000
0001
0000
,
0100
0000
0010
0000
,
0100
0000
0001
0000
,
1000
0000
0001
0000
,
0010
0000
0001
0000
,
0100
0000
0010
0000
,
0100
0000
0001
0001
,
2000
0000
0000
0000
,
0000
0000
0000
0000
,
3001
0000
1000
0010
,
1000
0000
0001
0100
,
0001
0000
1000
0100
,
1000
0000
0001
0010
,
0001
0000
1000
0100
,
0010
0000
0001
0100
,
0010
0000
1000
0001
,
0100
0000
0010
1000
,
0001
0000
1000
0010
,
1000
0000
0100
0001
,
0100
0000
0001
0010
,
0001
0000
0100
1000
,
0100
0000
0010
0001
,
1000
0000
0010
0001
,
0100
0000
0010
1000
,
0001
0000
0010
1000
,
0100
0000
0010
0000
,
0001
0000
0100
0000
,
0010
0000
0001
0000
,
1000
0000
0010
0000
,
0100
0000
0001
0000
,
0010
0000
1000
0000
,
0100
0000
1000
0000
,
0001
0000
0100
0000
,
2000
0000
0000
0000
,
0000
0000
3000
0000
;
