#TITLE:Nyan Koi! OP Nyanderful!;
#SUBTITLE:;
#ARTIST:Yui Sakakibara;
#TITLETRANSLIT:;
#SUBTITLETRANSLIT:;
#ARTISTTRANSLIT:;
#CREDIT:;
#BANNER:Nyan Koi! BN.jpg;
#BACKGROUND:Nyan Koi! BG.jpg;
#LYRICSPATH:;
#CDTITLE:Nyan Koi! OP;
#MUSIC:Nyan Koi! OP.mp3;
#OFFSET:-0.160;
#SAMPLESTART:66.630;
#SAMPLELENGTH:12.000;
#SELECTABLE:YES;
#BPMS:0.000=180.100;
#STOPS:;
#BGCHANGES:;
// cache tags:
#FIRSTBEAT:0.000;
#LASTBEAT:267.167;
#SONGFILENAME:Songs/toune 8/Nyan Koi! OP/Nyan Koi! OP .sm;
#HASMUSIC:1;
#HASBANNER:1;
#MUSICLENGTH:90.409;
// end cache tags

//---------------dance-single - ----------------
#NOTES:
     dance-single:
     :
     Hard:
     6:
     0.000,0.000,0.000,0.000,0.000,0.000,0.000,0.000,0.000,0.000:
0000
0000
0000
0000
;

//---------------dance-single - ----------------
#NOTES:
     dance-single:
     :
     Medium:
     1:
     0.363,0.517,0.376,0.774,0.343,126.000,34.000,70.000,0.000,0.000:
2002
0000
0000
0000
,
0000
0000
0000
0000
,
0000
0000
0000
0000
,
0000
0000
0000
0000
,
0000
0000
0000
0000
,
0000
0000
0000
0000
,
0000
0000
0000
0000
,
0000
0000
0000
0000
,
0000
0000
0000
0000
0000
0000
3003
0000
0000
0000
0000
2000
,
0000
0000
3000
0000
0002
0000
0000
0000
0000
0003
0000
0000
,
0000
0000
0000
0000
0000
0000
0000
2002
0000
0000
0000
0000
,
0000
3003
0000
0000
0000
0000
0000
0000
0000
0110
0000
0000
,
0000
0001
0000
0000
0000
0000
0000
1000
0000
0000
0001
0000
,
0000
0110
0000
0110
0000
0000
0000
0000
0000
0000
0000
0110
,
0000
1000
0001
0000
,
1000
0000
0000
0000
0000
0000
0000
0000
0001
0000
0000
0000
1000
0000
0000
0000
0010
0000
0000
0000
0000
2000
0000
0000
,
0000
0000
0000
3001
0000
0000
0100
0000
0000
0000
1000
0000
,
0000
0000
0001
0000
0000
0200
0000
0000
0000
0300
0000
0000
,
0002
2000
3000
0020
,
0000
0000
0030
0000
0000
2000
0000
0000
0000
3000
0000
0000
,
0003
0010
0000
1000
0000
0000
0000
0000
0000
0000
0200
0000
,
0000
0000
0000
0300
0010
0000
0001
0000
0000
1000
0000
1000
,
0001
0000
0000
1000
0000
0000
0020
0000
0000
0000
0030
0000
,
1000
0000
0000
0001
0000
0000
0100
0000
0100
0000
0000
0000
,
0002
0000
0003
1000
0000
0000
0100
0000
0002
0000
0000
0003
,
0000
1000
1000
0002
,
0003
1000
1000
0002
,
0003
0000
0010
0010
,
0000
0000
2000
0000
0000
3000
0000
0002
0000
0003
0000
0000
,
0200
0000
0000
0000
0000
0000
0300
0000
0000
0000
2002
0000
,
0000
3003
0000
0000
0220
0000
0000
0330
0000
2002
0000
0000
,
3003
0000
0110
0000
0000
0000
0110
0000
0000
0000
0000
2002
,
0000
0000
3003
0000
0220
0000
0000
0000
0330
0000
2002
0000
,
0000
0000
3003
0000
0000
1001
0000
0000
0000
1001
0000
0000
,
0000
0010
0000
0100
,
0000
0000
0000
0001
0000
0000
1001
0000
1001
0000
0000
0000
,
0000
0000
0000
0000
2000
0000
0000
0000
3000
0000
0000
0001
,
0000
0000
0000
0001
0000
0000
0000
0010
0000
0000
0002
0000
,
0000
0003
0000
0000
0000
0000
0000
0020
0000
0000
0000
0030
,
0000
2000
0000
0000
0000
3000
0002
0000
0000
0000
0000
0000
,
0000
0003
0000
0000
0000
0000
0000
0000
0000
0000
0000
2000
,
0000
0000
0000
0000
3002
0000
0000
0000
0000
0000
0000
2003
,
0000
0000
0000
0000
0000
0000
0000
3000
0000
0000
0000
1000
,
0000
0000
2002
0000
0000
3003
0000
0000
2002
0000
0000
0000
,
0000
3003
0000
2002
0000
0000
3003
0000
2002
0000
3003
0000
,
2002
0000
0000
3003
0000
2002
0000
0000
0000
0000
0000
0000
,
0000
0000
0000
0000
3003
0000
0000
0000
0000
0000
0000
0000
0000
1000
0000
0000
,
0000
0001
0000
0000
0000
1000
0000
0000
1000
0002
0000
0000
0000
0000
0000
0000
,
1000
0000
1000
0000
,
1000
0000
0000
0000
0000
0000
0000
0000
1000
0003
0000
0000
0000
0000
0000
0000
,
1001
0000
0000
0000
2002
0000
0000
0000
0000
0000
0000
0000
,
3003
0001
1000
0001
,
2000
3000
0000
0000
2002
0000
0000
0000
0000
0000
3003
0000
,
0000
1001
0000
1001
,
0000
1001
0000
2002
,
0000
0000
0000
0000
0000
0000
0000
0000
0000
0000
3003
0000
0000
0000
0000
1000
,
0000
0000
0000
0001
0000
0000
0000
0000
0200
0000
0000
0000
0000
0000
0000
0000
,
0000
0300
0000
0000
0002
0000
0000
2000
0000
0000
0000
3000
,
0000
0000
0020
0000
0000
0000
0030
0000
0003
0000
0000
0000
,
2000
0000
0000
0000
0000
0000
0000
0000
0000
0000
3000
0000
,
1000
0000
0000
0000
0000
0100
0000
0000
0000
0000
0000
1000
0000
0000
0000
0000
0010
0000
0000
0000
0000
0000
0000
0000
,
2002
0000
0000
0000
,
0000
0000
0000
0000
,
0000
0000
0000
0000
,
0000
0000
0000
0000
0000
0000
0000
0000
3003
0000
0000
0000
,
0000
0000
0001
0000
0000
0000
0000
0000
0000
0000
0000
0000
0000
1000
0000
0000
0000
0000
0000
0000
0001
0000
0000
0000
,
0000
0000
0000
0000
0000
0000
0000
0000
1001
0000
0000
0000
2002
0000
0000
0000
0000
0000
0000
3003
0000
0000
0000
0000
;
