#TITLE:Welcome To Rainbow ~HardStyle Remix~;
#SUBTITLE:EXoduz Violation;
#ARTIST:Basshunter;
#TITLETRANSLIT:;
#SUBTITLETRANSLIT:;
#ARTISTTRANSLIT:;
#CREDIT:;
#BANNER:../Banner.png;
#BACKGROUND:../Background.png;
#LYRICSPATH:;
#CDTITLE:;
#MUSIC:music.ogg;
#OFFSET:-0.030;
#SAMPLESTART:38.040;
#SAMPLELENGTH:15.000;
#SELECTABLE:YES;
#BPMS:0.000=150.000;
#STOPS:19.000=2.800
,540.000=1.200
;
#BGCHANGES:;
// cache tags:
#FIRSTBEAT:0.750;
#LASTBEAT:812.250;
#SONGFILENAME:Songs/EXoduz Violation/Welcome to Rainbow (Hardstyle remix)/Welcome to Rainbow (Hardstyle Remix).sm;
#HASMUSIC:1;
#HASBANNER:1;
#MUSICLENGTH:331.467;
// end cache tags

//---------------dance-single - Z Matrix----------------
#NOTES:
     dance-single:
     Z Matrix:
     Challenge:
     15:
     1.000,1.000,0.238,1.000,1.000,2901.000,79.000,450.000,0.000,14.000:

0000
0000
0000
0001
1000
0000
0000
0000
1000
0001
0100
0010
1000
0100
0010
0001
,
1000
0001
0100
0001
1000
0010
0100
0001
0010
0100
0010
0001
0100
0010
1000
0100
,
0010
0001
1000
0010
0100
0001
1000
0001
1000
0100
0010
0001
0010
0100
1000
0001
,
0100
0000
0000
0010
0000
0000
1000
0000
0000
0100
0000
0000
1000
0000
0000
0100
0000
0000
0010
0000
0000
0001
0000
0000
1000
0000
0000
0001
0000
0000
0100
0000
0000
0010
0000
0000
1000
0000
0100
0000
0010
0000
0001
0000
0100
0000
0001
0000
,
1000
0010
1000
0010
0100
0001
0010
0100
1000
0100
1000
0010
0100
0001
1000
0001
1000
0001
1000
0000
0000
0000
0000
0000
,
2000
3001
0100
0010
2000
3100
0010
0001
2000
3010
0100
0001
0020
0130
1000
0010
,
0200
0301
1000
0001
2000
3010
0100
0001
0020
0130
1000
0100
2000
3010
0100
0001
,
2000
3001
1000
0010
0200
0301
0010
0100
0020
0031
1000
0010
0200
0301
0010
0100
,
2000
0000
0000
3010
0000
0000
0100
0000
0000
0001
0000
0000
2000
0000
0000
3001
0000
0000
1000
0000
0000
0010
0000
0000
0400
0000
0000
0000
0304
0000
0000
0000
0043
0000
0000
0000
0430
0000
0000
0000
4300
0000
0000
0000
3400
0000
0000
0000
,
0320
0031
1000
0010
0200
0301
0010
0100
2000
3100
0010
0001
2000
3010
0100
0001
,
0200
0310
1000
0010
0200
0301
0010
0100
2000
3001
0100
0001
2000
3010
0100
0010
,
2000
3100
0010
0001
0020
0130
1000
0010
0200
0310
1000
0100
0020
0031
1000
0001
,
0200
0000
0000
0301
0000
0000
1000
0000
0000
0001
0000
0000
0020
0000
0000
0031
0000
0000
1000
0000
0000
0001
0000
0000
0200
0000
0301
0000
0100
0000
0001
0000
0100
0000
0001
0000
0200
0000
0000
0301
0000
0000
1000
0000
0000
0010
0000
0000
,
0200
0310
1000
1000
0020
0130
0001
0010
0200
1300
0010
0100
0002
1003
0001
1000
,
0002
1003
0010
0100
0002
1003
0010
0100
0002
0013
0100
1000
0200
0310
0001
1000
,
0020
0130
0010
1000
0200
1300
0010
0100
0002
1003
0001
1000
0002
1003
0010
0100
,
0002
0000
0000
0013
0000
0000
0100
0000
0000
1000
0000
0000
0200
0000
0000
0310
0000
0000
0001
0000
1000
0000
0001
0000
1000
0000
0001
0000
1000
0000
0001
0000
1000
0000
0001
0000
1000
0000
0001
0000
1000
0000
0001
0000
1000
0000
0001
0000
,
2000
3001
0100
0010
2000
3100
0010
0001
2000
3010
0100
0001
2000
3100
0010
0001
,
0020
0130
1000
0100
0020
0031
0010
0100
2000
3010
0100
0001
2000
3001
0100
0001
,
2000
3010
0100
0001
0020
0130
1000
0100
0020
0031
1000
0010
0200
0301
1000
0001
,
2000
0000
0000
3100
0000
0000
0010
0000
0000
0001
0000
0000
0020
0000
0000
0130
0000
0000
1000
0000
0000
0010
0000
0000
0400
0000
0000
0304
0000
0000
0403
0000
0000
0304
0000
0000
0103
0000
0001
0000
0100
0000
0001
0000
0100
0000
0001
0000
,
0100
0010
1000
0010
1000
0010
1000
0100
1000
0100
1000
0100
1000
0100
0010
0100
0010
0100
0010
0001
0010
0001
0010
0001
,
0020
0130
1000
0010
0200
0301
0100
0001
0200
0310
1000
0010
2000
3100
0010
0001
,
2000
3010
0100
0001
2000
3100
0010
0001
0020
0130
1000
0010
0200
0301
1000
0001
,
2000
3100
0010
0001
2000
3010
0100
0001
2000
3100
1000
0100
2000
3010
0100
0001
,
2000
0000
0000
3001
0000
0000
1000
0000
0000
0001
0000
0000
0200
0000
0000
0310
0000
0000
1000
0000
0100
0000
0010
0000
0001
0000
1000
0000
0001
0000
1000
0000
0001
0000
0100
0000
0001
0000
1000
0000
0010
0000
1000
0000
0010
0000
1000
0000
,
0020
0130
0001
0010
0200
1300
0010
1000
0020
1030
0001
0100
0002
1003
0010
0100
,
0002
0013
0100
0010
0002
1003
0010
0100
0002
1003
0100
0010
0002
1003
0010
0100
,
0020
0130
0010
1000
0200
0310
0001
1000
0002
1003
0001
0100
0020
1030
0100
0010
,
0002
0000
0000
1003
0000
0000
0010
0000
0000
1000
0000
0000
0020
0000
0000
1030
0000
0000
0010
0000
0100
0000
0001
0000
0010
0000
0100
0000
1000
0000
0100
0000
1000
0000
0010
0000
0100
0000
0010
0000
0100
0000
0001
0000
1000
0000
0001
0000
,
1000
0000
0000
0001
0000
0000
0000
0000
0000
0000
0000
0000
1000
0000
0001
0000
1000
0000
0001
0000
1000
0000
0001
0000
2000
0000
0000
3100
0000
0000
0010
0000
0000
0001
0000
0000
2000
0000
0000
3010
0000
0000
0100
0000
0000
0001
0000
0000
,
2000
3001
1000
0001
2000
3010
0100
0001
0020
0130
0010
0001
2000
3001
0100
0001
,
2000
3010
0100
0010
2000
3100
0010
0001
2000
3010
0100
0001
0020
0130
1000
0100
,
0020
0000
0000
0031
0000
0000
1000
0000
0000
0001
0000
0000
2000
0000
0000
3001
0000
0000
0100
0000
0000
0001
0000
0000
0200
0000
0000
0310
0000
0000
1000
0000
0000
0010
0000
0000
2000
0000
0000
3100
0000
0000
0010
0000
0001
0000
0010
0000
,
0001
0000
1000
0000
0010
0000
1000
0000
0010
0000
0100
0000
0001
0000
0010
0000
0100
0000
1000
0000
0001
0000
0010
0000
0200
0000
0000
1300
0000
0000
0010
0000
0000
0100
0000
0000
0002
0000
0000
1003
0000
0000
0001
0000
0000
1000
0000
0000
,
0020
0130
0001
0010
0200
1300
0010
0100
0002
1003
0010
1000
0020
0130
0001
0010
,
0200
1300
0010
0100
0002
1003
0001
1000
0002
1003
0010
0100
0002
0013
0100
1000
,
0200
0000
0000
0310
0000
0000
0001
0000
0000
1000
0000
0000
0020
0000
0000
0130
0000
0000
0001
0000
0000
0100
0000
0000
0002
0000
0000
1003
0000
0000
0010
0000
0000
0100
0000
0000
0001
0000
0000
0010
0000
0000
0100
0000
1000
0000
0010
0000
,
0100
0000
0001
0000
1000
0000
0001
0000
1000
0000
0010
0000
0100
0000
0001
0000
1000
0000
0001
0000
1000
0000
0001
0000
1000
0000
0000
0001
0000
0000
0000
0000
0000
0000
0000
0000
0110
0000
0000
0000
0000
0000
0000
0000
0000
0000
0000
0000
,
1000
0100
0010
0001
1000
0001
0100
0110
0000
0000
0000
1000
0100
0010
0001
1001
,
0000
0000
0000
0010
0100
0001
0010
0110
0000
0000
0000
1000
0001
0100
0010
1010
,
0000
0000
0000
1000
0100
0010
0001
0011
0000
0000
0000
1000
0001
0100
0001
0101
,
0000
0000
0000
0010
1000
0100
0010
0011
0000
0000
0000
0001
1000
0001
0100
0101
,
0000
0000
0000
0001
0100
0001
0100
0101
0000
0000
0000
0010
1000
0100
0010
0011
,
0000
0000
0000
1000
0010
0100
0001
1001
0000
0000
0000
0001
1000
0001
0100
0110
,
0000
0000
0000
0010
1000
0100
0010
0011
0000
0000
0000
0001
0100
0010
1000
1010
,
0000
0000
0000
0100
0001
0100
0001
0101
0000
0000
0000
0010
1000
0100
0010
0001
,
1001
0000
0000
0100
0000
0000
0010
0000
0000
0001
0000
0000
1000
0000
0001
0000
0100
0000
0010
0000
0000
1000
0000
0000
0100
0000
0010
0000
0001
0000
1000
0000
0000
0001
0000
0000
0100
0000
0010
0000
1000
0000
0100
0000
0000
0010
0000
0000
,
0001
0000
1000
0000
0010
0000
1000
0000
0000
0100
0000
0000
0010
0000
0001
0000
1000
0000
0001
0000
0000
0100
0000
0000
0010
0000
1000
0000
0100
0000
0010
0000
0000
0001
0000
0000
1000
0000
0001
0000
0100
0000
0001
0000
0000
1000
0000
0000
,
0010
0000
0100
0000
0001
0000
0010
0000
0000
0100
0000
0000
1000
0000
0010
0000
0100
0000
0010
0000
0000
0100
0000
0000
0001
0000
0010
0000
0100
0000
1000
0000
0000
0001
0000
0000
0100
0000
0001
0000
1000
0000
0001
0000
0000
0100
0000
0000
,
0010
0000
1000
0000
0100
0000
0010
0000
0000
0001
0000
0000
1000
0000
0100
0000
0010
0000
0001
0000
0000
1000
0000
0000
0010
0000
0100
0000
0001
0000
0010
0000
0000
0100
0000
0000
1000
0000
0001
0000
0100
0000
0001
0000
0000
1000
0000
0000
,
0010
0000
0100
0000
0001
0000
1000
0000
0000
0010
0000
0000
0100
0000
0001
0000
0010
0000
0100
0000
0000
1000
0000
0000
0010
0000
1000
0000
0010
0000
1000
0000
0000
0100
0000
0000
0010
0000
0001
0000
1000
0000
0001
0000
0000
0100
0000
0000
,
0010
0000
1000
0000
0100
0000
0010
0000
0000
0001
0000
0000
1000
0000
0010
0000
0100
0000
0001
0000
0000
0010
0000
0000
0100
0000
1000
0000
0001
0000
0100
0000
0000
0010
0000
0000
1000
0000
0100
0000
0010
0000
0001
0000
0000
1000
0000
0000
,
0010
0000
0100
0000
0001
0000
0010
0000
0000
0100
0000
0000
1000
0000
0001
0000
0100
0000
0001
0000
0000
1000
0000
0000
0010
0000
0100
0000
0001
0000
0100
0000
0000
0010
0000
0000
1000
0000
0000
0001
0000
0000
0100
0000
0000
0010
0000
0000
,
0000
0000
0000
0000
0000
0000
0000
0000
0000
1111
0000
0000
0000
0000
0000
0000
0000
0000
0000
0000
0000
0010
0000
0000
0100
0000
0001
0000
1000
0000
0010
0000
0100
0000
0001
0000
0010
0000
0001
0000
0010
0000
0100
0000
1000
0000
0010
0000
,
0100
0000
0000
0001
0000
0000
1000
0000
0000
0010
0000
0000
0100
0000
0001
0000
0010
0000
0100
0000
0000
1000
0000
0000
0010
0000
0100
0000
0001
0000
0100
0000
0000
0010
0000
0000
1000
0000
0100
0000
0010
0000
0001
0000
0000
1000
0000
0000
,
0010
0000
0100
0000
0001
0000
0100
0000
0000
0010
0000
0000
1000
0000
0100
0000
0010
0000
0001
0000
0000
1000
0000
0000
0010
0000
1000
0000
0010
0000
1000
0000
0000
0100
0000
0000
0010
0000
0001
0000
1000
0000
0001
0000
0000
1000
0000
0000
,
0100
0000
0010
0000
0001
0000
1000
0000
0000
0010
0000
0000
0100
0000
0001
0000
0010
0000
0001
0000
0000
0010
0000
0000
0100
0000
1000
0000
0010
0000
0100
0000
0000
0001
0000
0000
0100
0000
0010
0000
1000
0000
0100
0000
0000
0010
0000
0000
,
0001
0000
1000
0000
0010
0000
0100
0000
0000
0001
0000
0000
0010
0000
0100
0000
1000
0000
0010
0000
0000
0100
0000
0000
0001
0000
0100
0000
0001
0000
0100
0000
0000
0010
0000
0000
1000
0000
0100
0000
0010
0000
0001
0000
0000
1000
0000
0000
,
0010
0000
0100
0000
0001
0000
0100
0000
0000
0010
0000
0000
1000
0000
0100
0000
0010
0000
0001
0000
0000
1000
0000
0000
0010
0000
1000
0000
0010
0000
1000
0000
0000
0100
0000
0000
0010
0000
0001
0000
0100
0000
0010
0000
0000
0100
0000
0000
,
0010
0000
0100
0000
1000
0000
0100
0000
0000
0010
0000
0000
0001
0000
1000
0000
0010
0000
0100
0000
0000
0001
0000
0000
0010
0000
0100
0000
1000
0000
0001
0000
0000
0100
0000
0000
0010
0000
1000
0000
0100
0000
0010
0000
0000
0001
0000
0000
,
1000
0000
0100
0000
0010
0000
0001
0000
0000
1000
0000
0000
0010
0000
0100
0000
0001
0000
0100
0000
0000
0010
0000
0000
1000
0000
0100
0000
0010
0000
0001
0000
0000
1000
0000
0000
0010
0000
0100
0000
0001
0000
0010
0000
0000
0100
0000
0000
,
1000
0000
0001
0000
0010
0000
0100
0000
0000
1000
0000
0000
0010
0000
0100
0000
0001
0000
0100
0000
0000
0010
0000
0000
1000
0000
0000
0100
0000
0000
0010
0000
0000
0001
0000
0000
1000
0000
0010
0000
0100
0000
0001
0000
1000
0000
0010
0000
,
0200
0301
0010
0100
2000
3010
0100
0001
2000
3010
0100
0001
0020
0130
1000
0001
,
2000
3010
0100
0001
2000
3010
0100
0001
0020
0130
1000
0001
0200
0310
1000
0010
,
2000
3100
0010
0001
2000
3001
0100
0010
2000
3100
0010
0001
0020
0130
1000
0001
,
0200
0310
1000
0010
2000
3001
0100
0001
2000
3100
0010
0001
2000
3010
0100
0001
,
0020
0130
1000
0100
0020
0031
1000
0001
0200
0310
1000
0010
2000
3100
0010
0001
,
2000
3001
0100
0001
0200
0310
1000
0100
0020
0130
1000
0010
0200
0301
0100
0001
,
2000
3010
1000
0010
2000
3100
0010
0001
2000
3001
0100
0001
0200
0310
1000
0100
,
0020
0031
1000
0001
2000
3100
0010
0001
0200
0310
1000
0010
2000
3001
0100
0001
,
0200
0000
0000
0000
0310
0000
0000
0000
1000
0000
0000
0000
0100
0000
0000
0000
0020
0000
0000
0000
0031
0000
0000
0000
1000
0000
0000
0000
0001
0000
0000
0000
1000
0000
0000
0100
0000
0000
0010
0000
0000
0001
0000
0000
1000
0000
0000
0010
0000
0000
0100
0000
0000
0001
0000
0000
0010
0000
0000
0100
0000
0000
1000
0000
,
0000
0010
0000
0000
0100
0000
0000
0001
0000
0000
1000
0000
0000
0001
0000
0000
1000
0000
0000
0001
0000
0000
0100
0000
0000
0010
0000
0000
1000
0000
0000
0100
0000
0000
0010
0000
0000
0001
0000
0000
1000
0000
0000
0010
0000
0000
0100
0000
0000
0001
0000
0000
0010
0000
0000
0100
0000
0000
1000
0000
0000
0100
0000
0000
,
0010
0000
0000
0001
0000
0000
1000
0000
0000
0010
0000
0000
0100
0000
0000
0001
0000
0000
1000
0000
0000
0001
0000
0000
1000
0000
0000
0100
0000
0000
0010
0000
0000
0100
0000
0000
1000
0000
0000
0010
0000
0000
0100
0000
0000
0010
0000
0000
1000
0000
0000
0100
0000
0000
0010
0000
0000
0001
0000
0000
0100
0000
0000
0001
,
0000
0000
0010
0000
0000
0100
0000
0000
1000
0000
0000
0010
0000
0000
0100
0000
0000
0001
0000
0000
0100
0000
0000
0010
0000
0000
1000
0000
0000
0100
0000
0000
0010
0000
0000
0001
0000
0000
1000
0000
0000
0010
0000
0000
0100
0000
0000
0001
0000
0000
0010
0000
0000
0001
0000
0000
1000
0000
0000
0010
0000
0000
0100
0000
,
0000
0010
0000
0000
0100
0000
0000
0001
0000
0000
0010
0000
0000
0100
0000
0000
1000
0000
0000
0001
0000
0000
0100
0000
0000
0001
0000
0000
0010
0000
0000
0100
0000
0000
1000
0000
0000
0001
0000
0000
0100
0000
0000
0001
0000
0000
1000
0000
0000
0100
0000
0000
1000
0000
0000
0001
0000
0000
0100
0000
0000
0010
0000
0000
,
1000
0000
0000
0100
0000
0000
0010
0000
0000
0001
0000
0000
1000
0000
0000
0010
0000
0000
0100
0000
0000
0001
0000
0000
0010
0000
0000
0100
0000
0000
1000
0000
0000
0010
0000
0000
0100
0000
0000
0001
0000
0000
1000
0000
0000
0001
0000
0000
1000
0000
0000
0001
0000
0000
1000
0000
0000
0010
0000
0000
1000
0000
0000
0010
,
0000
0000
1000
0000
0000
0010
0000
0000
1000
0000
0000
0100
0000
0000
0010
0000
0000
0001
0000
0000
0100
0000
0000
0001
0000
0000
0010
0000
0000
0100
0000
0000
1000
0000
0000
0010
0000
0000
0100
0000
0000
0010
0000
0000
1000
0000
0000
0100
0000
0000
0010
0000
0000
0001
0000
0000
1000
0000
0000
0001
0000
0000
0100
0000
,
0000
0010
0000
0000
1000
0000
0000
0100
0000
0000
0010
0000
0000
0001
0000
0000
0100
0000
0000
0010
0000
0000
0100
0000
0000
0010
0000
0000
1000
0000
0000
0100
0000
0000
0010
0000
0000
0001
0000
0000
0100
0000
0000
0001
0000
0000
0010
0000
0000
0100
0000
0000
1000
0000
0000
0010
0000
0000
0100
0000
0000
0010
0000
0000
,
1000
0000
0000
0100
0000
0000
0010
0000
0000
0001
0000
0000
0010
0000
0000
0100
0000
0000
1000
0000
0000
0001
0000
0000
0100
0000
0000
0001
0000
0000
0010
0000
0000
0100
0000
0000
1000
0000
0000
0001
0000
0000
0100
0000
0000
0001
0000
0000
0010
0000
0000
0100
0000
0000
1000
0000
0000
0010
0000
0000
0100
0000
0000
0010
,
0000
0000
1000
0000
0000
0100
0000
0000
0010
0000
0000
0001
0000
0000
0010
0000
0000
0100
0000
0000
1000
0000
0000
0001
0000
0000
0100
0000
0000
0001
0000
0000
0100
0000
0000
0001
0000
0000
0010
0000
0000
0100
0000
0000
1000
0000
0000
0010
0000
0000
0100
0000
0000
0010
0000
0000
1000
0000
0000
0100
0000
0000
0010
0000
,
0000
0001
0000
0000
1000
0000
0000
0010
0000
0000
0100
0000
0000
0001
0000
0000
0010
0000
0000
0100
0000
0000
1000
0000
0000
0010
0000
0000
0100
0000
0000
0001
0000
0000
1000
0000
0000
0001
0000
0000
1000
0000
0000
0010
0000
0000
0100
0000
0000
0001
0000
0000
0010
0000
0000
0100
0000
0000
1000
0000
0000
0001
0000
0000
,
0100
0000
0000
0010
0000
0000
1000
0000
0000
0010
0000
0000
1000
0000
0000
0010
0000
0000
1000
0000
0000
0100
0000
0000
0010
0000
0000
0001
0000
0000
0010
0000
0000
0100
0000
0000
1000
0000
0000
0010
0000
0000
0100
0000
0000
0001
0000
0000
0010
0000
0000
0001
0000
0000
0010
0000
0000
0001
0000
0000
0100
0000
0000
0001
,
0000
0000
0010
0000
0000
0100
0000
0000
1000
0000
0000
0010
0000
0000
0100
0000
0000
0010
0000
0000
1000
0000
0000
0100
0000
0000
0010
0000
0000
0001
0000
0000
1000
0000
0000
0001
0000
0000
1000
0000
0000
0001
0000
0000
1000
0000
0000
0010
0000
0000
1000
0000
0000
0100
0000
0000
0010
0000
0000
0001
0000
0000
1000
0000
,
0000
0001
0000
0000
0100
0000
0000
0001
0000
0000
0010
0000
0000
0100
0000
0000
1000
0000
0000
0010
0000
0000
0100
0000
0000
0001
0000
0000
0010
0000
0000
0100
0000
0000
1000
0000
0000
0010
0000
0000
0100
0000
0000
0010
0000
0000
1000
0000
0000
0100
0000
0000
0010
0000
0000
0001
0000
0000
0010
0000
0000
0100
0000
0000
,
1000
0000
0000
0001
0000
0000
0100
0000
0000
0001
0000
0000
0100
0000
0000
0010
0000
0000
1000
0000
0000
0100
0000
0000
0010
0000
0000
0001
0000
0000
1000
0000
0000
0010
0000
0000
0100
0000
0000
0001
0000
0000
0010
0000
0000
0100
0000
0000
1000
0000
0000
0100
0000
0000
0010
0000
0000
0001
0000
0000
1000
0000
0000
0010
,
0000
0000
0100
0000
0000
0001
0000
0000
0010
0000
0000
0001
0000
0000
0010
0000
0000
0001
0000
0000
1000
0000
0000
0010
0000
0000
1000
0000
0000
0010
0000
0000
0100
0000
0000
0001
0000
0000
1000
0000
0000
0001
0000
0000
1000
0000
0000
0010
0000
0000
0100
0000
0000
0001
0000
0000
0010
0000
0000
0100
0000
0000
1000
0000
,
0000
0100
0000
0000
0010
0000
0000
0001
0000
0000
1000
0000
0000
0010
0000
0000
0100
0000
0000
0001
0000
0000
0010
0000
0000
0001
0000
0000
1000
0000
0000
0010
0000
0000
0100
0000
0000
0001
0000
0000
0100
0000
0000
0010
0000
0000
1000
0000
0000
0100
0000
0000
0010
0000
0000
0001
0000
0000
0010
0000
0000
0001
0000
0000
,
2000
0000
0000
0000
0000
0000
0000
0000
0000
0000
0000
0000
0000
0000
3000
1000
,
0200
0310
0001
1000
0020
0130
0001
0010
0200
1300
0010
0100
0002
1003
0010
1000
,
0020
1030
0100
0010
0002
1003
0001
1000
0002
1003
0010
1000
0020
1030
0100
0010
,
0002
0103
0010
0100
0020
1030
0100
0010
0002
1003
0010
1000
0020
1030
0100
0010
,
0002
0000
0000
1003
0000
0000
0001
0000
0000
1000
0000
0000
0002
0000
0000
1003
0000
0000
0010
0000
0100
0000
0001
0000
0100
0000
0001
0000
1000
0000
0010
0000
1000
0000
0010
0000
0100
0000
0001
0000
0010
0000
0100
0000
1000
0000
0001
0000
,
2000
3001
1000
0010
0200
0301
0010
0100
2000
3010
0100
0001
0200
0310
1000
0010
,
2000
3100
0010
0001
2000
3010
0100
0010
2000
3100
0010
0001
0020
0130
1000
0001
,
2000
3001
0100
0001
0200
0310
1000
0100
0020
0031
0010
0001
0020
0130
1000
0001
,
0200
0000
0000
0310
0000
0000
1000
0000
0000
0010
0000
0000
2000
0000
0000
3100
0000
0000
0010
0000
0000
0001
0000
0000
2000
0000
0000
3100
0000
0000
0010
0000
0000
0001
0000
0000
2000
0000
3100
0000
0010
0000
0001
0000
1000
0000
0010
0000
,
0200
0301
0010
0100
1000
0001
2000
3100
0010
0001
1000
0010
0200
0301
0100
0001
0100
0001
0200
0310
1000
0010
1000
0010
,
2000
0000
3000
0200
0000
0000
0000
0000
0000
0000
0000
0000
0000
0000
0000
0000
0000
0000
0000
0000
0000
0000
0000
0000
0000
0000
0000
0000
0000
0000
0000
0000
0000
0000
0000
0000
0000
0000
0000
0000
0000
0000
0000
0000
0000
0000
0000
0000
,
0000
0000
0000
0000
0000
0000
0000
0000
0000
0000
0000
0000
0000
0000
0000
0300
,
0010
0002
0000
0000
0000
0000
0000
0003
1000
0020
0000
0000
0000
0000
0030
0100
,
0001
0020
0000
0000
0000
0000
0000
0030
0100
2000
0000
0000
0000
0000
3000
0100
,
0010
0002
0000
0000
0000
0000
0000
0003
1000
0020
0000
0000
0000
0000
0030
0100
,
0001
0020
0000
0000
0000
0000
0000
0030
0100
2000
0000
0000
0000
0000
3000
0001
,
0100
0020
0000
0000
0000
0000
0000
0030
1000
0200
0000
0000
0000
0000
0300
0010
,
0001
2000
0000
0000
0000
0000
0000
3000
0100
0020
0000
0000
0000
0000
0030
0001
,
0100
0020
0000
0000
0000
0000
0000
0030
1000
0200
0000
0000
0000
0000
0300
0010
,
0001
2000
0000
0000
0000
0000
0000
3000
0100
0020
0000
0000
0000
0000
0030
0001
,
1000
0020
0000
0000
0000
0000
0000
0030
0100
0002
0000
0000
0000
0000
0003
0010
,
0100
2000
0000
0000
0000
0000
0000
3000
0100
0020
0000
0000
0000
0000
0030
0001
,
0100
0020
0000
0000
0000
0000
0000
0030
1000
0200
0000
0000
0000
0000
0300
0010
,
0001
2000
0000
0000
0000
0000
0000
3000
0010
0200
0000
0000
0000
0000
0300
0001
,
0100
0002
0000
0000
0000
0000
0000
0003
0100
0002
0000
0000
0000
0000
0003
1000
,
0001
2000
0000
0000
0000
0000
0000
3000
0010
0200
0000
0000
0000
0000
0300
0001
,
0010
0200
0000
0000
0000
0000
0000
0300
1000
0002
0000
0000
0000
0000
0003
0100
,
0010
2000
0000
0000
0000
0000
0000
3000
0100
0020
0000
0000
0000
0000
0030
1000
,
0001
0100
0010
1000
0010
0100
0001
0100
0001
1000
0001
1000
0100
0010
0001
1000
,
0010
0000
0100
0000
0000
0000
0010
0100
0010
0000
1000
0000
0000
0000
0100
0010
0001
0000
1000
0000
0000
0000
0010
0100
0010
0000
0100
0000
0000
0000
0001
0010
,
0100
2000
0000
3000
0000
0022
0000
0033
0000
0220
0000
0330
0000
2020
0000
3030
,
0000
0202
0000
0303
0000
0022
0000
0033
0000
0220
0000
0330
0000
2200
0000
3300
,
0000
2020
0000
3030
0000
0202
0000
0303
0000
0220
0000
0330
0000
2200
0000
3300
,
0000
0202
0000
0303
0000
2020
0000
3030
0000
0202
0000
0303
0000
2002
0000
3003
,
0000
2020
0000
3030
0000
0220
0000
0330
0000
0022
0000
0033
0000
0220
0000
0330
,
0000
2020
0000
3030
0000
0202
0000
0303
0000
2020
0000
3030
0000
0220
0000
0330
,
0000
2002
0000
3003
0000
2200
0000
3300
0000
0022
0000
0033
0000
0202
0000
0303
,
0000
0000
0000
2020
0000
0000
0000
0000
0000
3030
0000
0000
0000
0000
0000
0220
0000
0000
0000
0000
0000
0330
0000
0000
0000
0000
0000
1001
0000
0000
0000
0000
0000
1000
0000
0000
0001
0000
1000
0000
0001
0000
1000
0000
0010
0000
0100
0000
,
0001
0020
0000
0030
0000
2220
0000
3330
0000
2202
0000
3303
0000
2022
0000
3033
,
0000
0222
0000
0333
0000
2220
0000
3330
0000
2022
0000
3033
0000
2022
0000
3033
,
0000
2202
0000
3303
0000
2202
0000
3303
0000
0222
0000
0333
0000
2022
0000
3033
,
0000
0000
0000
2202
0000
0000
0000
0000
0000
3303
0000
0000
0000
0000
0000
2222
0000
0000
0000
0000
0000
3333
0000
0000
0000
0000
0000
1001
0000
0000
0000
0000
0000
1000
0000
0000
0001
0000
0100
0000
0001
0000
0100
0000
0001
0000
0100
0000
,
0001
0200
0000
0301
0000
0101
0000
0101
0000
1010
0000
1010
0000
1100
0000
1100
,
0000
0011
0000
0011
0000
1100
0000
1100
0000
0110
0000
0110
0000
1001
0000
1001
,
0000
0000
0000
0000
1000
0000
0000
0000
0001
0000
0000
0000
0100
0000
0000
0000
0010
0000
0000
0000
1000
0000
0000
0000
0100
0000
0000
0000
0010
0000
0000
0000
0001
0000
0000
0000
0010
0000
0000
0000
0001
0000
0000
0000
1000
0000
0000
0000
0010
0000
0000
0000
0100
0000
0000
0000
0001
0000
0000
0000
0010
0000
0000
0100
,
0000
0000
1000
0000
0000
0001
0000
0000
0000
0000
0000
0000
0010
0000
0000
0100
0000
0000
1000
0000
0000
0010
0000
0000
0000
0000
0000
0000
0100
0000
0000
0001
0000
0000
0100
0000
0000
0001
0000
0000
0000
0000
0000
0000
0010
0000
0000
0100
0000
0000
1000
0000
0000
0001
0000
0000
0000
0000
0000
0000
1000
0000
0000
0010
,
0000
0000
1000
0000
0000
0010
0000
0000
1000
0000
0000
0010
0000
0000
0100
0000
0000
0001
0000
0000
0010
0000
0000
0100
0000
0000
1000
0000
0000
0010
0000
0000
0100
0000
0000
0010
0000
0000
1000
0000
0000
0100
0000
0000
0010
0000
0001
0000
0010
0000
0001
0000
0010
0000
0001
0000
0010
0000
0001
0000
0010
0000
0001
0000
,
0010
0000
0000
0100
0000
0000
0100
0000
0000
0100
0000
0000
0100
0000
1000
0000
0001
0000
0010
0000
0000
0100
0000
0000
1000
0000
0010
0000
0100
0000
0001
0000
0000
1000
0000
0000
0010
0000
0100
0000
0001
0000
0010
0000
0000
0100
0000
0000
,
1000
0000
0001
0000
0100
0000
0001
0000
0000
1000
0000
0000
0010
0000
0100
0000
0001
0000
0010
0000
0000
0100
0000
0000
1000
0000
0001
0000
0010
0000
0100
0000
0000
1000
0000
0000
0010
0000
0100
0000
0001
0000
1000
0000
0000
0010
0000
0000
,
0100
0000
0001
0000
0010
0000
0001
0000
0000
0010
0000
0000
0100
0000
1000
0000
0100
0000
1000
0000
0000
0010
0000
0000
0100
0000
0001
0000
1000
0000
0001
0000
0000
1000
0000
0000
0010
0000
0100
0000
0001
0000
0010
0000
0000
0100
0000
0000
,
1000
0000
0001
0000
0010
0000
0100
0000
0000
1000
0000
0000
0010
0000
0100
0000
0001
0000
0100
0000
0000
0010
0000
0000
1000
0000
0100
0000
0010
0000
0001
0000
0000
1000
0000
0000
0010
0000
0100
0000
0001
0000
0100
0000
0000
0010
0000
0000
,
1000
0000
0100
0000
0010
0000
0001
0000
0000
1000
0000
0000
0010
0000
0100
0000
0001
0000
0010
0000
0000
0100
0000
0000
1000
0000
0001
0000
0010
0000
0100
0000
0000
1000
0000
0000
0010
0000
0100
0000
0001
0000
1000
0000
0000
0010
0000
0000
,
0100
0000
0001
0000
0010
0000
0100
0000
0000
1000
0000
0000
0001
0000
0100
0000
0010
0000
1000
0000
0000
0001
0000
0000
0100
0000
0010
0000
1000
0000
0010
0000
0000
1000
0000
0000
0100
0000
0010
0000
0001
0000
0010
0000
0000
0001
0000
0000
,
1000
0000
0010
0000
0100
0000
0001
0000
0000
0010
0000
0000
0100
0000
1000
0000
0001
0000
0100
0000
0000
0010
0000
0000
1000
0000
0100
0000
0010
0000
0001
0000
0000
0010
0000
0000
0100
0000
1000
0000
0001
0000
0100
0000
0000
0010
0000
0000
,
1000
0000
0010
0000
1000
0000
0010
0000
0000
1000
0000
0000
0100
0000
0010
0000
0001
0000
0010
0000
0000
0001
0000
0000
1000
0000
0010
0000
0100
0000
0001
0000
0000
0010
0000
0000
0100
0000
1000
0000
0001
0000
1000
0000
0000
0010
0000
0000
,
0100
0000
0001
0000
0010
0000
0100
0000
0000
1000
0000
0000
0010
0000
0100
0000
0001
0000
0010
0000
0000
0100
0000
0000
0010
0000
0001
0000
1000
0000
0001
0000
0000
1000
0000
0000
0010
0000
0100
0000
0001
0000
0010
0000
0000
0100
0000
0000
,
1000
0000
0001
0000
0010
0000
0100
0000
0000
1000
0000
0000
0010
0000
0100
0000
0001
0000
1000
0000
0000
0010
0000
0000
0100
0000
0001
0000
0010
0000
0100
0000
0000
1000
0000
0000
0010
0000
0100
0000
0001
0000
0100
0000
0000
0010
0000
0000
,
1000
0000
0100
0000
0010
0000
0001
0000
0000
1000
0000
0000
0010
0000
0100
0000
0001
0000
0010
0000
0000
0100
0000
0000
1000
0000
0001
0000
0100
0000
0001
0000
0000
1000
0000
0000
0010
0000
0100
0000
0001
0000
0010
0000
0000
0100
0000
0000
,
1000
0000
0001
0000
0100
0000
0001
0000
0000
1000
0000
0000
0010
0000
0100
0000
0001
0000
0010
0000
0000
0100
0000
0000
1000
0000
0001
0000
0010
0000
0100
0000
0000
1000
0000
0000
0010
0000
0100
0000
0001
0000
0100
0000
0000
0010
0000
0000
,
1000
0000
0100
0000
0010
0000
0001
0000
0000
1000
0000
0000
0010
0000
0100
0000
0001
0000
0010
0000
0000
0100
0000
0000
1000
0000
0001
0000
0010
0000
0001
0000
0000
1000
0000
0000
0010
0000
0100
0000
0001
0000
0100
0000
0000
0010
0000
0000
,
1000
0000
0100
0000
0010
0000
0001
0000
0000
1000
0000
0000
0001
0000
1000
0000
0001
0000
1000
0000
0000
0001
0000
0000
1000
0000
0010
0000
0100
0000
0001
0000
0000
1000
0000
0000
0010
0000
0100
0000
0001
0000
0010
0000
0000
0100
0000
0000
,
1000
0000
0001
0000
0010
0000
0100
0000
0000
1000
0000
0000
0010
0000
0100
0000
0001
0000
1000
0000
0000
0100
0000
0000
0010
0000
0001
0000
1000
0000
0010
0000
0000
0100
0000
0000
0001
0000
0010
0000
0100
0000
1000
0000
0000
0001
0000
0000
,
0100
0000
0001
0000
1000
0000
0001
0000
0000
1000
0000
0000
0010
0000
0100
0000
0001
0000
0010
0000
0000
0100
0000
0000
1000
0000
0001
0000
0100
0000
0010
0000
0000
1000
0000
0000
0100
0000
0010
0000
0001
0000
1000
0000
0000
0010
0000
0000
,
0100
0000
0001
0000
0010
0000
0100
0000
0000
1000
0000
0000
0001
0000
0100
0000
0010
0000
1000
0000
0000
0001
0000
0000
0100
0000
0010
0000
1000
0000
0100
0000
0000
0010
0000
0000
0001
0000
1000
0000
0010
0000
0100
0000
0000
0001
0000
0000
,
0010
0000
0100
0000
1000
0000
0001
0000
0000
0100
0000
0000
0010
0000
1000
0000
0100
0000
0010
0000
0000
0001
0000
0000
1000
0000
0010
0000
0100
0000
0001
0000
0000
0010
0000
0000
0100
0000
1000
0000
0001
0000
0100
0000
0000
0010
0000
0000
,
1000
0000
0010
0000
1000
0000
0010
0000
0000
1000
0000
0000
0100
0000
0010
0000
0001
0000
1000
0000
0000
0010
0000
0000
0100
0000
0001
0000
0100
0000
0001
0000
0000
0100
0000
0000
0001
0000
0100
0000
0001
0000
0100
0000
0000
0010
0000
0000
,
1000
0000
0010
0000
1000
0000
0010
0000
0000
1000
0000
0000
0010
0000
0100
0000
0001
0000
0010
0000
0000
0100
0000
0000
1000
0000
0001
0000
0010
0000
0100
0000
0000
1000
0000
0000
0001
0000
1000
0000
0001
0000
1000
0000
0000
0010
0000
0000
,
0100
0000
0001
0000
0010
0000
0100
0000
0000
1000
0000
0000
0010
0000
1000
0000
0010
0000
1000
0000
0000
0100
0000
0000
0010
0000
0001
0000
0100
0000
0001
0000
0000
0100
0000
0000
0010
0000
1000
0000
0100
0000
0010
0000
0000
0001
0000
0000
,
1000
0000
0010
0000
0100
0000
0001
0000
0000
0010
0000
0000
0100
0000
1000
0000
0001
0000
1000
0000
0000
0010
0000
0000
0100
0000
0001
0000
0010
0000
0100
0000
0000
1000
0000
0000
0010
0000
0100
0000
0001
0000
0010
0000
0000
0100
0000
0000
,
1000
0000
0001
0000
0010
0000
0100
0000
0000
1000
0000
0000
0010
0000
0100
0000
0001
0000
0100
0000
0000
0010
0000
0000
1000
0000
0100
0000
0010
0000
0001
0000
0000
1000
0000
0000
0010
0000
0100
0000
0001
0000
0010
0000
0000
0100
0000
0000
,
1000
0000
0001
0000
0010
0000
0100
0000
0000
1000
0000
0000
0010
0000
0100
0000
0001
0000
0010
0000
0000
0100
0000
0000
1000
0000
0001
0000
0100
0000
0010
0000
0000
1000
0000
0000
0100
0000
0010
0000
0001
0000
1000
0000
0000
0010
0000
0000
,
0100
0000
0001
0000
0010
0000
0100
0000
0000
1000
0000
0000
0001
0000
0100
0000
0010
0000
1000
0000
0000
0100
0000
0000
0010
0000
0001
0000
1000
0000
0010
0000
0000
0100
0000
0000
0001
0000
0010
0000
0100
0000
0010
0000
0000
0100
0000
0000
,
1000
0000
0001
0000
0100
0000
0010
0000
0000
1000
0000
0000
0010
0000
1000
0000
0010
0000
1000
0000
0000
0010
0000
0000
1000
0000
0001
0000
0100
0000
0001
0000
0000
0100
0000
0000
0010
0000
1000
0000
0100
0000
0010
0000
0000
0001
0000
0000
,
1000
0000
0010
0000
0100
0000
0001
0000
0000
0010
0000
0000
0100
0000
1000
0000
0001
0000
0100
0000
0000
0010
0000
0000
1000
0000
0100
0000
0010
0000
0100
0000
0000
1000
0000
0000
0001
0000
0100
0000
0010
0000
1000
0000
0000
0001
0000
0000
,
0100
0000
0010
0000
1000
0000
0100
0000
0000
0010
0000
0000
0001
0000
1000
0000
0010
0000
1000
0000
0000
0001
0000
0000
0100
0000
0010
0000
1000
0000
0100
0000
0000
0010
0000
0000
0001
0000
1000
0000
0010
0000
0100
0000
0000
0001
0000
0000
,
1000
0000
0010
0000
1000
0000
0010
0000
0000
1000
0000
0000
0100
0000
0010
0000
0001
0000
1000
0000
0000
0010
0000
0000
0100
0000
0001
0000
0010
0000
0100
0000
0000
1000
0000
0000
0010
0000
0100
0000
0001
0000
0100
0000
0000
0010
0000
0000
,
1000
0000
0100
0000
0010
0000
0001
0000
0000
1000
0000
0000
0010
0000
0100
0000
0001
0000
0010
0000
0000
0100
0000
0000
1000
0000
0001
0000
0100
0000
0001
0000
0000
0010
0000
0000
1000
0000
0001
0000
0100
0000
0010
0000
0000
1000
0000
0000
,
0100
0000
0010
0000
0001
0000
1000
0000
0000
0010
0000
0000
0100
0000
0000
0002
0000
0000
0000
0000
0000
0000
0000
0000
0000
0000
0000
2003
0000
0000
0000
0000
0000
0000
0000
0000
0000
0000
0000
3020
0000
0000
0000
0000
0000
0000
0000
0000
,
0000
0230
0000
0000
0000
0302
0000
0000
0000
0023
0000
0000
0000
0230
0000
0000
,
0000
2300
0000
0000
0000
3020
0000
0000
0000
0000
0000
0000
0000
0000
0000
0000
,
0000
0000
0000
0000
,
0000
0000
0000
0000
0000
0130
0001
0010
0200
1300
0010
0100
0002
1003
0010
1000
,
0020
0130
0001
1000
0020
0130
0001
0010
0200
1300
0010
0100
0002
1003
0010
0100
,
0002
0013
0100
1000
0200
0310
0001
1000
0002
1003
0010
1000
0020
0130
0001
0010
,
0200
1300
0010
0100
0002
1003
0001
1000
0020
0130
0001
0010
0200
1300
0010
1000
,
0020
0130
0001
1000
0002
1003
0100
0010
0002
1003
0010
0100
0002
0013
0100
1000
,
0200
0310
0001
0010
0200
1300
0010
0100
0002
1003
0001
1000
0002
1003
0010
0100
,
0002
0013
0100
1000
0200
0310
0001
1000
0002
1003
0010
0100
0002
0013
0100
1000
,
0002
0103
0010
1000
0020
1030
0100
0010
0002
1003
0010
0100
0002
0013
0100
1000
,
0200
0310
0001
1000
0002
1003
0010
1000
0020
0130
0001
0010
0200
1300
0100
0010
,
0002
1003
0010
0100
0002
0013
0100
1000
0200
0310
0001
1000
0002
1003
0010
0100
,
0002
0013
0100
1000
0200
0310
0001
1000
0002
1003
0010
0100
0002
0013
0100
1000
,
0200
0310
0001
1000
0002
1003
0010
0100
0002
0013
0100
1000
0200
0310
0001
1000
,
0002
1003
0010
0100
0002
0013
0100
1000
0200
0310
0001
1000
0002
1003
0010
1000
,
0020
0130
0001
0010
0200
1300
0010
0100
0002
1003
0001
0100
0002
1003
0010
1000
,
0020
0130
0001
0010
0200
1300
0010
0100
0002
1003
0001
1000
0002
1003
0010
1000
,
0020
0130
0001
0010
0200
1300
0010
0100
0002
0103
0001
0100
0002
0103
0010
0100
,
0020
1030
0010
1000
0020
1030
0100
0010
0002
1003
0001
0100
0002
0023
0000
0000
,
0000
0230
0000
0000
0000
2300
0000
0000
0000
3020
0000
0000
0000
0230
0000
0000
,
0000
0302
0000
0000
0000
0203
0000
0000
0000
0320
0000
0000
0000
2030
0000
0000
,
0000
3200
0000
0000
0000
0320
0000
0000
0000
0032
0000
0000
0000
2003
0000
0000
,
0000
3002
0000
0000
0000
0203
0000
0000
0000
0320
0000
0000
0000
2030
0000
0000
,
0000
3200
0000
0000
0000
0320
0000
0000
0000
0032
0000
0000
0000
0023
0000
0000
,
0000
0230
0000
0000
0000
2300
0000
0000
0000
3002
0000
0000
0000
2003
0000
0000
,
0000
3002
0000
0000
0000
2003
0000
0000
0000
3020
0000
0000
0000
0230
0000
0000
,
0000
0320
0000
0000
0000
0130
0000
0000
0000
0000
0000
0000
0010
0200
0000
0000
,
0000
0302
0000
0000
0000
0023
0000
0000
0000
0230
0000
0000
0000
2300
0000
0000
,
0000
3020
0000
0000
0000
2030
0000
0000
0000
3020
0000
0000
0000
0230
0000
0000
,
0000
0302
0000
0000
0000
0023
0000
0000
0000
0230
0000
0000
0000
2300
0000
0000
,
0000
3200
0000
0000
0000
0320
0000
0000
0000
0032
0000
0000
0000
0203
0000
0000
,
0000
0302
0000
0000
0000
0203
0000
0000
0000
0320
0000
0000
0000
2030
0000
0000
,
0000
3200
0000
0000
0000
0320
0000
0000
0000
0032
0000
0000
0000
0203
0000
0000
,
0000
0000
0000
0000
0320
0000
0000
0000
0000
0000
0000
0000
0000
0000
0000
0000
0000
0000
0000
0000
0130
0000
0000
0000
0001
0000
0000
0000
0010
0000
0000
0000
0100
0000
0000
0000
1000
0000
0000
0000
0010
0000
0000
0000
0100
0000
0000
0000
0001
0000
0000
0000
1000
0000
0000
0001
0000
0000
0100
0000
0000
0010
0000
0000
,
1000
0000
0000
0100
0000
0000
0010
0000
0000
0001
0000
0000
1000
0000
0000
0010
0000
0000
0100
0000
0000
0001
0000
0000
0010
0000
0000
0100
0000
0000
1000
0000
0000
0010
0000
0000
0100
0000
0000
0001
0000
0000
1000
0000
0000
0010
0000
0000
0100
0000
0000
0000
0202
0000
0000
0000
0000
0000
0000
0000
0000
0000
0000
0000
,
0000
0000
0000
0000
,
0000
0303
0000
0000
0000
0000
0000
0000
0000
0000
0000
0000
0000
0000
0000
0000
;

//---------------lights-cabinet - ----------------
#NOTES:
     lights-cabinet:
     :
     Easy:
     1:
     1.000,1.000,1.000,0.127,1.000,2042.000,542.000,42.000,0.000,77.000:

000000
222200
000000
000000
,
000000
000000
000000
000000
,
000000
000000
000000
333300
,
111100
111100
000000
111100
111100
000000
000000
111100
111100
000000
000000
111100
111100
000000
000000
111100
,
111100
000000
000000
111100
111100
000000
000000
111100
111100
000000
000000
111100
111100
000000
000000
000000
,
111100
111100
111100
111100
,
111100
111100
111100
111100
,
111100
111100
111100
111100
,
111100
000000
111100
000000
111100
111100
111100
111100
,
111100
111100
111100
111100
,
111100
111100
111100
111100
,
111100
111100
111100
111100
,
111100
000000
000000
000000
111100
000000
000000
000000
100000
010000
001000
000100
100000
000000
111100
000000
,
000100
010000
000100
001100
000100
010000
001100
101000
,
110000
001100
110000
011000
001100
110000
110000
110000
,
001100
001100
001100
001100
001100
110000
001100
010100
,
000100
100000
000100
222200
000000
000000
333300
000000
,
001100
001100
001100
010100
001100
110000
001100
101000
,
110000
001100
110000
011000
001100
110000
001100
101000
,
001100
110000
001100
110000
110000
110000
001100
001100
,
001100
000000
001100
000000
001100
000000
001100
000000
010000
000100
100000
001000
010000
000000
000000
010000
,
100000
110000
001100
001100
,
110000
110000
001100
001100
110000
001100
222200
000000
,
333300
010000
001100
110000
110000
001100
001100
110000
,
001100
110000
001100
110000
001100
001100
222200
000000
,
333300
000000
000100
000000
110000
000000
001100
000000
001100
000000
000000
001000
010000
000000
000000
010000
,
000100
001100
001100
110000
001100
110000
222200
000000
,
333300
110000
001100
110000
110000
001100
001100
110000
,
001100
110000
001100
110000
110000
110000
222200
000000
,
333300
001100
110000
001100
110000
001100
110000
001100
,
110000
000000
000000
001100
000000
000000
000000
000000
110000
000000
001100
000000
110000
000000
001100
000000
,
010000
001000
100000
001000
100000
000000
110000
000000
110000
000000
001100
000000
001000
000100
001000
000100
,
001000
000000
001100
000000
110000
000000
001100
000000
100000
000100
100000
000100
100000
000000
001100
000000
,
010000
001000
100000
001000
200000
000000
000000
000000
000000
300000
110000
000000
001000
000100
001000
000100
,
001000
110000
001100
001100
110000
001100
110000
001100
,
100000
000100
100000
000100
200000
000000
000000
000000
000000
300000
001100
000000
010000
001000
010000
001000
,
010000
000000
001100
000000
110000
000000
110000
000000
001000
000100
001000
000100
001000
000000
001100
000000
,
100000
000100
100000
000100
100000
000000
110000
000000
001100
000000
110000
000000
001100
000000
110000
000000
,
001000
010000
001000
100000
001000
100000
000000
010000
100000
000000
000000
110000
000000
000000
000000
000000
,
001100
000000
000000
001100
000000
000000
000000
000000
110000
000000
110000
000000
001100
000000
001100
000000
,
100000
000100
100000
000100
010000
001000
010000
000000
001000
100000
001000
100000
010000
100000
010000
000000
,
100000
000100
100000
000100
010000
000100
010000
000000
000100
010000
001000
010000
001000
010000
001000
000000
,
100000
001000
100000
010000
100000
010000
001000
000000
000100
001000
010000
100000
000100
010000
001000
000000
,
010000
000100
100000
001000
010000
000100
100000
000000
000100
100000
001000
010000
000100
100000
000100
000000
,
100000
010000
100000
000100
100000
000100
100000
000000
000100
010000
000100
010000
001000
010000
001000
000000
,
100000
001000
100000
001000
100000
001000
100000
000000
010000
100000
000100
001000
010000
100000
000100
000000
,
010000
000100
010000
001000
100000
000100
100000
000000
000100
010000
000100
100000
001000
100000
000000
000000
,
000100
100000
000100
010000
001000
100000
000100
000000
100000
010000
001000
000100
001000
010000
100000
000000
,
001000
010000
001000
100000
010000
100000
000100
000000
100000
000100
100000
000100
100000
000100
100000
000000
,
000100
010000
000100
010000
000100
010000
000100
000000
001000
100000
001000
100000
001000
100000
001000
000000
,
100000
010000
100000
010000
100000
010000
100000
000000
000100
001000
010000
100000
000100
010000
000100
000000
,
001000
000100
001000
000100
001000
000100
001000
000000
000100
100000
010000
001000
000100
100000
000100
000000
,
010000
000100
010000
001000
100000
000100
100000
000000
000100
100000
010000
100000
000100
001000
000100
000000
,
000100
010000
100000
010000
001000
100000
001000
000000
100000
010000
001000
000100
001000
000100
001000
000000
,
001100
000000
001100
000000
110000
000000
001100
000000
110000
000000
000100
010000
001000
100000
001000
000000
,
100000
001000
100000
001000
010000
001000
100000
000000
010000
100000
000100
100000
010000
001000
000100
000000
,
100000
000100
010000
001000
010000
000100
100000
000000
001000
100000
000100
010000
000100
010000
000100
000000
,
100000
000100
010000
001000
010000
000100
100000
000000
000100
100000
010000
100000
000100
100000
000100
000000
,
001000
000100
100000
000100
010000
001000
010000
000000
001000
100000
010000
100000
000100
001000
000100
000000
,
100000
000100
010000
000100
001000
000100
001000
000000
000100
001000
000100
001000
010000
100000
000100
000000
,
100000
000100
010000
001000
100000
000100
100000
000000
000100
100000
010000
100000
000100
001000
010000
000000
,
001000
000100
001000
010000
100000
000100
100000
000000
000100
100000
000100
010000
000100
010000
000100
000000
,
001100
000000
110000
000000
001100
000000
110000
000000
110000
000000
001000
000100
001000
010000
100000
000000
,
000100
010000
001000
100000
010000
100000
010000
100000
000100
001000
010000
100000
000100
010000
001000
100000
,
010000
100000
001000
100000
010000
100000
010000
001000
000100
001000
010000
100000
000100
010000
000100
100000
,
000100
100000
000100
010000
000100
010000
000100
010000
001000
010000
001000
010000
001000
100000
001000
100000
,
010000
100000
010000
100000
010000
100000
001000
100000
010000
100000
000100
001000
010000
100000
000100
001000
,
010000
100000
000100
010000
001000
100000
010000
001000
000100
010000
000100
010000
000100
100000
001000
010000
,
000100
100000
000100
001000
010000
100000
001000
010000
001000
100000
010000
001000
000100
001000
010000
100000
,
000100
010000
001000
100000
000100
001000
010000
100000
000100
010000
001000
010000
000100
100000
000100
100000
,
000100
100000
001000
010000
000100
100000
010000
100000
010000
001000
000100
001000
000100
100000
000100
100000
,
000100
000000
000000
000000
000000
000000
100000
000000
000000
000100
000000
000000
100000
000000
000000
000100
000000
000000
100000
000000
000000
000000
000000
000000
001000
000000
000000
000000
100000
000000
000000
000000
010000
000000
000000
000000
100000
000000
000000
000000
001000
000000
000000
000000
010000
000000
000000
000000
,
000100
001000
000100
001000
000100
010000
000100
100000
000100
010000
001000
100000
,
001000
100000
010000
100000
010000
001000
000100
100000
000100
010000
100000
010000
,
001000
100000
010000
100000
000100
001000
100000
001000
000100
001000
000100
100000
,
000100
010000
000100
010000
001000
100000
010000
100000
010000
001000
000100
001000
,
010000
100000
000100
010000
000100
010000
001000
010000
001000
100000
001000
100000
,
010000
100000
010000
001000
000100
001000
000100
001000
000100
100000
000100
010000
,
001000
100000
000100
100000
010000
100000
000100
001000
000100
100000
000100
010000
,
001000
100000
000100
010000
001000
100000
000100
010000
000100
100000
000100
100100
,
000100
010000
000100
001000
000100
010000
000100
010000
001000
100000
001000
010000
,
001000
100000
010000
100000
010000
001000
000100
100000
000100
010000
100000
010000
,
001000
100000
001000
100000
010000
001000
010000
000100
010000
001000
010000
100000
,
000100
010000
100000
010000
001000
100000
001000
010000
000100
100000
000100
100100
,
000100
010000
000100
001000
000100
001000
000100
001000
100000
001000
000100
001000
,
000100
010000
100000
010000
000100
001000
100000
001000
000100
100000
000100
010000
,
001000
100000
001000
100000
010000
100000
010000
001000
010000
000100
010000
001000
,
000100
100000
000100
010000
001000
100000
000100
010000
001000
100000
000400
400000
,
000000
000000
000000
000000
000000
300300
000000
000000
,
110000
110000
110000
110000
110000
001100
110000
010100
,
001100
001100
001100
001100
001100
110000
001100
101000
,
110000
001100
110000
110000
110000
001100
001100
100100
,
001100
110000
001100
222200
000000
000000
333300
111100
,
110000
110000
110000
110000
110000
001100
001100
100100
,
001100
110000
001100
101000
001100
110000
001100
101000
,
110000
110000
001100
001100
001100
110000
001100
101000
,
110000
000000
110000
000000
110000
000000
001100
000000
000100
100000
001000
010000
000100
100000
000100
100000
,
000100
110000
001100
001100
110000
110000
110000
110000
,
222200
000000
000000
000000
,
000000
000000
000000
000000
,
000000
000000
000000
000000
,
000000
000000
000000
000000
,
000000
000000
000000
000000
,
000000
000000
000000
000000
,
000000
000000
000000
000000
,
000000
000000
000000
000000
,
000000
000000
000000
000000
,
000000
000000
000000
000000
,
000000
000000
000000
000000
,
000000
000000
000000
000000
,
000000
000000
000000
000000
,
000000
000000
000000
000000
,
000000
000000
000000
000000
,
000000
000000
000000
000000
,
000000
000000
000000
000000
,
000000
000000
000000
000000
,
000000
000000
000000
000000
000000
000000
333300
111100
,
110000
110000
001100
001100
110000
110000
001100
001100
,
110000
110000
001100
001100
011000
110000
110000
110000
,
001100
001100
010100
110000
001100
001100
100100
110000
,
100100
110000
001100
001100
011000
110000
100100
110000
,
010100
110000
100100
110000
010100
110000
011000
110000
,
001100
001100
110000
110000
010100
110000
010100
110000
,
001100
001100
100100
110000
001100
001100
011000
110000
,
101000
110000
101000
110000
001100
001100
011000
110000
,
100100
110000
010100
110000
010100
110000
001100
001100
,
010100
110000
101000
110000
010100
110000
101000
110000
,
101000
110000
100100
110000
010100
110000
100100
110000
,
001100
001100
101000
110000
101000
110000
100100
110000
,
100100
110000
010100
110000
100100
110000
001100
001100
,
111100
111100
111100
111100
111100
111100
111100
111100
,
111100
111100
111100
111100
111100
111100
111100
111100
,
100000
010000
001000
000100
001000
010000
100000
000100
010000
001000
100000
000100
010000
001000
100000
010000
,
100000
000000
000100
000100
000100
000000
100000
100000
100000
000000
010000
010000
010000
000000
001000
001000
,
222200
000000
000000
000000
000000
000000
000000
333300
,
000000
000000
000000
000000
100000
000100
100000
010000
001000
000100
100000
010000
001000
000100
100000
001000
,
010000
001000
100000
010000
100000
000100
001000
000100
100000
000100
010000
001000
010000
000100
100000
010000
,
100000
000100
001000
010000
100000
000100
001000
010000
100000
000100
010000
001000
100000
000100
100000
010000
,
100000
001000
100000
010000
100000
000100
001000
000100
100000
000100
010000
001000
100000
000100
010000
001000
,
100000
000100
010000
001000
100000
000100
100000
010000
001000
000100
100000
010000
001000
000100
100000
001000
,
100000
010000
001000
000100
010000
000100
001000
000100
010000
000100
001000
010000
100000
001000
010000
000100
,
001000
010000
100000
001000
010000
001000
100000
010000
100000
000100
001000
010000
100000
000100
001000
010000
,
100000
000100
010000
001000
100000
000100
010000
001000
100000
000100
001000
010000
001000
000100
100000
000100
,
001000
010000
100000
000100
001000
010000
100000
000100
100000
000100
100000
010000
001000
000100
100000
010000
,
001000
000100
100000
001000
010000
000100
100000
001000
010000
000100
100000
001000
100000
001000
100000
010000
,
100000
001000
100000
000100
010000
001000
100000
000100
010000
001000
100000
001000
100000
010000
100000
000100
,
001000
010000
100000
000100
001000
010000
100000
000100
010000
001000
100000
000100
001000
010000
100000
000100
,
010000
001000
010000
001000
100000
010000
100000
010000
001000
010000
001000
000100
001000
000100
001000
010000
,
001000
010000
001000
000100
001000
010000
100000
001000
010000
000100
100000
001000
010000
000100
100000
010000
,
001000
010000
001000
000100
100000
000100
010000
001000
100000
010000
001000
000100
010000
001000
100000
010000
,
100000
001000
010000
000100
001000
000100
100000
001000
010000
000100
001000
000100
100000
001000
010000
001000
,
010000
000100
010000
001000
100000
010000
001000
000100
001000
010000
100000
010000
001000
000100
100000
010000
,
001000
000100
001000
010000
100000
000100
100000
000100
010000
001000
100000
010000
001000
000100
100000
001000
,
010000
001000
100000
010000
001000
000100
010000
001000
100000
000100
001000
010000
001000
010000
100000
001000
,
010000
000100
001000
000100
100000
001000
010000
000100
100000
010000
001000
000100
010000
001000
100000
010000
,
001000
000100
010000
001000
100000
010000
001000
000100
100000
000100
100000
001000
010000
000100
100000
010000
,
001000
000100
010000
001000
100000
010000
001000
000100
001000
000100
100000
001000
010000
001000
100000
010000
,
100000
001000
010000
001000
100000
001000
100000
010000
100000
001000
010000
001000
100000
010000
001000
000100
,
001000
010000
100000
000100
010000
001000
100000
000100
001000
010000
001000
000100
100000
000100
010000
000100
,
100000
000100
100000
001000
010000
000100
100000
001000
010000
000100
100000
001000
100000
000100
001000
010000
,
001000
000100
100000
010000
001000
000100
100000
000100
010000
001000
100000
000100
010000
001000
100000
010000
,
100000
010000
001000
000100
100000
000100
100000
001000
100000
001000
100000
000100
100000
000100
100000
010000
,
100000
010000
100000
010000
001000
010000
001000
010000
001000
000100
001000
000100
001000
010000
001000
010000
,
001000
010000
100000
010000
100000
001000
100000
001000
010000
000100
100000
001000
010000
000100
100000
001000
,
010000
000100
100000
010000
100000
010000
001000
000100
001000
000100
100000
010000
001000
000100
001000
010000
,
100000
001000
010000
000100
100000
000000
110000
000000
010100
000000
110000
000000
001100
000000
001100
000000
,
101000
110000
100100
110000
100100
110000
011000
110000
,
101000
110000
110000
110000
110000
110000
001100
001100
,
001100
001100
110000
110000
001100
001100
110000
110000
,
110000
000000
110000
000000
000100
001000
010000
100000
000100
010000
001000
100000
010000
100000
001000
100000
,
010000
100000
000100
001000
010000
100000
000100
010000
001000
100000
010000
100000
000100
001000
010000
100000
,
000100
010000
001000
100000
010000
100000
010000
001000
000100
010000
000100
001000
010000
100000
001000
010000
,
000100
001000
010000
100000
000100
100000
000100
100000
000100
001000
010000
100000
000100
010000
001000
100000
,
010000
100000
000100
001000
010000
100000
000100
010000
001000
100000
010000
100000
010000
100000
000100
001000
,
010000
100000
000100
010000
001000
100000
010000
001000
000100
100000
000100
100000
000100
001000
000100
001000
,
010000
100000
001000
010000
001000
100000
010000
100000
000100
001000
010000
100000
000100
010000
001000
100000
,
000100
001000
010000
001000
000100
100000
010000
001000
000100
100000
000100
010000
001000
100000
000100
010000
,
001000
100000
000100
010000
001000
100000
000100
100000
000100
100000
000100
100000
001000
010000
000100
100000
,
001000
010000
000100
100000
001000
010000
000100
100000
000100
100000
000100
100000
001000
010000
000100
100000
,
000100
100000
010000
100000
010000
001000
000100
100000
000100
100000
000100
100000
010000
001000
000100
100000
,
010000
001000
000100
100000
010000
001000
000100
100000
000100
100000
000100
100000
000100
001000
010000
100000
,
000100
100000
000100
100000
000100
010000
000100
010000
001000
010000
001000
010000
001000
100000
001000
100000
,
010000
100000
010000
100000
010000
100000
000100
001000
000100
100000
001000
010000
000100
100000
000100
100000
,
000100
100000
000100
100000
010000
100000
010000
100000
010000
001000
010000
001000
000100
001000
010000
001000
,
010000
100000
000100
010000
001000
100000
000100
010000
001000
000000
110000
000000
110000
000000
001100
000000
,
110000
110000
110000
110000
100100
110000
010100
110000
,
001100
001100
110000
001100
110000
001100
110000
001100
,
110000
110000
110000
001100
001100
001100
001100
110000
,
001100
110000
001100
110000
001100
110000
110000
110000
,
001100
001100
001100
110000
001100
110000
001100
001100
,
001100
110000
110000
110000
110000
001100
001100
001100
,
001100
110000
001100
110000
001100
110000
001100
110000
,
101000
001100
110000
110000
001100
001100
001100
110000
,
001100
110000
001100
110000
001100
110000
001100
001100
,
110000
110000
110000
110000
001100
001100
001100
001100
,
110000
110000
001100
001100
110000
110000
001100
001100
,
110000
110000
001100
001100
110000
110000
110000
110000
,
010100
110000
101000
110000
001100
001100
100100
110000
,
100100
110000
100100
110000
011000
110000
110000
110000
,
001100
000000
001100
000000
100100
000000
110000
000000
110000
000000
110000
000000
000100
100000
000100
000000
,
100000
000100
100000
000000
000100
010000
000100
000000
010000
001000
010000
000000
001000
100000
000100
010000
,
000100
100000
001000
010000
000100
100000
010000
100000
000100
100000
000100
100000
222200
000000
333300
000000
;

//---------------lights-cabinet - Easy Edit----------------
#NOTES:
     lights-cabinet:
     Easy Edit:
     Edit:
     1:
     0.000,0.000,0.000,0.000,0.000,0.000,0.000,0.000,0.000,0.000:

000000
000000
000000
000000
;
