#TITLE:Space Fight;
#SUBTITLE:;
#ARTIST:Akira Yamaoka;
#TITLETRANSLIT:;
#SUBTITLETRANSLIT:;
#ARTISTTRANSLIT:;
#CREDIT:;
#BANNER:Space Fight-bn.png;
#BACKGROUND:Space Fight-bg.png;
#LYRICSPATH:;
#CDTITLE:;
#MUSIC:Space Fight.mp3;
#OFFSET:-6.940;
#SAMPLESTART:48.365;
#SAMPLELENGTH:13.280;
#SELECTABLE:YES;
#BPMS:0.000=139.000;
#STOPS:;
#BGCHANGES:0.000=Space Fight.avi=1.000=1=0=1,
99999=-nosongbg-=1.000=0=0=0 // don't automatically add -songbackground-
;
// cache tags:
#FIRSTBEAT:0.000;
#LASTBEAT:195.000;
#SONGFILENAME:Songs/toune/Space Fight/Space Fight.sm;
#HASMUSIC:1;
#HASBANNER:1;
#MUSICLENGTH:95.013;
// end cache tags

//---------------dance-single - ----------------
#NOTES:
     dance-single:
     :
     Hard:
     7:
     0.436,0.462,0.263,0.389,0.000,228.000,25.000,37.000,0.000,0.000:
1000
0100
0010
0001
0100
0010
1000
0020
,
0000
0230
0000
0000
0301
0100
0001
0020
,
0000
0230
0000
0000
0000
1300
0010
0200
,
0000
0000
0000
0302
0000
0000
2003
0000
,
3001
0100
0010
1000
0100
0010
0001
0020
,
0000
0230
0000
0000
1300
0100
1000
0020
,
0000
0230
0000
0000
0000
0301
0010
0200
,
0000
0000
0000
2300
0000
0000
3002
0000
,
0003
0000
0010
0200
0000
0000
0300
0000
,
0000
0000
1000
0002
0000
0000
0003
0000
,
0000
0000
0100
0020
0000
0000
0030
0000
,
0000
0000
0001
2000
0000
0000
3000
0000
,
0000
0000
0010
0200
0001
0000
0310
0000
,
0001
0000
1000
0002
0100
0000
0013
0000
,
1000
0000
0100
0020
0001
0000
0130
0000
,
1001
0000
0010
0200
0000
0000
0300
0000
,
0001
1000
0001
1000
,
0100
1100
0000
0000
0100
1100
0000
0000
,
1000
1001
0001
1001
,
1000
0000
1001
0000
0001
1001
0000
1001
,
1000
0100
1000
0100
0010
0100
1000
0100
,
1000
0220
0000
0330
0000
0220
0000
0330
,
0001
0010
0001
0100
2002
0000
0000
0000
,
3003
0000
0000
0000
,
1000
1001
1000
1001
,
0010
0110
0010
0110
,
0010
1000
0100
0000
0010
0001
0100
0000
,
0010
1000
0001
1000
0100
0001
0100
1000
,
0001
1001
0001
1001
,
0010
0110
0010
0110
,
0010
0001
0100
0000
0010
1000
0100
0000
,
0010
0001
0100
0001
0010
0100
1000
0001
,
0100
0010
0100
0010
,
1000
0000
0001
1000
0000
0001
0000
0000
,
1000
2010
3002
0100
,
1003
0100
0001
0010
,
1000
0210
0301
0120
,
1030
0001
1002
0103
,
2001
3010
1000
0001
,
0200
0000
0000
0000
,
0310
0100
1000
0100
0010
0000
0100
0010
,
0001
0010
0100
0000
0001
1000
0001
0010
,
0100
1000
0100
1000
0001
0100
1000
0000
,
0100
0001
0100
0010
1000
0001
0010
0100
,
0010
0100
0001
0100
0010
0000
0100
0010
,
1000
0010
0100
0000
1000
0001
1000
0010
,
0100
0001
0100
0001
1000
0100
0001
0000
,
0100
1000
0100
0010
0001
1000
0010
0100
,
2002
0000
0000
3003
;

//---------------dance-single - ----------------
#NOTES:
     dance-single:
     :
     Medium:
     5:
     0.350,0.385,0.295,0.168,0.000,189.000,28.000,16.000,0.000,0.000:
0100
1000
0100
0000
0010
0001
0010
0001
,
0000
1000
0000
0010
0100
0000
0001
1000
,
0010
0000
1000
0000
0001
0000
1000
0001
,
0010
0100
0010
0100
,
0100
0001
0100
0000
0010
1000
0010
1000
,
0000
0001
0000
0010
0100
0000
1000
0001
,
0010
0000
0001
0000
1000
0000
0001
1000
,
0010
0100
0010
0100
,
0000
0000
0010
0200
0000
0000
0300
0000
,
0000
0000
0001
2000
0000
0000
3000
0000
,
0000
0000
0100
0020
0000
0000
0030
0000
,
0000
0000
1000
0002
0000
0000
0003
0000
,
1000
0000
0010
0200
0000
0000
0300
0000
,
0100
0000
0001
2000
0000
0000
3000
0000
,
0001
0000
0100
0020
0000
0000
0030
0000
,
0200
0000
0001
0002
0000
0000
0003
0000
,
0301
1000
0001
1000
,
0001
0001
0000
0000
1000
1000
0000
0000
,
0001
1001
0001
1001
,
1000
0000
1001
0000
1000
1001
0000
1001
,
0001
0000
0100
0000
1000
0100
1000
0000
,
0010
0020
0000
0030
0010
0020
0000
0030
,
1000
0000
0100
0000
0001
0100
0001
0000
,
0000
0000
0000
0000
,
1000
1100
1000
1100
,
0010
1010
0010
1010
,
1000
0100
1000
0000
0001
0100
0001
0000
,
0100
0001
0010
1000
,
0001
0101
0001
0101
,
0010
0011
0010
0011
,
0001
0100
0001
0000
1000
0100
1000
0000
,
0200
0000
0000
0000
,
1300
0001
1000
0001
,
1000
0000
0001
1000
0000
0001
0000
0000
,
1000
1000
0100
0100
,
0001
0001
0010
0010
,
1000
1100
0100
0101
,
0001
0011
0010
1010
,
1000
1001
0001
1001
,
0200
0000
0000
0000
,
1300
1100
1000
1100
,
0010
1010
0010
1010
,
1000
0100
1000
0000
0001
0100
0001
0000
,
0100
0001
0010
1000
,
0001
0101
0001
0101
,
0010
0011
0010
0011
,
0001
0100
0001
0000
1000
0100
1000
0000
,
0200
0000
0000
0000
0000
0000
0000
0300
,
2002
0000
0000
3003
;

//---------------dance-single - ----------------
#NOTES:
     dance-single:
     :
     Beginner:
     1:
     0.131,0.152,0.000,0.116,0.000,76.000,0.000,11.000,0.000,0.000:
0100
0000
0000
0000
,
0001
0000
1000
0000
,
0001
0000
0000
0000
,
0010
0000
0000
0000
,
0100
0000
0000
0000
,
1000
0000
0001
0000
,
1000
0000
0000
0000
,
0010
0000
0000
0000
,
0000
0200
0000
0300
,
0000
0002
0000
0003
,
0000
2000
0000
3000
,
0000
0020
0000
0030
,
0000
0200
0000
0300
,
0000
0002
0000
0003
,
0000
2000
0000
3000
,
0000
0020
0000
0030
,
1000
0000
0001
0000
,
1000
0000
1000
0000
,
0001
0000
1000
0000
,
0001
0000
0001
0000
,
0100
0000
0100
0000
,
1000
0000
0100
0000
,
0001
0000
0100
0000
,
0000
0000
0000
0000
,
0001
0000
0001
0000
,
1000
0000
1000
0000
,
0001
0000
1000
0000
,
0001
0001
0001
0000
,
1000
0000
1000
0000
,
0001
0000
0001
0000
,
1000
0000
0001
0000
,
2000
0000
0000
3000
,
0001
0000
0000
0000
,
0100
0000
0000
0000
,
1000
0000
0000
0000
,
0010
0000
0000
0000
,
0001
0000
0001
0000
,
1000
0000
1000
0000
,
0001
0000
1000
0000
,
0200
0000
0000
0300
,
1000
0000
1000
0000
,
0001
0000
0001
0000
,
1000
0000
0001
0000
,
1000
1000
1000
0000
,
0001
0000
0001
0000
,
1000
0000
1000
0000
,
0001
0000
1000
0000
,
0002
0000
0000
0000
,
1003
0000
0000
0000
;

//---------------dance-single - ----------------
#NOTES:
     dance-single:
     :
     Easy:
     3:
     0.242,0.328,0.042,0.137,0.000,144.000,4.000,13.000,0.000,0.000:
0001
0000
0100
0000
,
0001
0010
0000
0010
,
0001
0000
1000
0000
,
0010
1000
0100
0001
,
1000
0000
0100
0000
,
1000
0010
0000
0010
,
1000
0000
0001
0000
,
0010
0001
0100
1000
,
0000
0200
0000
0300
,
0000
0002
0000
0003
,
0000
2000
0000
3000
,
0000
0020
0000
0030
,
0000
0200
0000
0310
,
0000
0002
0000
1003
,
0000
2000
0000
3001
,
0000
0020
0000
0030
,
1000
0001
1000
0001
,
0200
0300
0200
0300
,
0001
1001
0001
1001
,
1000
1001
1000
1001
,
0001
0100
1000
0100
,
0001
0000
0000
0000
,
1000
0001
0100
0010
,
0000
0000
0000
0000
,
1000
1000
0001
0001
,
0100
0010
0100
0010
,
1000
0100
0001
0100
,
1000
0010
0001
0100
,
0001
0001
1000
1000
,
0100
0010
0100
0010
,
0001
0100
1000
0100
,
0002
0000
0000
0000
,
1003
0001
1000
0001
,
1000
0000
0001
1000
0000
0001
0000
0000
,
1000
0001
1000
0001
,
1000
0100
0001
0010
,
1000
0001
1000
0001
,
1000
0001
1000
0001
,
1000
0100
0001
0010
,
0200
0000
0000
0000
,
1300
1000
0001
0001
,
0100
0010
0100
0010
,
1000
0100
0001
0100
,
1000
0010
0001
0100
,
0001
0001
1000
1000
,
0100
0010
0100
0010
,
0001
0100
1000
0100
,
0002
0000
0000
0000
,
1003
0000
0000
0000
;
